<?xml version="1.0" standalone="no"?>
<!DOCTYPE svg PUBLIC "-//W3C//DTD SVG 1.1//EN" "http://www.w3.org/Graphics/SVG/1.1/DTD/svg11.dtd" >
<svg xmlns="http://www.w3.org/2000/svg" xmlns:xlink="http://www.w3.org/1999/xlink" version="1.1">
<metadata>
Created by FontForge 20170731 at Mon Sep  1 22:01:07 2008
 By Aleksey,,,
Copyright (c) 1999-2008 Typotheque.com All rights reserved.
</metadata>
<defs>
<font id="JigsawBold" horiz-adv-x="500" >
  <font-face 
    font-family="Jigsaw Bold"
    font-weight="700"
    font-stretch="normal"
    units-per-em="1000"
    panose-1="2 0 8 3 4 0 0 2 0 3"
    ascent="710"
    descent="-290"
    x-height="461"
    cap-height="688"
    bbox="-138 -261 1265 954"
    underline-thickness="50"
    underline-position="-200"
    unicode-range="U+0020-FB03"
  />
<missing-glyph horiz-adv-x="1000" 
 />
    <glyph glyph-name="fi" unicode="fi" horiz-adv-x="622" 
d="M100 0v356h-90v105h90v113q0 66 38.5 109t117.5 43q24 0 42.5 -1.5t33 -5.5t21.5 -6t19 -7.5t13 -5.5l-35 -93q-36 13 -68 13q-56 0 -56 -52v-107h309v-461h-125v356h-184v-356h-126zM471 541q-31 0 -53.5 22.5t-22.5 53.5q0 32 22.5 54.5t53.5 22.5q32 0 54.5 -22.5
t22.5 -54.5t-22.5 -54t-54.5 -22z" />
    <glyph glyph-name="f_f_i" unicode="ffi" horiz-adv-x="932" 
d="M100 0v355h-90v105h90v114q0 66 38.5 109t117.5 43q20 0 37.5 -1.5t29 -3.5t24.5 -5.5t17.5 -5.5t15 -6.5t11.5 -4.5l-35 -93q-42 14 -74 14q-56 0 -56 -52v-107h184v113q0 66 38.5 109t117.5 43q24 0 42.5 -1.5t33 -5.5t21.5 -6t19 -7.5t13 -5.5l-35 -93q-36 13 -68 13
q-56 0 -56 -52v-107h309v-461h-125v356h-184v-356h-126v356h-184v-356h-126zM781 541q-31 0 -53.5 22.5t-22.5 53.5q0 32 22.5 54.5t53.5 22.5q32 0 54.5 -22.5t22.5 -54.5t-22.5 -54t-54.5 -22z" />
    <glyph glyph-name="f_f_j" unicode="ffj" horiz-adv-x="932" 
d="M678 -261l-75 87q70 35 93 79.5t23 107.5v343h-183v-356h-126v356h-184v-356h-126v355h-90v105h90v114q0 66 38.5 109t117.5 43q20 0 37.5 -1.5t29 -3.5t24.5 -5.5t17.5 -5.5t15 -6.5t11.5 -4.5l-35 -93q-42 14 -74 14q-56 0 -56 -52v-107h184v113q0 66 38.5 109
t117.5 43q24 0 42.5 -1.5t33 -5.5t21.5 -6t19 -7.5t13 -5.5l-35 -93q-36 13 -68 13q-56 0 -56 -52v-107h309v-452q0 -87 -39.5 -158.5t-127.5 -111.5zM781 541q-31 0 -53.5 22.5t-22.5 53.5q0 32 22.5 54.5t53.5 22.5q32 0 54.5 -22.5t22.5 -54.5t-22.5 -54t-54.5 -22z" />
    <glyph glyph-name=".notdef" horiz-adv-x="1000" 
 />
    <glyph glyph-name=".null" horiz-adv-x="0" 
 />
    <glyph glyph-name="nonmarkingreturn" horiz-adv-x="333" 
 />
    <glyph glyph-name="space" unicode=" " horiz-adv-x="220" 
 />
    <glyph glyph-name="exclam" unicode="!" horiz-adv-x="347" 
d="M174 -6q-33 0 -56.5 23.5t-23.5 56.5t23.5 56t56.5 23t56 -23t23 -56t-23 -56.5t-56 -23.5zM110 214v474h127v-474h-127z" />
    <glyph glyph-name="quotedbl" unicode="&#x22;" horiz-adv-x="386" 
d="M55 514l-11 207h116l-18 -207h-87zM237 514l-11 207h116l-18 -207h-87z" />
    <glyph glyph-name="numbersign" unicode="#" horiz-adv-x="711" 
d="M110 0l25 163h-71v107h87l23 154h-84v106h100l24 158h124l-24 -158h135l24 158h125l-24 -158h73v-106h-89l-24 -154h89v-107h-105l-24 -163h-126l25 163h-134l-25 -163h-124zM275 270h134l24 154h-135z" />
    <glyph glyph-name="dollar" unicode="$" horiz-adv-x="550" 
d="M246 -67v64q-130 11 -202 78l82 85q49 -41 120 -57v78q-76 21 -123 53t-47 89q0 58 49 95t121 47v74h83v-72q87 -6 169 -53l-61 -92q-53 28 -108 35v-75q37 -10 63.5 -19.5t55 -25.5t43.5 -39t15 -52q0 -63 -50 -102.5t-127 -47.5v-63h-83zM246 304v50q-34 -8 -34 -28
q0 -12 34 -22zM329 99q39 6 39 30q0 14 -39 28v-58z" />
    <glyph glyph-name="percent" unicode="%" horiz-adv-x="853" 
d="M201 337q-76 0 -123.5 47.5t-47.5 131.5q0 81 52 129t131 48q77 0 124.5 -47.5t47.5 -130.5q0 -82 -53.5 -130t-130.5 -48zM206 441q24 0 41 18t17 58t-17.5 57.5t-38.5 17.5q-22 0 -39.5 -18t-17.5 -57q0 -76 55 -76zM639 -7q-76 0 -123.5 47.5t-47.5 131.5q0 81 52 129
t131 48q77 0 124.5 -47.5t47.5 -130.5q0 -82 -53.5 -130t-130.5 -48zM644 97q24 0 41 18t17 58t-17 57.5t-39 17.5t-39.5 -18t-17.5 -57q0 -40 16 -58t39 -18zM308 -39l-90 42l333 723l90 -43z" />
    <glyph glyph-name="ampersand" unicode="&#x26;" horiz-adv-x="689" 
d="M278 -7q-101 0 -167.5 49.5t-66.5 156.5q0 90 85 157q-75 55 -75 156q0 86 63 134t151 48q61 0 100 -11.5t81 -40.5l-62 -94q-44 27 -104 27q-37 0 -64.5 -16t-27.5 -51q0 -47 32 -66.5t76 -19.5h366v-115h-103v-307h-138v38q-19 -13 -30 -19.5t-44 -16t-72 -9.5z
M292 112q27 0 55.5 10t39.5 16.5t37 23.5v145h-191q-27 -23 -39.5 -44.5t-12.5 -58.5q0 -42 33.5 -67t77.5 -25z" />
    <glyph glyph-name="quotesingle" unicode="'" horiz-adv-x="234" 
d="M70 514l-11 207h116l-18 -207h-87z" />
    <glyph glyph-name="parenleft" unicode="(" horiz-adv-x="380" 
d="M272 -255q-85 81 -139.5 209.5t-54.5 281.5q0 155 63 298.5t142 211.5l79 -80q-66 -55 -112.5 -179.5t-46.5 -250.5q0 -108 42 -226t107 -179z" />
    <glyph glyph-name="parenright" unicode=")" horiz-adv-x="380" 
d="M107 -255l-80 86q64 61 106.5 183.5t42.5 231.5q0 125 -46 244.5t-113 175.5l79 80q80 -68 142.5 -207t62.5 -293t-55 -287.5t-139 -213.5z" />
    <glyph glyph-name="asterisk" unicode="*" horiz-adv-x="434" 
d="M187 339l-107 60l66 74l-96 -22v123l97 -20l-67 73l107 62l31 -94l29 94l107 -62l-67 -73l97 20v-123l-96 22l66 -74l-107 -60l-31 93zM215 470q18 0 31 13t13 31t-13 31t-31 13t-31 -13t-13 -31t13 -31t31 -13z" />
    <glyph glyph-name="plus" unicode="+" horiz-adv-x="510" 
d="M190 117v171h-171v109h171v170h130v-170h171v-109h-171v-171h-130z" />
    <glyph glyph-name="comma" unicode="," horiz-adv-x="300" 
d="M39 -89l79 208h147l-122 -208h-104z" />
    <glyph glyph-name="hyphen" unicode="-" horiz-adv-x="296" 
d="M14 198v119h268v-119h-268z" />
    <glyph glyph-name="period" unicode="." horiz-adv-x="300" 
d="M151 -6q-33 0 -56.5 23.5t-23.5 56.5t23.5 56t56.5 23t56 -23t23 -56t-23 -56.5t-56 -23.5z" />
    <glyph glyph-name="slash" unicode="/" horiz-adv-x="342" 
d="M98 -22l-110 40l254 698l110 -40z" />
    <glyph glyph-name="zero" unicode="0" horiz-adv-x="586" 
d="M296 -6q-134 0 -195 68t-61 172q0 101 69.5 167.5t186.5 66.5q115 0 182.5 -61.5t67.5 -173.5q0 -110 -66 -174.5t-184 -64.5zM293 111q55 0 85.5 35t30.5 88q0 49 -31.5 82t-81.5 33q-54 0 -85.5 -31.5t-31.5 -83.5q0 -56 32.5 -89.5t81.5 -33.5z" />
    <glyph glyph-name="one" unicode="1" horiz-adv-x="355" 
d="M159 0v309l-92 -55l-57 100l159 107h126v-461h-136z" />
    <glyph glyph-name="two" unicode="2" horiz-adv-x="477" 
d="M72 0l-41 108q151 76 204.5 115t53.5 76q0 22 -16.5 36t-50.5 14q-58 0 -119 -55l-73 89q87 85 197 85q101 0 155.5 -45.5t54.5 -120.5q0 -56 -53.5 -100.5t-158.5 -82.5h222v-119h-375z" />
    <glyph glyph-name="three" unicode="3" horiz-adv-x="442" 
d="M175 -231q-56 0 -97 14t-91 48l54 100q77 -45 128 -45q46 0 77 27t31 73q0 31 -8.5 50t-28.5 27.5t-38 10.5t-49 2l-41 -1v107h42q44 0 75.5 24.5t31.5 69.5q0 34 -21 54.5t-59 20.5q-53 0 -113 -33l-52 104q78 48 170 48q90 0 150 -46t60 -133q0 -56 -20.5 -91.5
t-58.5 -63.5q51 -23 76.5 -57t25.5 -95q0 -101 -70.5 -158t-173.5 -57z" />
    <glyph glyph-name="four" unicode="4" horiz-adv-x="538" 
d="M294 -202v202h-246l-38 94l258 366h162v-341h78v-119h-78v-202h-136zM155 119h139v206z" />
    <glyph glyph-name="five" unicode="5" horiz-adv-x="498" 
d="M207 -234q-106 0 -187 60l60 105q79 -48 136 -48q103 0 103 110q0 94 -100 94q-19 0 -49 -3.5t-50 -6.5l-21 -3l-41 58l45 329h338v-118h-233l-17 -142q46 4 51 4q109 0 167.5 -53t58.5 -158q0 -113 -73.5 -170.5t-187.5 -57.5z" />
    <glyph glyph-name="six" unicode="6" horiz-adv-x="533" 
d="M271 -6q-114 0 -177.5 62.5t-63.5 190.5q0 154 92.5 270.5t236.5 176.5l67 -95q-79 -41 -131 -81t-84 -99q36 9 76 9q98 0 157 -50.5t59 -157.5q0 -100 -66 -163t-166 -63zM269 106q46 0 71.5 29t25.5 80q0 44 -26.5 72.5t-69.5 28.5q-29 0 -97 -10q-8 -27 -8 -63
q0 -137 104 -137z" />
    <glyph glyph-name="seven" unicode="7" horiz-adv-x="477" 
d="M173 -235l-128 38l262 539h-297v119h407l50 -77z" />
    <glyph glyph-name="eight" unicode="8" horiz-adv-x="554" 
d="M276 -7q-99 0 -167.5 52t-68.5 144q0 116 120 171q-103 49 -103 144q0 33 13 65.5t39 61t70 46t100 17.5q104 0 161.5 -53.5t57.5 -130.5q0 -96 -96 -149q112 -59 112 -167q0 -91 -67.5 -146t-170.5 -55zM277 106q45 0 73 23t28 60q0 38 -26.5 64t-77.5 51
q-48 -21 -73 -45t-25 -63q0 -36 29 -63t72 -27zM285 410q75 35 75 90q0 39 -24.5 57t-57.5 18q-34 0 -59 -18t-25 -51t23.5 -55t67.5 -41z" />
    <glyph glyph-name="nine" unicode="9" horiz-adv-x="533" 
d="M174 -233l-67 95q79 41 131 81t84 99q-36 -9 -76 -9q-98 0 -157 50.5t-59 157.5q0 100 66 163t166 63q114 0 177.5 -62.5t63.5 -190.5q0 -154 -92.5 -270.5t-236.5 -176.5zM263 145q29 0 97 10q8 27 8 63q0 137 -104 137q-46 0 -71.5 -29t-25.5 -80q0 -44 26.5 -72.5
t69.5 -28.5z" />
    <glyph glyph-name="colon" unicode=":" horiz-adv-x="300" 
d="M151 -6q-33 0 -57 23.5t-24 56.5t23.5 56t56.5 23t56.5 -23t23.5 -56t-23 -56.5t-56 -23.5zM151 307q-33 0 -57 23.5t-24 56.5t23.5 56.5t56.5 23.5t56.5 -23.5t23.5 -56.5t-23 -56.5t-56 -23.5z" />
    <glyph glyph-name="semicolon" unicode=";" horiz-adv-x="300" 
d="M162 307q-33 0 -56 23.5t-23 56.5t23 56.5t56 23.5t56.5 -23.5t23.5 -56.5t-23.5 -56.5t-56.5 -23.5zM6 -89l78 208h148l-123 -208h-103z" />
    <glyph glyph-name="less" unicode="&#x3c;" horiz-adv-x="522" 
d="M378 87l-314 257l314 257l79 -90l-210 -167l211 -165z" />
    <glyph glyph-name="equal" unicode="=" horiz-adv-x="608" 
d="M70 189v112h468v-112h-468zM70 386v112h468v-112h-468z" />
    <glyph glyph-name="greater" unicode="&#x3e;" horiz-adv-x="522" 
d="M144 87l-80 92l211 165l-210 167l79 91l314 -258z" />
    <glyph glyph-name="question" unicode="?" horiz-adv-x="436" 
d="M103 214v162q59 0 103 25t44 78q0 50 -44.5 74t-102.5 24v117q54 0 102.5 -11.5t90.5 -36t67 -68t25 -100.5q0 -18 -5.5 -42.5t-20 -57t-47.5 -57.5t-80 -32v-75h-132zM168 -7q-33 0 -56.5 23.5t-23.5 55.5q0 33 23.5 57t56.5 24q32 0 55.5 -23.5t23.5 -57.5
q-1 -32 -24 -55.5t-55 -23.5z" />
    <glyph glyph-name="at" unicode="@" horiz-adv-x="808" 
d="M402 -116q-167 0 -257.5 89.5t-90.5 271.5q0 155 100 255t250 100q157 0 254 -87.5t97 -246.5q0 -110 -46 -173.5t-133 -63.5q-86 0 -115 43q-56 -45 -105 -45q-55 0 -89.5 28.5t-34.5 82.5q0 101 147 129l68 13v26q0 25 -11.5 33.5t-38.5 8.5q-56 0 -112 -35l-37 68
q75 53 154 53q139 0 139 -119v-200q12 -9 45 -9q26 0 45 16.5t28 43.5t12.5 52t3.5 50q0 120 -73 189.5t-194 69.5q-119 0 -196 -79t-77 -200q0 -140 69 -213t198 -73q45 0 107 22l28 -69q-69 -31 -135 -31zM366 111q34 0 80 27v74l-57 -13q-63 -13 -63 -53q0 -17 12 -26
t28 -9z" />
    <glyph glyph-name="A" unicode="A" horiz-adv-x="694" 
d="M136 -3l-140 9l284 682h142l276 -683l-147 -7l-70 184h-273zM252 295h186l-91 251z" />
    <glyph glyph-name="B" unicode="B" horiz-adv-x="590" 
d="M70 0v688h215q65 0 116 -16.5t86.5 -59.5t35.5 -109q0 -50 -15.5 -84.5t-54.5 -59.5q47 -16 74.5 -60t27.5 -102q0 -96 -73.5 -146.5t-175.5 -50.5h-236zM206 118l89 1q120 2 120 91q0 83 -112 83h-97v-175zM206 407h88q40 0 65 22t25 64q0 34 -28.5 55t-66.5 21h-83
v-162z" />
    <glyph glyph-name="C" unicode="C" horiz-adv-x="589" 
d="M391 -6q-168 0 -262 96t-94 255q0 154 98.5 251.5t252.5 97.5q111 0 184 -47l-59 -100q-44 28 -131 28q-95 0 -151.5 -66.5t-56.5 -162.5q0 -101 59.5 -167t159.5 -66q86 0 139 27l54 -97q-74 -49 -193 -49z" />
    <glyph glyph-name="D" unicode="D" horiz-adv-x="726" 
d="M70 0v688h266q163 0 259 -87.5t96 -247.5q0 -155 -101.5 -254t-255.5 -99h-264zM206 118h108q110 0 175 64t65 177q0 114 -65 162t-181 48h-102v-451z" />
    <glyph glyph-name="E" unicode="E" horiz-adv-x="542" 
d="M70 0v688h432v-118h-296v-161h274v-116h-274v-174h296v-119h-432z" />
    <glyph glyph-name="F" unicode="F" horiz-adv-x="512" 
d="M70 0v688h422v-118h-286v-161h264v-117h-264v-292h-136z" />
    <glyph glyph-name="G" unicode="G" horiz-adv-x="683" 
d="M379 -6q-152 0 -248 97t-96 249q0 161 102.5 257t261.5 96q129 0 209 -50l-57 -98q-27 13 -70.5 21.5t-75.5 8.5q-109 0 -171 -62.5t-62 -172.5q0 -97 57.5 -162t153.5 -65q49 0 69.5 3.5t49.5 15.5v150h-142v105h273v-306q-51 -48 -109.5 -67.5t-144.5 -19.5z" />
    <glyph glyph-name="H" unicode="H" horiz-adv-x="715" 
d="M70 0v688h137v-278h301v278h137v-688h-137v292h-301v-292h-137z" />
    <glyph glyph-name="I" unicode="I" horiz-adv-x="277" 
d="M70 0v688h137v-688h-137z" />
    <glyph glyph-name="J" unicode="J" horiz-adv-x="277" 
d="M-100 -212v119q84 -1 128 33t44 116v632h136v-627q0 -142 -81.5 -207.5t-226.5 -65.5z" />
    <glyph glyph-name="K" unicode="K" horiz-adv-x="650" 
d="M70 0v688h137v-324l268 331l157 -20l-266 -308l283 -346l-156 -29l-286 365v-357h-137z" />
    <glyph glyph-name="L" unicode="L" horiz-adv-x="514" 
d="M70 0v688h137v-569h303v-119h-440z" />
    <glyph glyph-name="M" unicode="M" horiz-adv-x="880" 
d="M175 -4l-134 5l68 687h168l163 -476l170 476h164l67 -685l-137 -5l-39 507l-163 -438h-141l-150 442z" />
    <glyph glyph-name="N" unicode="N" horiz-adv-x="765" 
d="M70 0v688h146l342 -450v450h137v-688h-134l-354 457v-457h-137z" />
    <glyph glyph-name="O" unicode="O" horiz-adv-x="773" 
d="M388 -6q-158 0 -255.5 96t-97.5 254q0 149 96 249t258 100q158 0 253.5 -101.5t95.5 -246.5q0 -156 -95 -253.5t-255 -97.5zM384 112q100 0 158 66t58 166q0 101 -55.5 166t-157.5 65q-101 0 -157.5 -65.5t-56.5 -165.5q0 -96 56 -164t155 -68z" />
    <glyph glyph-name="P" unicode="P" horiz-adv-x="562" 
d="M70 0v688h201q117 0 191.5 -52.5t74.5 -156.5q0 -62 -22 -109t-60.5 -73.5t-84.5 -39.5t-99 -13h-65v-244h-136zM206 356h58q56 0 95.5 29t39.5 89q0 96 -133 96h-60v-214z" />
    <glyph glyph-name="Q" unicode="Q" horiz-adv-x="787" 
d="M774 -7l-286 11q-60 -10 -99 -10q-158 0 -256 97.5t-98 252.5q0 149 95.5 249.5t258.5 100.5q157 0 253 -102t96 -247t-77 -236h113v-116zM386 113q100 0 157.5 64.5t57.5 166.5q0 101 -55 166t-157 65q-100 0 -158.5 -64t-58.5 -167q0 -98 57.5 -164.5t156.5 -66.5z" />
    <glyph glyph-name="R" unicode="R" horiz-adv-x="596" 
d="M438 -6l-153 263h-79v-257h-136v688h203q117 0 189.5 -51.5t72.5 -153.5q0 -71 -28 -117t-90 -81l177 -278zM206 374h57q134 0 134 99q0 96 -137 96h-54v-195z" />
    <glyph glyph-name="S" unicode="S" horiz-adv-x="504" 
d="M249 -6q-73 0 -126.5 18t-102.5 63l82 95q69 -57 142 -57q39 0 69.5 20.5t30.5 58.5q0 41 -28 64t-85 46q-30 13 -43 19t-39.5 20t-39.5 28t-28.5 34.5t-22 48t-6.5 60.5q0 80 67 131t149 51q114 0 206 -54l-61 -102q-20 14 -60.5 26t-77.5 12q-90 0 -90 -69
q0 -15 6 -27.5t13.5 -20.5t24 -18t27 -14.5t34.5 -14t34 -14.5q34 -15 58 -29.5t49 -38t38 -57.5t13 -77q0 -89 -71 -145.5t-162 -56.5z" />
    <glyph glyph-name="T" unicode="T" horiz-adv-x="519" 
d="M193 0v570h-193v118h519v-118h-189v-570h-137z" />
    <glyph glyph-name="U" unicode="U" horiz-adv-x="704" 
d="M354 -6q-77 0 -140.5 24t-106 79.5t-42.5 134.5v456h137v-448q0 -62 45 -94.5t110 -32.5q145 0 145 134v441h137v-455q0 -114 -83 -176.5t-202 -62.5z" />
    <glyph glyph-name="V" unicode="V" horiz-adv-x="690" 
d="M256 0l-261 676l145 17l204 -553l208 555l142 -15l-280 -680h-158z" />
    <glyph glyph-name="W" unicode="W" horiz-adv-x="947" 
d="M175 0l-176 683l149 13l116 -554l133 546h165l121 -546l128 552l137 -10l-189 -684h-159l-123 531l-139 -531h-163z" />
    <glyph glyph-name="X" unicode="X" horiz-adv-x="660" 
d="M148 -6l-154 16l254 341l-246 329l165 15l168 -239l167 239l149 -21l-237 -320l253 -344l-161 -16l-180 254z" />
    <glyph glyph-name="Y" unicode="Y" horiz-adv-x="620" 
d="M239 0v275l-243 398l154 20l163 -297l167 297l145 -20l-249 -398v-275h-137z" />
    <glyph glyph-name="Z" unicode="Z" horiz-adv-x="574" 
d="M60 0l-45 91l350 478h-317v119h453l48 -95l-350 -475h328v-118h-467z" />
    <glyph glyph-name="bracketleft" unicode="[" horiz-adv-x="325" 
d="M64 -240v961h247v-114h-121v-733h121v-114h-247z" />
    <glyph glyph-name="backslash" unicode="\" horiz-adv-x="342" 
d="M242 -22l-254 698l110 40l254 -698z" />
    <glyph glyph-name="bracketright" unicode="]" horiz-adv-x="325" 
d="M14 -240v114h121v733h-121v114h247v-961h-247z" />
    <glyph glyph-name="asciicircum" unicode="^" horiz-adv-x="621" 
d="M36 263l219 414h125l205 -414h-137l-138 293l-139 -293h-135z" />
    <glyph glyph-name="underscore" unicode="_" 
d="M0 -184v126h500v-126h-500z" />
    <glyph glyph-name="grave" unicode="`" horiz-adv-x="330" 
d="M216 499l-184 129l75 86l173 -146z" />
    <glyph glyph-name="a" unicode="a" horiz-adv-x="477" 
d="M371 -16l-58 55q-73 -46 -138 -46q-59 0 -102 33t-43 101q0 65 49.5 100t121.5 46l87 13v26q0 20 -15.5 34.5t-48.5 14.5q-62 0 -130 -36l-45 86q29 19 82.5 37.5t103.5 18.5q72 0 125.5 -34.5t53.5 -113.5v-212l43 -44zM196 91q16 0 47 8t45 16v92l-77 -14
q-59 -11 -59 -58q0 -20 13.5 -32t30.5 -12z" />
    <glyph glyph-name="b" unicode="b" horiz-adv-x="543" 
d="M304 -7q-67 0 -120 48v-41h-124v721h126v-295q63 41 122 41q96 0 150.5 -65t54.5 -169q0 -99 -56 -169.5t-153 -70.5zM294 105q47 0 70 38.5t23 87.5q0 51 -23.5 88t-70.5 37q-56 0 -107 -34v-173q56 -44 108 -44z" />
    <glyph glyph-name="c" unicode="c" horiz-adv-x="425" 
d="M266 -6q-108 0 -172 60.5t-64 166.5q0 108 63 177t169 69q80 0 144 -38l-58 -95q-41 22 -79 22q-53 0 -83 -36t-30 -89q0 -55 32 -90t87 -35q43 0 79 18l57 -91q-64 -39 -145 -39z" />
    <glyph glyph-name="d" unicode="d" horiz-adv-x="544" 
d="M239 -7q-99 0 -154 63t-55 167q0 100 55.5 172t149.5 72q68 0 123 -35v289h126v-721h-126v34q-50 -41 -119 -41zM251 105q32 0 54.5 10.5t52.5 34.5v173q-46 33 -105 33q-49 0 -73 -37t-24 -88q0 -49 24 -87.5t71 -38.5z" />
    <glyph glyph-name="e" unicode="e" horiz-adv-x="470" 
d="M259 -7q-111 0 -170 61.5t-59 172.5q0 104 60 172t162 68q91 0 141.5 -61.5t50.5 -154.5v-66h-285q7 -37 37 -60.5t67 -23.5q60 0 117 18l36 -93q-67 -33 -157 -33zM157 270h164q0 41 -19 70.5t-59 29.5t-60.5 -29.5t-25.5 -70.5z" />
    <glyph glyph-name="f" unicode="f" horiz-adv-x="371" 
d="M100 0v355h-90v105h90v114q0 66 38.5 109t117.5 43q20 0 37.5 -1.5t29 -3.5t24.5 -5.5t17.5 -5.5t15 -6.5t11.5 -4.5l-35 -93q-42 14 -74 14q-56 0 -56 -52v-107h110v-105h-110v-356h-126z" />
    <glyph glyph-name="g" unicode="g" horiz-adv-x="517" 
d="M240 -237q-42 0 -78.5 9.5t-68 29.5t-50 57.5t-18.5 87.5q0 69 43.5 114t107.5 60l5 1q-63 13 -103 58t-40 109q0 82 58 130t141 48q65 0 105 -25l169 35v-118h-94q19 -34 19 -70q0 -64 -38 -108t-104 -59l5 -1q68 -15 112 -60t44 -114q0 -87 -64.5 -135.5t-150.5 -48.5z
M240 -134q41 0 65 21.5t24 59.5t-24.5 59.5t-64.5 21.5q-41 0 -65.5 -21.5t-24.5 -59.5q0 -39 23.5 -60t66.5 -21zM237 212q30 0 51.5 22t21.5 55t-21.5 54t-52.5 21t-52.5 -21.5t-21.5 -53.5q0 -34 22 -55.5t53 -21.5z" />
    <glyph glyph-name="h" unicode="h" horiz-adv-x="531" 
d="M60 0v721h126v-306q62 52 135 52q70 0 115 -36.5t45 -104.5v-326h-126v300q0 29 -13.5 41t-42.5 12q-52 0 -113 -49v-304h-126z" />
    <glyph glyph-name="i" unicode="i" horiz-adv-x="245" 
d="M122 541q-32 0 -54 22.5t-22 53.5q0 32 22.5 54.5t53.5 22.5q32 0 54.5 -22.5t22.5 -54.5t-22.5 -54t-54.5 -22zM60 0v461h125v-461h-125z" />
    <glyph glyph-name="j" unicode="j" horiz-adv-x="245" 
d="M123 541q-32 0 -54.5 22t-22.5 54t22.5 54.5t54.5 22.5q31 0 53.5 -22.5t22.5 -54.5q0 -31 -22.5 -53.5t-53.5 -22.5zM20 -239l-75 87q70 35 93 79.5t23 107.5v426h126v-430q0 -87 -39.5 -158.5t-127.5 -111.5z" />
    <glyph glyph-name="k" unicode="k" horiz-adv-x="490" 
d="M60 0v721h126v-465l153 206l151 -5l-164 -201l174 -249l-151 -14l-163 258v-251h-126z" />
    <glyph glyph-name="l" unicode="l" horiz-adv-x="246" 
d="M60 0v721h126v-721h-126z" />
    <glyph glyph-name="m" unicode="m" horiz-adv-x="764" 
d="M60 0v461h126v-44q55 50 130 50q34 0 64 -15.5t46 -43.5q20 21 58.5 40t92.5 19q64 0 100.5 -42t36.5 -106v-319h-126v311q0 45 -43 45q-58 0 -95 -35v-321h-126v311q0 44 -45 44q-57 0 -93 -34v-321h-126z" />
    <glyph glyph-name="n" unicode="n" horiz-adv-x="531" 
d="M60 0v461h126v-46q62 52 135 52q70 0 115 -36.5t45 -104.5v-326h-126v303q0 29 -13.5 41t-42.5 12q-52 0 -113 -49v-307h-126z" />
    <glyph glyph-name="o" unicode="o" horiz-adv-x="526" 
d="M265 -5q-106 0 -170.5 63.5t-64.5 170.5q0 60 23 112.5t78 89.5t134 37q117 0 174 -71t57 -167q0 -94 -59 -164.5t-172 -70.5zM264 105q50 0 76.5 32t26.5 93q0 65 -30.5 95.5t-71.5 30.5q-40 0 -72.5 -30.5t-32.5 -96.5q0 -54 26.5 -89t77.5 -35z" />
    <glyph glyph-name="p" unicode="p" horiz-adv-x="543" 
d="M60 -239v700h126v-35q63 41 122 41q96 0 150.5 -65.5t54.5 -168.5q0 -100 -56 -169.5t-153 -69.5q-71 0 -118 37v-270h-126zM293 105q47 0 71 38.5t24 87.5q0 51 -24 88t-73 37q-55 0 -105 -38v-172q31 -24 51 -32.5t56 -8.5z" />
    <glyph glyph-name="q" unicode="q" horiz-adv-x="542" 
d="M356 -239v272q-48 -39 -118 -39q-97 0 -152.5 67t-55.5 165q0 101 55.5 171t149.5 70q67 0 121 -35v29h126v-700h-126zM249 105q50 0 107 44v170q-45 36 -105 36q-49 0 -72.5 -36.5t-23.5 -87.5q0 -49 23.5 -87.5t70.5 -38.5z" />
    <glyph glyph-name="r" unicode="r" horiz-adv-x="366" 
d="M60 0v461h126v-57q40 43 57 53q23 13 54 13q30 0 74 -19l-54 -114q-18 13 -56 13q-41 0 -75 -65v-285h-126z" />
    <glyph glyph-name="s" unicode="s" horiz-adv-x="397" 
d="M183 -7q-101 0 -170 51l54 90q56 -34 115 -34q65 0 65 32q0 5 -2 9t-7.5 8.5t-10 7.5t-14 8t-15.5 7.5t-19 7.5t-19 8q-57 23 -89 55t-32 89q0 66 50.5 100.5t114.5 34.5q104 0 166 -50l-59 -85q-49 32 -106 32q-47 0 -47 -28q0 -7 2.5 -12.5t10.5 -10.5t13 -7.5t19 -8
t20 -8.5q3 -1 19.5 -8t21 -9t19.5 -9t20.5 -11t17.5 -12.5t17 -15t13.5 -17t11.5 -21t6 -23.5t3 -28q0 -66 -54.5 -104t-134.5 -38z" />
    <glyph glyph-name="t" unicode="t" horiz-adv-x="366" 
d="M222 -6q-67 0 -102.5 37.5t-35.5 102.5v221h-74v106h74v109h126v-109h119v-105h-119v-209q0 -42 48 -42q24 0 71 14l27 -100q-55 -25 -134 -25z" />
    <glyph glyph-name="u" unicode="u" horiz-adv-x="536" 
d="M215 -6q-71 0 -115.5 36t-44.5 105v326h126v-303q0 -29 13.5 -41t42.5 -12q45 0 113 53v303h126v-461h-126v46q-60 -52 -135 -52z" />
    <glyph glyph-name="v" unicode="v" horiz-adv-x="486" 
d="M170 0l-175 456l140 9l107 -333l121 334l132 -12l-190 -454h-135z" />
    <glyph glyph-name="w" unicode="w" horiz-adv-x="765" 
d="M160 0l-167 454l130 13l107 -330l97 324h115l98 -324l104 330l127 -10l-173 -457h-127l-90 291l-92 -291h-129z" />
    <glyph glyph-name="x" unicode="x" horiz-adv-x="469" 
d="M472 6l-146 -14l-98 151l-92 -149l-145 12l172 228l-155 220l148 13l80 -137l94 137l141 -15l-172 -208z" />
    <glyph glyph-name="y" unicode="y" horiz-adv-x="486" 
d="M66 -239q-12 0 -35.5 1.5t-28.5 1.5v113q32 -2 49 -2q77 0 108 79l14 38l-178 465l138 7l109 -327l121 327l128 -13l-218 -528q-67 -162 -207 -162z" />
    <glyph glyph-name="z" unicode="z" horiz-adv-x="440" 
d="M61 0l-41 83l226 266h-208v112h350l32 -88l-219 -261h212v-112h-352z" />
    <glyph glyph-name="braceleft" unicode="{" horiz-adv-x="376" 
d="M281 -237q-79 0 -120 39.5t-41 110.5v196q0 49 -14.5 62t-78.5 14v111q62 1 77.5 14.5t15.5 61.5v200q0 79 39 114t122 35h63v-119h-60q-22 0 -29.5 -11.5t-7.5 -47.5v-184q0 -86 -40 -120q40 -34 40 -117v-179v-11v-11.5t0.5 -9.5t2 -9.5l4.5 -7.5t6.5 -6.5t9.5 -3
t14 -1.5h60v-120h-63z" />
    <glyph glyph-name="bar" unicode="|" horiz-adv-x="250" 
d="M60 -178v940h130v-940h-130z" />
    <glyph glyph-name="braceright" unicode="}" horiz-adv-x="376" 
d="M39 -237v120h60q8 0 14 1.5t9.5 3t6.5 6.5l4.5 7.5t2 9.5t0.5 9.5v11.5v11v183q0 83 40 117q-40 34 -40 120v179q0 37 -7.5 48t-29.5 11h-60v119h63q83 0 122 -35t39 -114v-195q0 -48 15.5 -61.5t77.5 -14.5v-111q-63 -1 -78 -14t-15 -62v-200q0 -71 -41 -110.5
t-120 -39.5h-63z" />
    <glyph glyph-name="asciitilde" unicode="~" horiz-adv-x="521" 
d="M342 247q-37 0 -68 16.5t-57.5 33t-53.5 16.5q-31 0 -91 -48l-58 82q83 96 161 96q38 0 70.5 -16.5t58 -32.5t48.5 -16q36 0 90 43l65 -79q-82 -95 -165 -95z" />
    <glyph glyph-name="uni00A0" unicode="&#xa0;" horiz-adv-x="220" 
 />
    <glyph glyph-name="exclamdown" unicode="&#xa1;" horiz-adv-x="347" 
d="M173 340q-33 0 -56 23t-23 56t23 56.5t56 23.5t56.5 -23.5t23.5 -56.5t-23.5 -56t-56.5 -23zM110 -195v474h126v-474h-126z" />
    <glyph glyph-name="cent" unicode="&#xa2;" horiz-adv-x="425" 
d="M219 -67v64q-88 13 -138.5 71.5t-50.5 152.5q0 96 50.5 162.5t138.5 80.5v58h82v-58q56 -6 105 -35l-58 -95q-21 12 -47 18v-244q27 3 53 16l57 -91q-50 -31 -110 -37v-63h-82zM219 118v227q-63 -30 -63 -114q0 -81 63 -113z" />
    <glyph glyph-name="sterling" unicode="&#xa3;" horiz-adv-x="540" 
d="M82 0v90q51 28 60 78h-61v96h56v16q0 96 59 143t157 47q74 0 145 -37l-44 -98q-49 23 -99 23q-89 0 -89 -74v-20h114v-96h-120q-9 -31 -34 -56h274v-112h-418z" />
    <glyph glyph-name="currency" unicode="&#xa4;" horiz-adv-x="516" 
d="M89 122l-61 59l58 58q-44 49 -44 113q0 65 43 113l-57 57l60 60l68 -68q48 21 102 21q53 0 103 -21l67 68l61 -60l-58 -58q42 -47 42 -112q0 -64 -43 -112l59 -58l-61 -60l-68 68q-48 -20 -102 -20q-55 0 -101 20zM258 268q84 0 84 84q0 36 -20 60.5t-64 24.5t-64.5 -24
t-20.5 -61q0 -35 21 -59.5t64 -24.5z" />
    <glyph glyph-name="yen" unicode="&#xa5;" horiz-adv-x="648" 
d="M253 0v45h-189v90h189v56h-189v90h114l-103 160l146 31l106 -186l113 187l138 -31l-111 -161h113v-90h-190v-56h190v-90h-190v-45h-137z" />
    <glyph glyph-name="brokenbar" unicode="&#xa6;" horiz-adv-x="250" 
d="M60 -178v420h130v-420h-130zM60 361v401h130v-401h-130z" />
    <glyph glyph-name="section" unicode="&#xa7;" horiz-adv-x="520" 
d="M254 -122q-114 0 -214 79l73 89q37 -30 68.5 -43t73.5 -13q35 0 57 14t22 33q0 20 -29.5 38t-71.5 34.5t-84.5 37.5t-72 57.5t-29.5 85.5q0 79 71 137q-57 43 -57 111q0 69 55 112.5t143 43.5q60 0 97 -13t90 -48l-70 -94q-31 24 -54.5 33t-61.5 9q-36 0 -54 -11.5
t-18 -29.5t28 -34t68 -31.5t80 -36t68 -56.5t28 -83q0 -77 -78 -132q78 -47 78 -124q0 -73 -57 -119t-149 -46zM264 223q70 33 70 69q0 41 -105 77q-21 -12 -39 -31.5t-18 -42.5q0 -34 80 -67l6 -3z" />
    <glyph glyph-name="dieresis" unicode="&#xa8;" horiz-adv-x="398" 
d="M88 529q-32 0 -54 22.5t-22 53.5q0 32 22.5 54.5t53.5 22.5q32 0 54.5 -22.5t22.5 -54.5t-22.5 -54t-54.5 -22zM309 529q-31 0 -53.5 22.5t-22.5 53.5q0 32 22.5 54.5t53.5 22.5q32 0 54.5 -22.5t22.5 -54.5t-22.5 -54t-54.5 -22z" />
    <glyph glyph-name="copyright" unicode="&#xa9;" horiz-adv-x="767" 
d="M394 141q-97 0 -152 54.5t-55 145.5q0 87 57 142.5t147 55.5q65 0 112 -29l-38 -64q-29 18 -77 18q-51 0 -82 -35.5t-31 -87.5q0 -54 32.5 -89t86.5 -35q48 0 82 16l35 -61q-47 -31 -117 -31zM384 -6q-145 0 -249.5 103t-104.5 247t104.5 246.5t249.5 102.5t249 -102.5
t104 -246.5t-104 -247t-249 -103zM384 64q116 0 194.5 82t78.5 198q0 115 -78.5 197t-194.5 82t-195 -82t-79 -197q0 -116 79 -198t195 -82z" />
    <glyph glyph-name="ordfeminine" unicode="&#xaa;" horiz-adv-x="434" 
d="M303 328l-42 40q-50 -31 -95 -31t-79 23t-34 72q0 26 13 46t29.5 31.5t45.5 20.5t46 12t47 7v19q0 23 -34 23q-53 0 -96 -24l-38 84q65 43 142 43q24 0 46 -5.5t43.5 -17.5t34.5 -36t13 -57v-143l35 -36zM181 421q21 0 53 13v50l-41 -7q-33 -7 -33 -31q0 -12 6.5 -18.5
t14.5 -6.5z" />
    <glyph glyph-name="guillemotleft" unicode="&#xab;" horiz-adv-x="482" 
d="M165 25l-135 189l135 189l86 -55l-97 -134l97 -132zM366 25l-135 189l134 189l87 -55l-98 -134l98 -132z" />
    <glyph glyph-name="logicalnot" unicode="&#xac;" horiz-adv-x="537" 
d="M383 117v171h-353v109h467v-280h-114z" />
    <glyph glyph-name="registered" unicode="&#xae;" 
d="M294 416l-50 79h-16v-73h-39v201h50q82 0 82 -59q0 -44 -36 -60q9 -12 23.5 -35t23.5 -36zM250 324q-79 0 -134.5 55.5t-55.5 133.5q0 79 55.5 135t134.5 56t134.5 -56t55.5 -135q0 -78 -55.5 -133.5t-134.5 -55.5zM250 368q59 0 101 42.5t42 102.5q0 61 -42 104t-101 43
t-101 -43t-42 -104q0 -60 42 -102.5t101 -42.5zM228 529h13q38 0 38 33q0 12 -9.5 19.5t-21.5 7.5h-20v-60z" />
    <glyph glyph-name="macron" unicode="&#xaf;" horiz-adv-x="325" 
d="M30 541v105h265v-105h-265z" />
    <glyph glyph-name="degree" unicode="&#xb0;" horiz-adv-x="403" 
d="M201 433q-59 0 -100 40t-41 98q0 59 41.5 100.5t99.5 41.5q59 0 100.5 -41.5t41.5 -100.5q0 -58 -41.5 -98t-100.5 -40zM201 518q21 0 36.5 16t15.5 37q0 22 -15.5 38t-36.5 16q-20 0 -35.5 -16t-15.5 -38q0 -21 15.5 -37t35.5 -16z" />
    <glyph glyph-name="plusminus" unicode="&#xb1;" horiz-adv-x="510" 
d="M190 170v171h-171v109h171v170h130v-170h171v-109h-171v-171h-130zM19 0v112h472v-112h-472z" />
    <glyph glyph-name="twosuperior" unicode="&#xb2;" horiz-adv-x="350" 
d="M65 335l-26 72q40 30 61.5 46.5t49.5 42t40.5 46t12.5 38.5q0 30 -41 30q-33 0 -64 -28l-54 67q53 48 130 48q58 0 92.5 -28.5t34.5 -83.5q-3 -75 -130 -162h127v-88h-233z" />
    <glyph glyph-name="threesuperior" unicode="&#xb3;" horiz-adv-x="330" 
d="M154 331q-64 0 -120 37l38 72q40 -22 80 -22q17 0 29 9t12 24q0 37 -43 37h-39v62h40q16 0 25 10.5t9 23.5q0 28 -40 28q-31 0 -62 -17l-33 74q51 28 110 28q50 0 85.5 -25.5t35.5 -74.5q0 -39 -41 -72q51 -21 51 -75q0 -55 -40 -87t-97 -32z" />
    <glyph glyph-name="acute" unicode="&#xb4;" horiz-adv-x="330" 
d="M96 499l-64 69l173 146l75 -86z" />
    <glyph glyph-name="mu" unicode="&#xb5;" horiz-adv-x="541" 
d="M60 -184v645h126v-303q0 -29 13.5 -41t42.5 -12q45 0 113 53v303h126v-461h-126v46q-60 -52 -135 -52l-34 5v-183h-126z" />
    <glyph glyph-name="mu" unicode="&#x3bc;" horiz-adv-x="541" 
d="M60 -184v645h126v-303q0 -29 13.5 -41t42.5 -12q45 0 113 53v303h126v-461h-126v46q-60 -52 -135 -52l-34 5v-183h-126z" />
    <glyph glyph-name="paragraph" unicode="&#xb6;" horiz-adv-x="563" 
d="M374 -184v744h-47v-305l-75 -1q-33 0 -71 12t-75 36t-61.5 68t-24.5 101q0 56 21.5 97.5t56.5 63.5t72.5 32.5t75.5 10.5h257v-859h-129zM222 375v185q-34 -5 -54.5 -28t-20.5 -59q0 -24 7 -42t19.5 -29t23 -16.5t25.5 -10.5z" />
    <glyph glyph-name="periodcentered" unicode="&#xb7;" horiz-adv-x="283" 
d="M140 256q-32 0 -54.5 22.5t-22.5 54.5t22.5 54.5t54.5 22.5t54.5 -22.5t22.5 -54.5t-22.5 -54.5t-54.5 -22.5z" />
    <glyph glyph-name="cedilla" unicode="&#xb8;" horiz-adv-x="270" 
d="M53 -243l-41 65q55 22 55 55q0 35 -37 64l39 95l91 -28l-22 -50q35 -35 35 -83q0 -38 -34.5 -73.5t-85.5 -44.5z" />
    <glyph glyph-name="onesuperior" unicode="&#xb9;" horiz-adv-x="262" 
d="M109 335v240l-54 -43l-54 68l122 95h81v-360h-95z" />
    <glyph glyph-name="ordmasculine" unicode="&#xba;" horiz-adv-x="434" 
d="M211 337q-76 0 -123 47.5t-47 131.5q0 81 52 129t131 48q77 0 124.5 -47.5t47.5 -130.5q0 -82 -54 -130t-131 -48zM217 441q24 0 41 18.5t17 57.5q0 40 -17.5 57.5t-38.5 17.5q-22 0 -39.5 -18t-17.5 -57q0 -76 55 -76z" />
    <glyph glyph-name="guillemotright" unicode="&#xbb;" horiz-adv-x="482" 
d="M116 25l-86 57l97 132l-97 134l86 55l135 -189zM317 25l-86 57l97 132l-97 134l86 55l135 -189z" />
    <glyph glyph-name="onequarter" unicode="&#xbc;" horiz-adv-x="747" 
d="M227 -39l-95 39l365 722l94 -39zM594 0v76h-113l-25 61l123 223h110v-196h38v-88h-38v-76h-95zM118 335v240l-54 -43l-54 68l122 95h81v-360h-95zM544 164h50v98z" />
    <glyph glyph-name="onehalf" unicode="&#xbd;" horiz-adv-x="738" 
d="M227 -39l-95 39l365 722l94 -39zM482 0l-26 72q40 30 61.5 46.5t49.5 42t40.5 46t12.5 38.5q0 30 -41 30q-33 0 -64 -28l-54 67q53 48 130 48q58 0 92.5 -28.5t34.5 -83.5q-3 -75 -130 -162h127v-88h-233zM118 335v240l-54 -43l-54 68l122 95h81v-360h-95z" />
    <glyph glyph-name="threequarters" unicode="&#xbe;" horiz-adv-x="738" 
d="M134 331q-64 0 -120 37l38 72q40 -22 80 -22q17 0 29 9t12 24q0 37 -43 37h-39v62h40q16 0 25 10.5t9 23.5q0 28 -40 28q-31 0 -62 -17l-33 74q51 28 110 28q50 0 85.5 -25.5t35.5 -74.5q0 -39 -41 -72q51 -21 51 -75q0 -55 -40 -87t-97 -32zM236 -39l-95 39l365 722
l94 -39zM585 0v76h-113l-25 61l123 223h110v-196h38v-88h-38v-76h-95zM535 164h50v98z" />
    <glyph glyph-name="questiondown" unicode="&#xbf;" horiz-adv-x="436" 
d="M338 -199q-54 0 -102.5 11.5t-90.5 36t-67 68t-25 100.5q0 18 5.5 42.5t20 57t47.5 57.5t80 32v75h132v-162q-59 0 -103 -25t-44 -78q0 -35 24 -58t55.5 -31.5t67.5 -8.5v-117zM273 342q-32 0 -55.5 23.5t-23.5 56.5q0 32 23.5 55.5t55.5 23.5q33 0 56.5 -23.5
t23.5 -55.5q0 -33 -23.5 -56.5t-56.5 -23.5z" />
    <glyph glyph-name="Agrave" unicode="&#xc0;" horiz-adv-x="694" 
d="M413 719l-192 115l68 92l183 -133zM136 -3l-140 9l284 682h142l276 -683l-147 -7l-70 184h-273zM252 295h186l-91 251z" />
    <glyph glyph-name="Aacute" unicode="&#xc1;" horiz-adv-x="694" 
d="M294 717l-59 74l183 133l68 -92zM136 -3l-140 9l284 682h142l276 -683l-147 -7l-70 184h-273zM252 295h186l-91 251z" />
    <glyph glyph-name="Acircumflex" unicode="&#xc2;" horiz-adv-x="694" 
d="M245 718l-78 76l182 135l182 -135l-79 -76l-103 86zM136 -3l-140 9l284 682h142l276 -683l-147 -7l-70 184h-273zM252 295h186l-91 251z" />
    <glyph glyph-name="Atilde" unicode="&#xc3;" horiz-adv-x="694" 
d="M515 795q-28 -39 -52.5 -58t-59.5 -19q-24 0 -61 15t-54 15q-30 0 -56 -28l-55 64q45 68 109 68q24 0 61 -15t52 -15q31 0 52 28zM136 -3l-140 9l284 682h142l276 -683l-147 -7l-70 184h-273zM252 295h186l-91 251z" />
    <glyph glyph-name="Adieresis" unicode="&#xc4;" horiz-adv-x="694" 
d="M237 724q-31 0 -53.5 22t-22.5 54t22.5 54.5t53.5 22.5q32 0 54.5 -22.5t22.5 -54.5t-22.5 -54t-54.5 -22zM458 724q-32 0 -54 22t-22 54t22.5 54.5t53.5 22.5q32 0 54.5 -22.5t22.5 -54.5t-22.5 -54t-54.5 -22zM136 -3l-140 9l284 682h142l276 -683l-147 -7l-70 184
h-273zM252 295h186l-91 251z" />
    <glyph glyph-name="Aring" unicode="&#xc5;" horiz-adv-x="694" 
d="M135 -2l-139 9l275 660q-58 35 -58 104q0 56 40 90.5t98 34.5q59 0 99 -34.5t40 -90.5q0 -68 -59 -105l267 -660l-146 -8l-71 184h-273zM351 730q15 0 26.5 10.5t11.5 30.5q0 19 -11.5 29.5t-26.5 10.5q-14 0 -25 -10.5t-11 -29.5t11 -30t25 -11zM252 295h186l-91 251z
" />
    <glyph glyph-name="AE" unicode="&#xc6;" horiz-adv-x="890" 
d="M124 -5l-139 19l383 674h482v-119h-295v-161h273v-115h-273v-174h295v-119h-431v183h-197zM282 295h137v255z" />
    <glyph glyph-name="Ccedilla" unicode="&#xc7;" horiz-adv-x="589" 
d="M327 -243l-41 65q55 22 55 55q0 35 -37 64l23 57q-139 18 -215.5 111t-76.5 236q0 154 98.5 251.5t252.5 97.5q111 0 184 -47l-59 -100q-44 28 -131 28q-95 0 -151.5 -66.5t-56.5 -162.5q0 -101 59.5 -167t159.5 -66q86 0 139 27l54 -97q-62 -41 -156 -48l-16 -37
q35 -35 35 -83q0 -38 -34.5 -73.5t-85.5 -44.5z" />
    <glyph glyph-name="Egrave" unicode="&#xc8;" horiz-adv-x="542" 
d="M70 0v688h432v-118h-296v-161h274v-116h-274v-174h296v-119h-432zM332 719l-192 115l68 92l183 -133z" />
    <glyph glyph-name="Eacute" unicode="&#xc9;" horiz-adv-x="542" 
d="M70 0v688h432v-118h-296v-161h274v-116h-274v-174h296v-119h-432zM235 717l-59 74l183 133l68 -92z" />
    <glyph glyph-name="Ecircumflex" unicode="&#xca;" horiz-adv-x="542" 
d="M70 0v688h432v-118h-296v-161h274v-116h-274v-174h296v-119h-432zM186 718l-78 76l182 135l182 -135l-79 -76l-103 86z" />
    <glyph glyph-name="Edieresis" unicode="&#xcb;" horiz-adv-x="542" 
d="M174 724q-32 0 -54 22t-22 54t22.5 54.5t53.5 22.5q32 0 54.5 -22.5t22.5 -54.5t-22.5 -54t-54.5 -22zM395 724q-31 0 -53.5 22t-22.5 54t22.5 54.5t53.5 22.5q32 0 54.5 -22.5t22.5 -54.5t-22.5 -54t-54.5 -22zM70 0v688h432v-118h-296v-161h274v-116h-274v-174h296
v-119h-432z" />
    <glyph glyph-name="Igrave" unicode="&#xcc;" horiz-adv-x="277" 
d="M168 719l-192 115l68 92l183 -133zM70 0v688h137v-688h-137z" />
    <glyph glyph-name="Iacute" unicode="&#xcd;" horiz-adv-x="277" 
d="M97 717l-59 74l183 133l68 -92zM70 0v688h137v-688h-137z" />
    <glyph glyph-name="Icircumflex" unicode="&#xce;" horiz-adv-x="277" 
d="M34 718l-78 76l182 135l182 -135l-79 -76l-103 86zM70 0v688h137v-688h-137z" />
    <glyph glyph-name="Idieresis" unicode="&#xcf;" horiz-adv-x="277" 
d="M27 724q-31 0 -53.5 22t-22.5 54t22.5 54.5t53.5 22.5q32 0 54.5 -22.5t22.5 -54.5t-22.5 -54t-54.5 -22zM248 724q-32 0 -54 22t-22 54t22.5 54.5t53.5 22.5q32 0 54.5 -22.5t22.5 -54.5t-22.5 -54t-54.5 -22zM70 0v688h137v-688h-137z" />
    <glyph glyph-name="Eth" unicode="&#xd0;" horiz-adv-x="726" 
d="M71 0v316h-62v66h62v306h266q163 0 259 -87.5t96 -247.5q0 -154 -106.5 -253.5t-261.5 -99.5h-253zM207 119h97q112 0 181.5 64t69.5 176q0 114 -65 162t-181 48h-102v-187h122v-66h-122v-197z" />
    <glyph glyph-name="Ntilde" unicode="&#xd1;" horiz-adv-x="765" 
d="M70 0v688h146l342 -450v450h137v-688h-134l-354 457v-457h-137zM546 795q-28 -39 -52.5 -58t-59.5 -19q-24 0 -61 15t-54 15q-30 0 -56 -28l-55 64q45 68 109 68q24 0 61 -15t52 -15q31 0 52 28z" />
    <glyph glyph-name="Ograve" unicode="&#xd2;" horiz-adv-x="773" 
d="M425 719l-192 115l68 92l183 -133zM388 -6q-158 0 -255.5 96t-97.5 254q0 149 96 249t258 100q158 0 253.5 -101.5t95.5 -246.5q0 -156 -95 -253.5t-255 -97.5zM384 112q100 0 158 66t58 166q0 101 -55.5 166t-157.5 65q-101 0 -157.5 -65.5t-56.5 -165.5q0 -96 56 -164
t155 -68z" />
    <glyph glyph-name="Oacute" unicode="&#xd3;" horiz-adv-x="773" 
d="M347 717l-59 74l183 133l68 -92zM388 -6q-158 0 -255.5 96t-97.5 254q0 149 96 249t258 100q158 0 253.5 -101.5t95.5 -246.5q0 -156 -95 -253.5t-255 -97.5zM384 112q100 0 158 66t58 166q0 101 -55.5 166t-157.5 65q-101 0 -157.5 -65.5t-56.5 -165.5q0 -96 56 -164
t155 -68z" />
    <glyph glyph-name="Ocircumflex" unicode="&#xd4;" horiz-adv-x="773" 
d="M286 718l-78 76l182 135l182 -135l-79 -76l-103 86zM388 -6q-158 0 -255.5 96t-97.5 254q0 149 96 249t258 100q158 0 253.5 -101.5t95.5 -246.5q0 -156 -95 -253.5t-255 -97.5zM384 112q100 0 158 66t58 166q0 101 -55.5 166t-157.5 65q-101 0 -157.5 -65.5
t-56.5 -165.5q0 -96 56 -164t155 -68z" />
    <glyph glyph-name="Otilde" unicode="&#xd5;" horiz-adv-x="773" 
d="M556 795q-28 -39 -52.5 -58t-59.5 -19q-24 0 -61 15t-54 15q-30 0 -56 -28l-55 64q45 68 109 68q24 0 61 -15t52 -15q31 0 52 28zM388 -6q-158 0 -255.5 96t-97.5 254q0 149 96 249t258 100q158 0 253.5 -101.5t95.5 -246.5q0 -156 -95 -253.5t-255 -97.5zM384 112
q100 0 158 66t58 166q0 101 -55.5 166t-157.5 65q-101 0 -157.5 -65.5t-56.5 -165.5q0 -96 56 -164t155 -68z" />
    <glyph glyph-name="Odieresis" unicode="&#xd6;" horiz-adv-x="773" 
d="M279 724q-31 0 -53.5 22t-22.5 54t22.5 54.5t53.5 22.5q32 0 54.5 -22.5t22.5 -54.5t-22.5 -54t-54.5 -22zM500 724q-32 0 -54 22t-22 54t22.5 54.5t53.5 22.5q32 0 54.5 -22.5t22.5 -54.5t-22.5 -54t-54.5 -22zM388 -6q-158 0 -255.5 96t-97.5 254q0 149 96 249t258 100
q158 0 253.5 -101.5t95.5 -246.5q0 -156 -95 -253.5t-255 -97.5zM384 112q100 0 158 66t58 166q0 101 -55.5 166t-157.5 65q-101 0 -157.5 -65.5t-56.5 -165.5q0 -96 56 -164t155 -68z" />
    <glyph glyph-name="multiply" unicode="&#xd7;" horiz-adv-x="491" 
d="M105 118l-78 78l142 140l-142 140l78 78l140 -141l141 141l77 -78l-141 -140l141 -140l-77 -78l-141 141z" />
    <glyph glyph-name="Oslash" unicode="&#xd8;" horiz-adv-x="773" 
d="M388 -6q-132 0 -223 68l-68 -67l-61 58l69 68q-70 90 -70 223q0 149 96 249t258 100q129 0 218 -70l71 70l61 -58l-72 -72q71 -93 71 -218q0 -156 -95 -253.5t-255 -97.5zM384 112q100 0 158.5 66t58.5 166q0 73 -28 126l-317 -316q53 -42 128 -42zM203 219l316 315
q-54 41 -132 41q-101 0 -157.5 -65.5t-56.5 -165.5q0 -70 30 -125z" />
    <glyph glyph-name="Ugrave" unicode="&#xd9;" horiz-adv-x="704" 
d="M354 -6q-77 0 -140.5 24t-106 79.5t-42.5 134.5v456h137v-448q0 -62 45 -94.5t110 -32.5q145 0 145 134v441h137v-455q0 -114 -83 -176.5t-202 -62.5zM409 719l-192 115l68 92l183 -133z" />
    <glyph glyph-name="Uacute" unicode="&#xda;" horiz-adv-x="704" 
d="M354 -6q-77 0 -140.5 24t-106 79.5t-42.5 134.5v456h137v-448q0 -62 45 -94.5t110 -32.5q145 0 145 134v441h137v-455q0 -114 -83 -176.5t-202 -62.5zM327 717l-59 74l183 133l68 -92z" />
    <glyph glyph-name="Ucircumflex" unicode="&#xdb;" horiz-adv-x="704" 
d="M354 -6q-77 0 -140.5 24t-106 79.5t-42.5 134.5v456h137v-448q0 -62 45 -94.5t110 -32.5q145 0 145 134v441h137v-455q0 -114 -83 -176.5t-202 -62.5zM251 718l-78 76l182 135l182 -135l-79 -76l-103 86z" />
    <glyph glyph-name="Udieresis" unicode="&#xdc;" horiz-adv-x="704" 
d="M246 724q-32 0 -54 22t-22 54t22.5 54.5t53.5 22.5q32 0 54.5 -22.5t22.5 -54.5t-22.5 -54t-54.5 -22zM467 724q-31 0 -53.5 22t-22.5 54t22.5 54.5t53.5 22.5q32 0 54.5 -22.5t22.5 -54.5t-22.5 -54t-54.5 -22zM354 -6q-77 0 -140.5 24t-106 79.5t-42.5 134.5v456h137
v-448q0 -62 45 -94.5t110 -32.5q145 0 145 134v441h137v-455q0 -114 -83 -176.5t-202 -62.5z" />
    <glyph glyph-name="Yacute" unicode="&#xdd;" horiz-adv-x="620" 
d="M285 717l-59 74l183 133l68 -92zM239 0v275l-243 398l154 20l163 -297l167 297l145 -20l-249 -398v-275h-137z" />
    <glyph glyph-name="Thorn" unicode="&#xde;" horiz-adv-x="562" 
d="M70 0v688h135v-120h66q108 0 187 -53.5t79 -155.5q0 -62 -22 -109t-60.5 -73.5t-84.5 -39.5t-99 -13h-65v-124h-136zM206 236h58q56 0 95.5 29t39.5 89q0 52 -39 74t-94 22h-60v-214z" />
    <glyph glyph-name="germandbls" unicode="&#xdf;" horiz-adv-x="562" 
d="M357 -6q-74 0 -138 42l59 96q45 -30 80 -30q23 0 38 12t15 36q0 17 -13.5 31.5t-33.5 24.5t-43 24t-43 30t-33.5 44t-13.5 63q0 37 19 67t41.5 45.5t41.5 36t19 41.5q0 28 -22.5 42.5t-58.5 14.5q-41 0 -66 -28.5t-25 -71.5v-514h-120v518q0 89 62.5 146t147.5 57
q100 0 153.5 -51.5t53.5 -110.5q0 -33 -12.5 -59.5t-30.5 -42.5t-36 -29t-30.5 -26.5t-12.5 -28.5t13.5 -28.5t33.5 -24t44 -26.5t44 -33.5t33.5 -46t13.5 -63.5q0 -69 -54 -113t-126 -44z" />
    <glyph glyph-name="agrave" unicode="&#xe0;" horiz-adv-x="477" 
d="M274 499l-184 129l75 86l173 -146zM371 -16l-58 55q-73 -46 -138 -46q-59 0 -102 33t-43 101q0 65 49.5 100t121.5 46l87 13v26q0 20 -15.5 34.5t-48.5 14.5q-62 0 -130 -36l-45 86q29 19 82.5 37.5t103.5 18.5q72 0 125.5 -34.5t53.5 -113.5v-212l43 -44zM196 91
q16 0 47 8t45 16v92l-77 -14q-59 -11 -59 -58q0 -20 13.5 -32t30.5 -12z" />
    <glyph glyph-name="aacute" unicode="&#xe1;" horiz-adv-x="477" 
d="M204 499l-64 69l173 146l75 -86zM371 -16l-58 55q-73 -46 -138 -46q-59 0 -102 33t-43 101q0 65 49.5 100t121.5 46l87 13v26q0 20 -15.5 34.5t-48.5 14.5q-62 0 -130 -36l-45 86q29 19 82.5 37.5t103.5 18.5q72 0 125.5 -34.5t53.5 -113.5v-212l43 -44zM196 91
q16 0 47 8t45 16v92l-77 -14q-59 -11 -59 -58q0 -20 13.5 -32t30.5 -12z" />
    <glyph glyph-name="acircumflex" unicode="&#xe2;" horiz-adv-x="477" 
d="M129 495l-79 76l183 135l181 -135l-78 -76l-103 86zM371 -16l-58 55q-73 -46 -138 -46q-59 0 -102 33t-43 101q0 65 49.5 100t121.5 46l87 13v26q0 20 -15.5 34.5t-48.5 14.5q-62 0 -130 -36l-45 86q29 19 82.5 37.5t103.5 18.5q72 0 125.5 -34.5t53.5 -113.5v-212
l43 -44zM196 91q16 0 47 8t45 16v92l-77 -14q-59 -11 -59 -58q0 -20 13.5 -32t30.5 -12z" />
    <glyph glyph-name="atilde" unicode="&#xe3;" horiz-adv-x="477" 
d="M403 601q-46 -77 -112 -77q-24 0 -61 15t-54 15q-30 0 -56 -28l-55 64q45 68 109 68q24 0 61 -15t52 -15q31 0 52 28zM371 -16l-58 55q-73 -46 -138 -46q-59 0 -102 33t-43 101q0 65 49.5 100t121.5 46l87 13v26q0 20 -15.5 34.5t-48.5 14.5q-62 0 -130 -36l-45 86
q29 19 82.5 37.5t103.5 18.5q72 0 125.5 -34.5t53.5 -113.5v-212l43 -44zM196 91q16 0 47 8t45 16v92l-77 -14q-59 -11 -59 -58q0 -20 13.5 -32t30.5 -12z" />
    <glyph glyph-name="adieresis" unicode="&#xe4;" horiz-adv-x="477" 
d="M122 529q-32 0 -54 22.5t-22 53.5q0 32 22.5 54.5t53.5 22.5q32 0 54.5 -22.5t22.5 -54.5t-22.5 -54t-54.5 -22zM343 529q-31 0 -53.5 22.5t-22.5 53.5q0 32 22.5 54.5t53.5 22.5q32 0 54.5 -22.5t22.5 -54.5t-22.5 -54t-54.5 -22zM371 -16l-58 55q-73 -46 -138 -46
q-59 0 -102 33t-43 101q0 65 49.5 100t121.5 46l87 13v26q0 20 -15.5 34.5t-48.5 14.5q-62 0 -130 -36l-45 86q29 19 82.5 37.5t103.5 18.5q72 0 125.5 -34.5t53.5 -113.5v-212l43 -44zM196 91q16 0 47 8t45 16v92l-77 -14q-59 -11 -59 -58q0 -20 13.5 -32t30.5 -12z" />
    <glyph glyph-name="aring" unicode="&#xe5;" horiz-adv-x="477" 
d="M232 511q-52 0 -88.5 32t-36.5 82t36.5 81.5t88.5 31.5t88 -31.5t36 -81.5t-36.5 -82t-87.5 -32zM232 580q16 0 28.5 11.5t12.5 33.5q0 21 -13 32.5t-28 11.5q-16 0 -28.5 -11.5t-12.5 -32.5t12.5 -33t28.5 -12zM371 -16l-58 55q-73 -46 -138 -46q-59 0 -102 33t-43 101
q0 65 49.5 100t121.5 46l87 13v26q0 20 -15.5 34.5t-48.5 14.5q-62 0 -130 -36l-45 86q29 19 82.5 37.5t103.5 18.5q72 0 125.5 -34.5t53.5 -113.5v-212l43 -44zM196 91q16 0 47 8t45 16v92l-77 -14q-59 -11 -59 -58q0 -20 13.5 -32t30.5 -12z" />
    <glyph glyph-name="ae" unicode="&#xe6;" horiz-adv-x="728" 
d="M175 -7q-59 0 -102 33t-43 101q0 65 49.5 100t121.5 46l87 13v28q0 20 -17 33.5t-50 13.5q-57 0 -127 -36l-45 86q29 19 82.5 37.5t103.5 18.5q89 0 138 -44q55 44 137 44q91 0 141.5 -61.5t50.5 -154.5v-66h-285q7 -37 37 -60.5t67 -23.5q60 0 117 18l36 -93
q-67 -33 -157 -33q-116 0 -176 68q-32 -30 -76.5 -49t-89.5 -19zM196 91q16 0 47 8t45 16v92l-77 -14q-59 -11 -59 -58q0 -20 13.5 -32t30.5 -12zM415 270h164q0 41 -19 69.5t-59 28.5q-73 0 -86 -98z" />
    <glyph glyph-name="ccedilla" unicode="&#xe7;" horiz-adv-x="425" 
d="M206 -243l-41 65q55 22 55 55q0 35 -37 64l24 58q-83 15 -130 73t-47 149q0 108 63 177t169 69q80 0 144 -38l-58 -95q-41 22 -79 22q-53 0 -83 -36t-30 -89q0 -55 32 -90t87 -35q43 0 79 18l57 -91q-45 -28 -103 -36l-17 -39q35 -35 35 -83q0 -38 -34.5 -73.5
t-85.5 -44.5z" />
    <glyph glyph-name="egrave" unicode="&#xe8;" horiz-adv-x="470" 
d="M285 499l-184 129l75 86l173 -146zM259 -7q-111 0 -170 61.5t-59 172.5q0 104 60 172t162 68q91 0 141.5 -61.5t50.5 -154.5v-66h-285q7 -37 37 -60.5t67 -23.5q60 0 117 18l36 -93q-67 -33 -157 -33zM157 270h164q0 41 -19 70.5t-59 29.5t-60.5 -29.5t-25.5 -70.5z" />
    <glyph glyph-name="eacute" unicode="&#xe9;" horiz-adv-x="470" 
d="M220 499l-64 69l173 146l75 -86zM259 -7q-111 0 -170 61.5t-59 172.5q0 104 60 172t162 68q91 0 141.5 -61.5t50.5 -154.5v-66h-285q7 -37 37 -60.5t67 -23.5q60 0 117 18l36 -93q-67 -33 -157 -33zM157 270h164q0 41 -19 70.5t-59 29.5t-60.5 -29.5t-25.5 -70.5z" />
    <glyph glyph-name="ecircumflex" unicode="&#xea;" horiz-adv-x="470" 
d="M150 495l-79 76l183 135l181 -135l-78 -76l-103 86zM259 -7q-111 0 -170 61.5t-59 172.5q0 104 60 172t162 68q91 0 141.5 -61.5t50.5 -154.5v-66h-285q7 -37 37 -60.5t67 -23.5q60 0 117 18l36 -93q-67 -33 -157 -33zM157 270h164q0 41 -19 70.5t-59 29.5t-60.5 -29.5
t-25.5 -70.5z" />
    <glyph glyph-name="edieresis" unicode="&#xeb;" horiz-adv-x="470" 
d="M136 529q-32 0 -54 22.5t-22 53.5q0 32 22.5 54.5t53.5 22.5q32 0 54.5 -22.5t22.5 -54.5t-22.5 -54t-54.5 -22zM357 529q-31 0 -53.5 22.5t-22.5 53.5q0 32 22.5 54.5t53.5 22.5q32 0 54.5 -22.5t22.5 -54.5t-22.5 -54t-54.5 -22zM259 -7q-111 0 -170 61.5t-59 172.5
q0 104 60 172t162 68q91 0 141.5 -61.5t50.5 -154.5v-66h-285q7 -37 37 -60.5t67 -23.5q60 0 117 18l36 -93q-67 -33 -157 -33zM157 270h164q0 41 -19 70.5t-59 29.5t-60.5 -29.5t-25.5 -70.5z" />
    <glyph glyph-name="igrave" unicode="&#xec;" horiz-adv-x="245" 
d="M60 0v461h125v-461h-125zM183 499l-184 129l75 86l173 -146z" />
    <glyph glyph-name="iacute" unicode="&#xed;" horiz-adv-x="245" 
d="M60 0v461h125v-461h-125zM63 499l-64 69l173 146l75 -86z" />
    <glyph glyph-name="icircumflex" unicode="&#xee;" horiz-adv-x="245" 
d="M60 0v461h125v-461h-125zM18 495l-79 76l183 135l181 -135l-78 -76l-103 86z" />
    <glyph glyph-name="idieresis" unicode="&#xef;" horiz-adv-x="245" 
d="M60 0v461h125v-461h-125zM11 529q-31 0 -53.5 22.5t-22.5 53.5q0 32 22.5 54.5t53.5 22.5q32 0 54.5 -22.5t22.5 -54.5t-22.5 -54t-54.5 -22zM232 529q-32 0 -54 22.5t-22 53.5q0 32 22.5 54.5t53.5 22.5q32 0 54.5 -22.5t22.5 -54.5t-22.5 -54t-54.5 -22z" />
    <glyph glyph-name="eth" unicode="&#xf0;" horiz-adv-x="539" 
d="M270 -6q-111 0 -175.5 64.5t-64.5 175.5q0 100 58 166.5t157 66.5q70 0 118 -32q-13 57 -51 113l-77 -48l-37 57l65 41q-25 24 -59 48l79 75q41 -22 81 -60l73 46l38 -58l-64 -40q46 -67 72 -155.5t26 -167.5q0 -81 -23 -144.5t-78.5 -105.5t-137.5 -42zM267 100
q65 0 93.5 47.5t28.5 116.5q0 12 -2 36q-63 56 -134 56q-52 0 -76.5 -34.5t-24.5 -90.5q0 -61 28.5 -96t86.5 -35z" />
    <glyph glyph-name="ntilde" unicode="&#xf1;" horiz-adv-x="531" 
d="M435 601q-46 -77 -112 -77q-24 0 -61 15t-54 15q-30 0 -56 -28l-55 64q45 68 109 68q24 0 61 -15t52 -15q31 0 52 28zM60 0v461h126v-46q62 52 135 52q70 0 115 -36.5t45 -104.5v-326h-126v303q0 29 -13.5 41t-42.5 12q-52 0 -113 -49v-307h-126z" />
    <glyph glyph-name="ograve" unicode="&#xf2;" horiz-adv-x="526" 
d="M319 499l-184 129l75 86l173 -146zM265 -5q-106 0 -170.5 63.5t-64.5 170.5q0 60 23 112.5t78 89.5t134 37q117 0 174 -71t57 -167q0 -94 -59 -164.5t-172 -70.5zM264 105q50 0 76.5 32t26.5 93q0 65 -30.5 95.5t-71.5 30.5q-40 0 -72.5 -30.5t-32.5 -96.5
q0 -54 26.5 -89t77.5 -35z" />
    <glyph glyph-name="oacute" unicode="&#xf3;" horiz-adv-x="526" 
d="M240 499l-64 69l173 146l75 -86zM265 -5q-106 0 -170.5 63.5t-64.5 170.5q0 60 23 112.5t78 89.5t134 37q117 0 174 -71t57 -167q0 -94 -59 -164.5t-172 -70.5zM264 105q50 0 76.5 32t26.5 93q0 65 -30.5 95.5t-71.5 30.5q-40 0 -72.5 -30.5t-32.5 -96.5q0 -54 26.5 -89
t77.5 -35z" />
    <glyph glyph-name="ocircumflex" unicode="&#xf4;" horiz-adv-x="526" 
d="M163 495l-79 76l183 135l181 -135l-78 -76l-103 86zM265 -5q-106 0 -170.5 63.5t-64.5 170.5q0 60 23 112.5t78 89.5t134 37q117 0 174 -71t57 -167q0 -94 -59 -164.5t-172 -70.5zM264 105q50 0 76.5 32t26.5 93q0 65 -30.5 95.5t-71.5 30.5q-40 0 -72.5 -30.5
t-32.5 -96.5q0 -54 26.5 -89t77.5 -35z" />
    <glyph glyph-name="otilde" unicode="&#xf5;" horiz-adv-x="526" 
d="M433 601q-46 -77 -112 -77q-24 0 -61 15t-54 15q-30 0 -56 -28l-55 64q45 68 109 68q24 0 61 -15t52 -15q31 0 52 28zM265 -5q-106 0 -170.5 63.5t-64.5 170.5q0 60 23 112.5t78 89.5t134 37q117 0 174 -71t57 -167q0 -94 -59 -164.5t-172 -70.5zM264 105q50 0 76.5 32
t26.5 93q0 65 -30.5 95.5t-71.5 30.5q-40 0 -72.5 -30.5t-32.5 -96.5q0 -54 26.5 -89t77.5 -35z" />
    <glyph glyph-name="odieresis" unicode="&#xf6;" horiz-adv-x="526" 
d="M152 529q-32 0 -54 22.5t-22 53.5q0 32 22.5 54.5t53.5 22.5q32 0 54.5 -22.5t22.5 -54.5t-22.5 -54t-54.5 -22zM373 529q-31 0 -53.5 22.5t-22.5 53.5q0 32 22.5 54.5t53.5 22.5q32 0 54.5 -22.5t22.5 -54.5t-22.5 -54t-54.5 -22zM265 -5q-106 0 -170.5 63.5
t-64.5 170.5q0 60 23 112.5t78 89.5t134 37q117 0 174 -71t57 -167q0 -94 -59 -164.5t-172 -70.5zM264 105q50 0 76.5 32t26.5 93q0 65 -30.5 95.5t-71.5 30.5q-40 0 -72.5 -30.5t-32.5 -96.5q0 -54 26.5 -89t77.5 -35z" />
    <glyph glyph-name="divide" unicode="&#xf7;" horiz-adv-x="508" 
d="M254 91q-33 0 -56.5 23.5t-23.5 56.5t23.5 56t56.5 23t56 -23t23 -56t-23 -56.5t-56 -23.5zM254 435q-33 0 -56.5 23.5t-23.5 56.5t23.5 56.5t56.5 23.5t56 -23.5t23 -56.5t-23 -56.5t-56 -23.5zM20 287v112h468v-112h-468z" />
    <glyph glyph-name="oslash" unicode="&#xf8;" horiz-adv-x="526" 
d="M73 -10l-60 57l50 51q-33 57 -33 131q0 60 23 112.5t78 89.5t134 37q85 0 142 -41l41 40l59 -60l-44 -43q33 -59 33 -134q0 -94 -59 -164.5t-172 -70.5q-84 0 -145 42zM264 105q49 0 76 31t27 94q0 16 -4 38l-155 -148q25 -15 56 -15zM164 194l154 147q-23 15 -53 15
q-40 0 -72.5 -30.5t-32.5 -96.5q0 -13 4 -35z" />
    <glyph glyph-name="ugrave" unicode="&#xf9;" horiz-adv-x="536" 
d="M287 499l-184 129l75 86l173 -146zM215 -6q-71 0 -115.5 36t-44.5 105v326h126v-303q0 -29 13.5 -41t42.5 -12q45 0 113 53v303h126v-461h-126v46q-60 -52 -135 -52z" />
    <glyph glyph-name="uacute" unicode="&#xfa;" horiz-adv-x="536" 
d="M259 499l-64 69l173 146l75 -86zM215 -6q-71 0 -115.5 36t-44.5 105v326h126v-303q0 -29 13.5 -41t42.5 -12q45 0 113 53v303h126v-461h-126v46q-60 -52 -135 -52z" />
    <glyph glyph-name="ucircumflex" unicode="&#xfb;" horiz-adv-x="536" 
d="M163 495l-79 76l183 135l181 -135l-78 -76l-103 86zM215 -6q-71 0 -115.5 36t-44.5 105v326h126v-303q0 -29 13.5 -41t42.5 -12q45 0 113 53v303h126v-461h-126v46q-60 -52 -135 -52z" />
    <glyph glyph-name="udieresis" unicode="&#xfc;" horiz-adv-x="536" 
d="M154 529q-32 0 -54 22.5t-22 53.5q0 32 22.5 54.5t53.5 22.5q32 0 54.5 -22.5t22.5 -54.5t-22.5 -54t-54.5 -22zM375 529q-31 0 -53.5 22.5t-22.5 53.5q0 32 22.5 54.5t53.5 22.5q32 0 54.5 -22.5t22.5 -54.5t-22.5 -54t-54.5 -22zM215 -6q-71 0 -115.5 36t-44.5 105v326
h126v-303q0 -29 13.5 -41t42.5 -12q45 0 113 53v303h126v-461h-126v46q-60 -52 -135 -52z" />
    <glyph glyph-name="yacute" unicode="&#xfd;" horiz-adv-x="486" 
d="M240 499l-64 69l173 146l75 -86zM66 -239q-12 0 -35.5 1.5t-28.5 1.5v113q32 -2 49 -2q77 0 108 79l14 38l-178 465l138 7l109 -327l121 327l128 -13l-218 -528q-67 -162 -207 -162z" />
    <glyph glyph-name="thorn" unicode="&#xfe;" horiz-adv-x="553" 
d="M70 -239v960h126v-295q63 41 122 41q96 0 150.5 -65t54.5 -169q0 -99 -56 -169.5t-153 -70.5q-67 0 -120 48v-280h-124zM304 105q47 0 70 38.5t23 87.5q0 51 -23.5 88t-70.5 37q-56 0 -107 -34v-173q56 -44 108 -44z" />
    <glyph glyph-name="ydieresis" unicode="&#xff;" horiz-adv-x="486" 
d="M129 529q-31 0 -53.5 22.5t-22.5 53.5q0 32 22.5 54.5t53.5 22.5q32 0 54.5 -22.5t22.5 -54.5t-22.5 -54t-54.5 -22zM350 529q-32 0 -54 22.5t-22 53.5q0 32 22.5 54.5t53.5 22.5q32 0 54.5 -22.5t22.5 -54.5t-22.5 -54t-54.5 -22zM66 -239q-12 0 -35.5 1.5t-28.5 1.5
v113q32 -2 49 -2q77 0 108 79l14 38l-178 465l138 7l109 -327l121 327l128 -13l-218 -528q-67 -162 -207 -162z" />
    <glyph glyph-name="Amacron" unicode="&#x100;" horiz-adv-x="694" 
d="M136 -3l-140 9l284 682h142l276 -683l-147 -7l-70 184h-273zM252 295h186l-91 251zM215 742v105h265v-105h-265z" />
    <glyph glyph-name="amacron" unicode="&#x101;" horiz-adv-x="477" 
d="M371 -16l-58 55q-73 -46 -138 -46q-59 0 -102 33t-43 101q0 65 49.5 100t121.5 46l87 13v26q0 20 -15.5 34.5t-48.5 14.5q-62 0 -130 -36l-45 86q29 19 82.5 37.5t103.5 18.5q72 0 125.5 -34.5t53.5 -113.5v-212l43 -44zM196 91q16 0 47 8t45 16v92l-77 -14
q-59 -11 -59 -58q0 -20 13.5 -32t30.5 -12zM106 541v105h265v-105h-265z" />
    <glyph glyph-name="Abreve" unicode="&#x102;" horiz-adv-x="694" 
d="M136 -3l-140 9l284 682h142l276 -683l-147 -7l-70 184h-273zM252 295h186l-91 251zM349 719q-72 0 -112.5 38.5t-55.5 85.5l84 34q34 -60 86 -60q58 0 83 60l80 -32q-46 -126 -165 -126z" />
    <glyph glyph-name="abreve" unicode="&#x103;" horiz-adv-x="477" 
d="M371 -16l-58 55q-73 -46 -138 -46q-59 0 -102 33t-43 101q0 65 49.5 100t121.5 46l87 13v26q0 20 -15.5 34.5t-48.5 14.5q-62 0 -130 -36l-45 86q29 19 82.5 37.5t103.5 18.5q72 0 125.5 -34.5t53.5 -113.5v-212l43 -44zM196 91q16 0 47 8t45 16v92l-77 -14
q-59 -11 -59 -58q0 -20 13.5 -32t30.5 -12zM237 516q-72 0 -112.5 38.5t-55.5 85.5l84 34q34 -60 86 -60q58 0 83 60l80 -32q-46 -126 -165 -126z" />
    <glyph glyph-name="Aogonek" unicode="&#x104;" horiz-adv-x="694" 
d="M615 -203q-45 0 -77.5 28.5t-32.5 79.5q0 45 48 91l-72 186h-273l-73 -188l-135 21l280 673h142l271 -676q-74 -49 -74 -93q0 -16 9 -25t24 -9q22 0 41 9l16 -78q-36 -19 -94 -19zM252 295h186l-91 251z" />
    <glyph glyph-name="aogonek" unicode="&#x105;" horiz-adv-x="477" 
d="M442 -180q-36 -19 -94 -19q-45 0 -77.5 28.5t-32.5 79.5t88 117l-13 13q-73 -46 -138 -46q-59 0 -102 33t-43 101q0 65 49.5 100t121.5 46l87 13v26q0 20 -15.5 34.5t-48.5 14.5q-62 0 -130 -36l-45 86q29 19 82.5 37.5t103.5 18.5q72 0 125.5 -34.5t53.5 -113.5v-212
l54 -60q-65 -47 -90.5 -74t-25.5 -50q0 -16 9 -25t24 -9q21 0 41 9zM288 207l-77 -14q-59 -11 -59 -58q0 -20 13.5 -32t30.5 -12q16 0 47 8t45 16v92z" />
    <glyph glyph-name="Cacute" unicode="&#x106;" horiz-adv-x="589" 
d="M391 -6q-168 0 -262 96t-94 255q0 154 98.5 251.5t252.5 97.5q111 0 184 -47l-59 -100q-44 28 -131 28q-95 0 -151.5 -66.5t-56.5 -162.5q0 -101 59.5 -167t159.5 -66q86 0 139 27l54 -97q-74 -49 -193 -49zM351 717l-59 74l183 133l68 -92z" />
    <glyph glyph-name="cacute" unicode="&#x107;" horiz-adv-x="425" 
d="M266 -6q-108 0 -172 60.5t-64 166.5q0 108 63 177t169 69q80 0 144 -38l-58 -95q-41 22 -79 22q-53 0 -83 -36t-30 -89q0 -55 32 -90t87 -35q43 0 79 18l57 -91q-64 -39 -145 -39zM216 499l-64 69l173 146l75 -86z" />
    <glyph glyph-name="Ccircumflex" unicode="&#x108;" horiz-adv-x="589" 
d="M391 -6q-168 0 -262 96t-94 255q0 154 98.5 251.5t252.5 97.5q111 0 184 -47l-59 -100q-44 28 -131 28q-95 0 -151.5 -66.5t-56.5 -162.5q0 -101 59.5 -167t159.5 -66q86 0 139 27l54 -97q-74 -49 -193 -49zM285 718l-78 76l182 135l182 -135l-79 -76l-103 86z" />
    <glyph glyph-name="ccircumflex" unicode="&#x109;" horiz-adv-x="425" 
d="M266 -6q-108 0 -172 60.5t-64 166.5q0 108 63 177t169 69q80 0 144 -38l-58 -95q-41 22 -79 22q-53 0 -83 -36t-30 -89q0 -55 32 -90t87 -35q43 0 79 18l57 -91q-64 -39 -145 -39zM164 495l-79 76l183 135l181 -135l-78 -76l-103 86z" />
    <glyph glyph-name="Cdotaccent" unicode="&#x10a;" horiz-adv-x="589" 
d="M391 -6q-168 0 -262 96t-94 255q0 154 98.5 251.5t252.5 97.5q111 0 184 -47l-59 -100q-44 28 -131 28q-95 0 -151.5 -66.5t-56.5 -162.5q0 -101 59.5 -167t159.5 -66q86 0 139 27l54 -97q-74 -49 -193 -49zM386 732q-32 0 -54 22t-22 54t22.5 54.5t53.5 22.5
q32 0 54.5 -22.5t22.5 -54.5t-22.5 -54t-54.5 -22z" />
    <glyph glyph-name="cdotaccent" unicode="&#x10b;" horiz-adv-x="425" 
d="M266 -6q-108 0 -172 60.5t-64 166.5q0 108 63 177t169 69q80 0 144 -38l-58 -95q-41 22 -79 22q-53 0 -83 -36t-30 -89q0 -55 32 -90t87 -35q43 0 79 18l57 -91q-64 -39 -145 -39zM266 541q-32 0 -54 22.5t-22 53.5q0 32 22.5 54.5t53.5 22.5q32 0 54.5 -22.5t22.5 -54.5
t-22.5 -54t-54.5 -22z" />
    <glyph glyph-name="Ccaron" unicode="&#x10c;" horiz-adv-x="589" 
d="M391 -6q-168 0 -262 96t-94 255q0 154 98.5 251.5t252.5 97.5q111 0 184 -47l-59 -100q-44 28 -131 28q-95 0 -151.5 -66.5t-56.5 -162.5q0 -101 59.5 -167t159.5 -66q86 0 139 27l54 -97q-74 -49 -193 -49zM380 717l-182 135l78 76l104 -86l103 86l79 -76z" />
    <glyph glyph-name="ccaron" unicode="&#x10d;" horiz-adv-x="425" 
d="M266 -6q-108 0 -172 60.5t-64 166.5q0 108 63 177t169 69q80 0 144 -38l-58 -95q-41 22 -79 22q-53 0 -83 -36t-30 -89q0 -55 32 -90t87 -35q43 0 79 18l57 -91q-64 -39 -145 -39zM263 496l-183 135l79 76l104 -86l103 86l78 -76z" />
    <glyph glyph-name="Dcaron" unicode="&#x10e;" horiz-adv-x="726" 
d="M70 0v688h266q163 0 259 -87.5t96 -247.5q0 -155 -101.5 -254t-255.5 -99h-264zM206 118h108q110 0 175 64t65 177q0 114 -65 162t-181 48h-102v-451zM308 717l-182 135l78 76l104 -86l103 86l79 -76z" />
    <glyph glyph-name="dcaron" unicode="&#x10f;" horiz-adv-x="660" 
d="M527 524l29 197h116l-58 -197h-87zM239 -7q-99 0 -154 63t-55 167q0 100 55.5 172t149.5 72q68 0 123 -35v289h126v-721h-126v34q-50 -41 -119 -41zM251 105q32 0 54.5 10.5t52.5 34.5v173q-46 33 -105 33q-49 0 -73 -37t-24 -88q0 -49 24 -87.5t71 -38.5z" />
    <glyph glyph-name="Dcroat" unicode="&#x110;" horiz-adv-x="726" 
d="M71 0v316h-62v66h62v306h266q163 0 259 -87.5t96 -247.5q0 -154 -106.5 -253.5t-261.5 -99.5h-253zM207 119h97q112 0 181.5 64t69.5 176q0 114 -65 162t-181 48h-102v-187h122v-66h-122v-197z" />
    <glyph glyph-name="dcroat" unicode="&#x111;" horiz-adv-x="544" 
d="M239 -7q-99 0 -154 63t-55 167q0 100 55.5 172t149.5 72q68 0 123 -35v101h-117v83h117v105h126v-105h56v-83h-56v-533h-126v34q-50 -41 -119 -41zM251 105q32 0 54.5 10.5t52.5 34.5v173q-46 33 -105 33q-49 0 -73 -37t-24 -88q0 -49 24 -87.5t71 -38.5z" />
    <glyph glyph-name="Emacron" unicode="&#x112;" horiz-adv-x="542" 
d="M70 0v688h432v-118h-296v-161h274v-116h-274v-174h296v-119h-432zM150 742v105h265v-105h-265z" />
    <glyph glyph-name="emacron" unicode="&#x113;" horiz-adv-x="470" 
d="M121 541v105h265v-105h-265zM259 -7q-111 0 -170 61.5t-59 172.5q0 104 60 172t162 68q91 0 141.5 -61.5t50.5 -154.5v-66h-285q7 -37 37 -60.5t67 -23.5q60 0 117 18l36 -93q-67 -33 -157 -33zM157 270h164q0 41 -19 70.5t-59 29.5t-60.5 -29.5t-25.5 -70.5z" />
    <glyph glyph-name="Ebreve" unicode="&#x114;" horiz-adv-x="542" 
d="M70 0v688h432v-118h-296v-161h274v-116h-274v-174h296v-119h-432zM292 717q-72 0 -112.5 38.5t-55.5 85.5l84 34q34 -60 86 -60q58 0 83 60l80 -32q-46 -126 -165 -126z" />
    <glyph glyph-name="ebreve" unicode="&#x115;" horiz-adv-x="470" 
d="M250 516q-72 0 -112.5 38.5t-55.5 85.5l84 34q34 -60 86 -60q58 0 83 60l80 -32q-46 -126 -165 -126zM259 -7q-111 0 -170 61.5t-59 172.5q0 104 60 172t162 68q91 0 141.5 -61.5t50.5 -154.5v-66h-285q7 -37 37 -60.5t67 -23.5q60 0 117 18l36 -93q-67 -33 -157 -33z
M157 270h164q0 41 -19 70.5t-59 29.5t-60.5 -29.5t-25.5 -70.5z" />
    <glyph glyph-name="Edotaccent" unicode="&#x116;" horiz-adv-x="542" 
d="M70 0v688h432v-118h-296v-161h274v-116h-274v-174h296v-119h-432zM289 732q-31 0 -53.5 22t-22.5 54t22.5 54.5t53.5 22.5q32 0 54.5 -22.5t22.5 -54.5t-22.5 -54t-54.5 -22z" />
    <glyph glyph-name="edotaccent" unicode="&#x117;" horiz-adv-x="470" 
d="M248 541q-32 0 -54 22.5t-22 53.5q0 32 22.5 54.5t53.5 22.5q32 0 54.5 -22.5t22.5 -54.5t-22.5 -54t-54.5 -22zM259 -7q-111 0 -170 61.5t-59 172.5q0 104 60 172t162 68q91 0 141.5 -61.5t50.5 -154.5v-66h-285q7 -37 37 -60.5t67 -23.5q60 0 117 18l36 -93
q-67 -33 -157 -33zM157 270h164q0 41 -19 70.5t-59 29.5t-60.5 -29.5t-25.5 -70.5z" />
    <glyph glyph-name="Eogonek" unicode="&#x118;" horiz-adv-x="542" 
d="M426 -203q-45 0 -77.5 28.5t-32.5 79.5q0 24 20 51t47 44h-313v688h432v-118h-296v-161h274v-116h-274v-174h296v-119q-32 -18 -52 -40.5t-20 -40.5q0 -16 9 -25t24 -9q22 0 41 9l16 -78q-36 -19 -94 -19z" />
    <glyph glyph-name="eogonek" unicode="&#x119;" horiz-adv-x="470" 
d="M390 -184q-36 -19 -94 -19q-45 0 -77.5 28.5t-32.5 79.5q0 43 46 89q-99 7 -150.5 68t-51.5 165t60 172t162 68q91 0 141.5 -61.5t50.5 -154.5v-66h-285q7 -37 37 -60.5t67 -23.5q60 0 117 18l36 -93q-22 -11 -49 -19q-67 -44 -67 -88q0 -16 9 -25t24 -9q21 0 41 9z
M157 270h164q0 41 -19 70.5t-59 29.5t-60.5 -29.5t-25.5 -70.5z" />
    <glyph glyph-name="Ecaron" unicode="&#x11a;" horiz-adv-x="542" 
d="M70 0v688h432v-118h-296v-161h274v-116h-274v-174h296v-119h-432zM286 717l-182 135l78 76l104 -86l103 86l79 -76z" />
    <glyph glyph-name="ecaron" unicode="&#x11b;" horiz-adv-x="470" 
d="M249 496l-183 135l79 76l104 -86l103 86l78 -76zM259 -7q-111 0 -170 61.5t-59 172.5q0 104 60 172t162 68q91 0 141.5 -61.5t50.5 -154.5v-66h-285q7 -37 37 -60.5t67 -23.5q60 0 117 18l36 -93q-67 -33 -157 -33zM157 270h164q0 41 -19 70.5t-59 29.5t-60.5 -29.5
t-25.5 -70.5z" />
    <glyph glyph-name="Gcircumflex" unicode="&#x11c;" horiz-adv-x="683" 
d="M379 -6q-152 0 -248 97t-96 249q0 161 102.5 257t261.5 96q129 0 209 -50l-57 -98q-27 13 -70.5 21.5t-75.5 8.5q-109 0 -171 -62.5t-62 -172.5q0 -97 57.5 -162t153.5 -65q49 0 69.5 3.5t49.5 15.5v150h-142v105h273v-306q-51 -48 -109.5 -67.5t-144.5 -19.5zM296 718
l-78 76l182 135l182 -135l-79 -76l-103 86z" />
    <glyph glyph-name="gcircumflex" unicode="&#x11d;" horiz-adv-x="517" 
d="M240 -237q-42 0 -78.5 9.5t-68 29.5t-50 57.5t-18.5 87.5q0 69 43.5 114t107.5 60l5 1q-63 13 -103 58t-40 109q0 82 58 130t141 48q65 0 105 -25l169 35v-118h-94q19 -34 19 -70q0 -64 -38 -108t-104 -59l5 -1q68 -15 112 -60t44 -114q0 -87 -64.5 -135.5t-150.5 -48.5z
M240 -134q41 0 65 21.5t24 59.5t-24.5 59.5t-64.5 21.5q-41 0 -65.5 -21.5t-24.5 -59.5q0 -39 23.5 -60t66.5 -21zM237 212q30 0 51.5 22t21.5 55t-21.5 54t-52.5 21t-52.5 -21.5t-21.5 -53.5q0 -34 22 -55.5t53 -21.5zM137 495l-79 76l183 135l181 -135l-78 -76l-103 86z
" />
    <glyph glyph-name="Gbreve" unicode="&#x11e;" horiz-adv-x="683" 
d="M379 -6q-152 0 -248 97t-96 249q0 161 102.5 257t261.5 96q129 0 209 -50l-57 -98q-27 13 -70.5 21.5t-75.5 8.5q-109 0 -171 -62.5t-62 -172.5q0 -97 57.5 -162t153.5 -65q49 0 69.5 3.5t49.5 15.5v150h-142v105h273v-306q-51 -48 -109.5 -67.5t-144.5 -19.5zM382 716
q-72 0 -112.5 38.5t-55.5 85.5l84 34q34 -60 86 -60q58 0 83 60l80 -32q-46 -126 -165 -126z" />
    <glyph glyph-name="gbreve" unicode="&#x11f;" horiz-adv-x="517" 
d="M240 -237q-42 0 -78.5 9.5t-68 29.5t-50 57.5t-18.5 87.5q0 69 43.5 114t107.5 60l5 1q-63 13 -103 58t-40 109q0 82 58 130t141 48q65 0 105 -25l169 35v-118h-94q19 -34 19 -70q0 -64 -38 -108t-104 -59l5 -1q68 -15 112 -60t44 -114q0 -87 -64.5 -135.5t-150.5 -48.5z
M240 -134q41 0 65 21.5t24 59.5t-24.5 59.5t-64.5 21.5q-41 0 -65.5 -21.5t-24.5 -59.5q0 -39 23.5 -60t66.5 -21zM237 212q30 0 51.5 22t21.5 55t-21.5 54t-52.5 21t-52.5 -21.5t-21.5 -53.5q0 -34 22 -55.5t53 -21.5zM239 516q-72 0 -112.5 38.5t-55.5 85.5l84 34
q34 -60 86 -60q58 0 83 60l80 -32q-46 -126 -165 -126z" />
    <glyph glyph-name="Gdotaccent" unicode="&#x120;" horiz-adv-x="683" 
d="M379 -6q-152 0 -248 97t-96 249q0 161 102.5 257t261.5 96q129 0 209 -50l-57 -98q-27 13 -70.5 21.5t-75.5 8.5q-109 0 -171 -62.5t-62 -172.5q0 -97 57.5 -162t153.5 -65q49 0 69.5 3.5t49.5 15.5v150h-142v105h273v-306q-51 -48 -109.5 -67.5t-144.5 -19.5zM399 732
q-31 0 -53.5 22t-22.5 54t22.5 54.5t53.5 22.5q32 0 54.5 -22.5t22.5 -54.5t-22.5 -54t-54.5 -22z" />
    <glyph glyph-name="gdotaccent" unicode="&#x121;" horiz-adv-x="517" 
d="M240 -237q-42 0 -78.5 9.5t-68 29.5t-50 57.5t-18.5 87.5q0 69 43.5 114t107.5 60l5 1q-63 13 -103 58t-40 109q0 82 58 130t141 48q65 0 105 -25l169 35v-118h-94q19 -34 19 -70q0 -64 -38 -108t-104 -59l5 -1q68 -15 112 -60t44 -114q0 -87 -64.5 -135.5t-150.5 -48.5z
M240 -134q41 0 65 21.5t24 59.5t-24.5 59.5t-64.5 21.5q-41 0 -65.5 -21.5t-24.5 -59.5q0 -39 23.5 -60t66.5 -21zM237 212q30 0 51.5 22t21.5 55t-21.5 54t-52.5 21t-52.5 -21.5t-21.5 -53.5q0 -34 22 -55.5t53 -21.5zM236 541q-32 0 -54 22.5t-22 53.5q0 32 22.5 54.5
t53.5 22.5q32 0 54.5 -22.5t22.5 -54.5t-22.5 -54t-54.5 -22z" />
    <glyph glyph-name="Gcommaaccent" unicode="&#x122;" horiz-adv-x="683" 
d="M379 -6q-152 0 -248 97t-96 249q0 161 102.5 257t261.5 96q129 0 209 -50l-57 -98q-27 13 -70.5 21.5t-75.5 8.5q-109 0 -171 -62.5t-62 -172.5q0 -97 57.5 -162t153.5 -65q49 0 69.5 3.5t49.5 15.5v150h-142v105h273v-306q-51 -48 -109.5 -67.5t-144.5 -19.5zM312 -228
l29 197h116l-58 -197h-87z" />
    <glyph glyph-name="gcommaaccent" unicode="&#x123;" horiz-adv-x="517" 
d="M240 -237q-42 0 -78.5 9.5t-68 29.5t-50 57.5t-18.5 87.5q0 69 43.5 114t107.5 60l5 1q-63 13 -103 58t-40 109q0 82 58 130t141 48q65 0 105 -25l169 35v-118h-94q19 -34 19 -70q0 -64 -38 -108t-104 -59l5 -1q68 -15 112 -60t44 -114q0 -87 -64.5 -135.5t-150.5 -48.5z
M240 -134q41 0 65 21.5t24 59.5t-24.5 59.5t-64.5 21.5q-41 0 -65.5 -21.5t-24.5 -59.5q0 -39 23.5 -60t66.5 -21zM237 212q30 0 51.5 22t21.5 55t-21.5 54t-52.5 21t-52.5 -21.5t-21.5 -53.5q0 -34 22 -55.5t53 -21.5zM183 509l58 197h87l-29 -197h-116z" />
    <glyph glyph-name="Hcircumflex" unicode="&#x124;" horiz-adv-x="715" 
d="M70 0v688h137v-278h301v278h137v-688h-137v292h-301v-292h-137zM253 718l-78 76l182 135l182 -135l-79 -76l-103 86z" />
    <glyph glyph-name="hcircumflex" unicode="&#x125;" horiz-adv-x="531" 
d="M60 0v721h126v-306q62 52 135 52q70 0 115 -36.5t45 -104.5v-326h-126v300q0 29 -13.5 41t-42.5 12q-52 0 -113 -49v-304h-126zM17 718l-78 76l182 135l182 -135l-79 -76l-103 86z" />
    <glyph glyph-name="Hbar" unicode="&#x126;" horiz-adv-x="715" 
d="M70 0v495h-59v83h59v110h137v-110h301v110h137v-110h55v-83h-55v-495h-137v292h-301v-292h-137zM207 410h301v85h-301v-85z" />
    <glyph glyph-name="hbar" unicode="&#x127;" horiz-adv-x="531" 
d="M60 0v533h-56v83h56v105h126v-105h117v-83h-117v-118q62 52 135 52q70 0 115 -36.5t45 -104.5v-326h-126v300q0 29 -13.5 41t-42.5 12q-52 0 -113 -49v-304h-126z" />
    <glyph glyph-name="Itilde" unicode="&#x128;" horiz-adv-x="277" 
d="M70 0v688h137v-688h-137zM303 795q-28 -39 -52.5 -58t-59.5 -19q-24 0 -61 15t-54 15q-30 0 -56 -28l-55 64q45 68 109 68q24 0 61 -15t52 -15q31 0 52 28z" />
    <glyph glyph-name="itilde" unicode="&#x129;" horiz-adv-x="245" 
d="M60 0v461h125v-461h-125zM291 601q-46 -77 -112 -77q-24 0 -61 15t-54 15q-30 0 -56 -28l-55 64q45 68 109 68q24 0 61 -15t52 -15q31 0 52 28z" />
    <glyph glyph-name="Imacron" unicode="&#x12a;" horiz-adv-x="277" 
d="M70 0v688h137v-688h-137zM6 742v105h265v-105h-265z" />
    <glyph glyph-name="imacron" unicode="&#x12b;" horiz-adv-x="245" 
d="M60 0v461h125v-461h-125zM-11 541v105h265v-105h-265z" />
    <glyph glyph-name="Ibreve" unicode="&#x12c;" horiz-adv-x="277" 
d="M70 0v688h137v-688h-137zM138 718q-72 0 -112.5 38.5t-55.5 85.5l84 34q34 -60 86 -60q58 0 83 60l80 -32q-46 -126 -165 -126z" />
    <glyph glyph-name="ibreve" unicode="&#x12d;" horiz-adv-x="245" 
d="M60 0v461h125v-461h-125zM122 516q-72 0 -112.5 38.5t-55.5 85.5l84 34q34 -60 86 -60q58 0 83 60l80 -32q-46 -126 -165 -126z" />
    <glyph glyph-name="Iogonek" unicode="&#x12e;" horiz-adv-x="277" 
d="M146 -203q-45 0 -77.5 28.5t-32.5 79.5q0 38 34 77v706h137v-688q-57 -43 -57 -81q0 -16 9 -25t24 -9q21 0 41 9l16 -78q-36 -19 -94 -19z" />
    <glyph glyph-name="iogonek" unicode="&#x12f;" horiz-adv-x="245" 
d="M124 -203q-45 0 -77.5 28.5t-32.5 79.5q0 41 46 95v461h125v-461q-57 -43 -57 -81q0 -16 9 -25t24 -9q21 0 41 9l16 -78q-36 -19 -94 -19zM122 541q-32 0 -54 22.5t-22 53.5q0 32 22.5 54.5t53.5 22.5q32 0 54.5 -22.5t22.5 -54.5t-22.5 -54t-54.5 -22z" />
    <glyph glyph-name="Idotaccent" unicode="&#x130;" horiz-adv-x="277" 
d="M70 0v688h137v-688h-137zM137 732q-31 0 -53.5 22t-22.5 54t22.5 54.5t53.5 22.5q32 0 54.5 -22.5t22.5 -54.5t-22.5 -54t-54.5 -22z" />
    <glyph glyph-name="dotlessi" unicode="&#x131;" horiz-adv-x="245" 
d="M60 0v461h125v-461h-125z" />
    <glyph glyph-name="IJ" unicode="&#x132;" horiz-adv-x="550" 
d="M70 0v688h137v-688h-137zM173 -212v119q84 -1 128 33t44 116v632h136v-627q0 -142 -81.5 -207.5t-226.5 -65.5z" />
    <glyph glyph-name="ij" unicode="&#x133;" horiz-adv-x="486" 
d="M122 541q-32 0 -54 22.5t-22 53.5q0 32 22.5 54.5t53.5 22.5q32 0 54.5 -22.5t22.5 -54.5t-22.5 -54t-54.5 -22zM60 0v461h125v-461h-125zM364 541q-32 0 -54.5 22t-22.5 54t22.5 54.5t54.5 22.5q31 0 53.5 -22.5t22.5 -54.5q0 -31 -22 -53.5t-54 -22.5zM261 -239l-75 87
q70 35 93 79.5t23 107.5v426h126v-430q0 -87 -39.5 -158.5t-127.5 -111.5z" />
    <glyph glyph-name="Jcircumflex" unicode="&#x134;" horiz-adv-x="277" 
d="M-100 -212v119q84 -1 128 33t44 116v632h136v-627q0 -142 -81.5 -207.5t-226.5 -65.5zM34 718l-78 76l182 135l182 -135l-79 -76l-103 86z" />
    <glyph glyph-name="jcircumflex" unicode="&#x135;" horiz-adv-x="245" 
d="M19 495l-79 76l183 135l181 -135l-78 -76l-103 86zM20 -239l-75 87q70 35 93 79.5t23 107.5v426h126v-430q0 -87 -39.5 -158.5t-127.5 -111.5z" />
    <glyph glyph-name="Kcommaaccent" unicode="&#x136;" horiz-adv-x="650" 
d="M70 0v688h137v-324l268 331l157 -20l-266 -308l283 -346l-156 -29l-286 365v-357h-137zM277 -228l29 197h116l-58 -197h-87z" />
    <glyph glyph-name="kcommaaccent" unicode="&#x137;" horiz-adv-x="490" 
d="M60 0v721h126v-465l153 206l151 -5l-164 -201l174 -249l-151 -14l-163 258v-251h-126zM188 -228l29 197h116l-58 -197h-87z" />
    <glyph glyph-name="Lacute" unicode="&#x139;" horiz-adv-x="514" 
d="M70 0v688h137v-569h303v-119h-440zM88 717l-59 74l183 133l68 -92z" />
    <glyph glyph-name="lacute" unicode="&#x13a;" horiz-adv-x="246" 
d="M60 0v721h126v-721h-126zM64 747l-59 74l183 133l68 -92z" />
    <glyph glyph-name="Lcommaaccent" unicode="&#x13b;" horiz-adv-x="514" 
d="M70 0v688h137v-569h303v-119h-440zM230 -228l29 197h116l-58 -197h-87z" />
    <glyph glyph-name="lcommaaccent" unicode="&#x13c;" horiz-adv-x="246" 
d="M60 0v721h126v-721h-126zM41 -228l29 197h116l-58 -197h-87z" />
    <glyph glyph-name="Lcaron" unicode="&#x13d;" horiz-adv-x="514" 
d="M288 524l29 197h116l-58 -197h-87zM70 0v688h137v-569h303v-119h-440z" />
    <glyph glyph-name="lcaron" unicode="&#x13e;" horiz-adv-x="352" 
d="M229 524l29 197h116l-58 -197h-87zM60 0v721h126v-721h-126z" />
    <glyph glyph-name="Ldot" unicode="&#x13f;" horiz-adv-x="514" 
d="M70 0v688h137v-569h303v-119h-440zM392 308q-32 0 -54.5 22.5t-22.5 54.5t22.5 54.5t54.5 22.5t54.5 -22.5t22.5 -54.5t-22.5 -54.5t-54.5 -22.5z" />
    <glyph glyph-name="ldot" unicode="&#x140;" horiz-adv-x="406" 
d="M60 0v721h126v-721h-126zM328 256q-32 0 -54.5 22.5t-22.5 54.5t22.5 54.5t54.5 22.5t54.5 -22.5t22.5 -54.5t-22.5 -54.5t-54.5 -22.5z" />
    <glyph glyph-name="Lslash" unicode="&#x141;" horiz-adv-x="514" 
d="M71 0v308l-61 -32v76l61 32v304h137v-232l125 66v-77l-125 -66v-260h303v-119h-440z" />
    <glyph glyph-name="lslash" unicode="&#x142;" horiz-adv-x="274" 
d="M78 0v314l-89 -46v78l89 46v329h126v-263l81 42v-78l-81 -42v-380h-126z" />
    <glyph glyph-name="Nacute" unicode="&#x143;" horiz-adv-x="765" 
d="M70 0v688h146l342 -450v450h137v-688h-134l-354 457v-457h-137zM354 717l-59 74l183 133l68 -92z" />
    <glyph glyph-name="nacute" unicode="&#x144;" horiz-adv-x="531" 
d="M60 0v461h126v-46q62 52 135 52q70 0 115 -36.5t45 -104.5v-326h-126v303q0 29 -13.5 41t-42.5 12q-52 0 -113 -49v-307h-126zM223 499l-64 69l173 146l75 -86z" />
    <glyph glyph-name="Ncommaaccent" unicode="&#x145;" horiz-adv-x="765" 
d="M70 0v688h146l342 -450v450h137v-688h-134l-354 457v-457h-137zM307 -228l29 197h116l-58 -197h-87z" />
    <glyph glyph-name="ncommaaccent" unicode="&#x146;" horiz-adv-x="531" 
d="M60 0v461h126v-46q62 52 135 52q70 0 115 -36.5t45 -104.5v-326h-126v303q0 29 -13.5 41t-42.5 12q-52 0 -113 -49v-307h-126zM195 -228l29 197h116l-58 -197h-87z" />
    <glyph glyph-name="Ncaron" unicode="&#x147;" horiz-adv-x="765" 
d="M70 0v688h146l342 -450v450h137v-688h-134l-354 457v-457h-137zM390 717l-182 135l78 76l104 -86l103 86l79 -76z" />
    <glyph glyph-name="ncaron" unicode="&#x148;" horiz-adv-x="531" 
d="M60 0v461h126v-46q62 52 135 52q70 0 115 -36.5t45 -104.5v-326h-126v303q0 29 -13.5 41t-42.5 12q-52 0 -113 -49v-307h-126zM271 496l-183 135l79 76l104 -86l103 86l78 -76z" />
    <glyph glyph-name="napostrophe" unicode="&#x149;" horiz-adv-x="531" 
d="M60 0v461h126v-46q62 52 135 52q70 0 115 -36.5t45 -104.5v-326h-126v303q0 29 -13.5 41t-42.5 12q-52 0 -113 -49v-307h-126zM-112 518l72 207h116l-85 -207h-103z" />
    <glyph glyph-name="Eng" unicode="&#x14a;" horiz-adv-x="765" 
d="M386 -212v119q144 -2 167 93h-9l-337 457v-457h-137v688h146l342 -459v459h137l-1 -627q0 -142 -81.5 -207.5t-226.5 -65.5z" />
    <glyph glyph-name="eng" unicode="&#x14b;" horiz-adv-x="531" 
d="M314 -239l-75 87q70 35 93 79.5t23 107.5v268q0 29 -13.5 41t-42.5 12q-52 0 -113 -49v-307h-126v461h126v-46q62 52 135 52q70 0 115 -36.5t45 -104.5v-295q0 -87 -39.5 -158.5t-127.5 -111.5z" />
    <glyph glyph-name="Omacron" unicode="&#x14c;" horiz-adv-x="773" 
d="M254 742v105h265v-105h-265zM388 -6q-158 0 -255.5 96t-97.5 254q0 149 96 249t258 100q158 0 253.5 -101.5t95.5 -246.5q0 -156 -95 -253.5t-255 -97.5zM384 112q100 0 158 66t58 166q0 101 -55.5 166t-157.5 65q-101 0 -157.5 -65.5t-56.5 -165.5q0 -96 56 -164
t155 -68z" />
    <glyph glyph-name="omacron" unicode="&#x14d;" horiz-adv-x="526" 
d="M131 541v105h265v-105h-265zM265 -5q-106 0 -170.5 63.5t-64.5 170.5q0 60 23 112.5t78 89.5t134 37q117 0 174 -71t57 -167q0 -94 -59 -164.5t-172 -70.5zM264 105q50 0 76.5 32t26.5 93q0 65 -30.5 95.5t-71.5 30.5q-40 0 -72.5 -30.5t-32.5 -96.5q0 -54 26.5 -89
t77.5 -35z" />
    <glyph glyph-name="Obreve" unicode="&#x14e;" horiz-adv-x="773" 
d="M388 -6q-158 0 -255.5 96t-97.5 254q0 149 96 249t258 100q158 0 253.5 -101.5t95.5 -246.5q0 -156 -95 -253.5t-255 -97.5zM384 112q100 0 158 66t58 166q0 101 -55.5 166t-157.5 65q-101 0 -157.5 -65.5t-56.5 -165.5q0 -96 56 -164t155 -68zM385 716
q-72 0 -112.5 38.5t-55.5 85.5l84 34q34 -60 86 -60q58 0 83 60l80 -32q-46 -126 -165 -126z" />
    <glyph glyph-name="obreve" unicode="&#x14f;" horiz-adv-x="526" 
d="M262 516q-72 0 -112.5 38.5t-55.5 85.5l84 34q34 -60 86 -60q58 0 83 60l80 -32q-46 -126 -165 -126zM265 -5q-106 0 -170.5 63.5t-64.5 170.5q0 60 23 112.5t78 89.5t134 37q117 0 174 -71t57 -167q0 -94 -59 -164.5t-172 -70.5zM264 105q50 0 76.5 32t26.5 93
q0 65 -30.5 95.5t-71.5 30.5q-40 0 -72.5 -30.5t-32.5 -96.5q0 -54 26.5 -89t77.5 -35z" />
    <glyph glyph-name="Ohungarumlaut" unicode="&#x150;" horiz-adv-x="773" 
d="M270 717l-70 63l159 161l82 -80zM495 717l-59 74l183 133l68 -92zM388 -6q-158 0 -255.5 96t-97.5 254q0 149 96 249t258 100q158 0 253.5 -101.5t95.5 -246.5q0 -156 -95 -253.5t-255 -97.5zM384 112q100 0 158 66t58 166q0 101 -55.5 166t-157.5 65
q-101 0 -157.5 -65.5t-56.5 -165.5q0 -96 56 -164t155 -68z" />
    <glyph glyph-name="ohungarumlaut" unicode="&#x151;" horiz-adv-x="526" 
d="M148 499l-76 56l144 175l89 -70zM350 499l-64 69l173 146l75 -86zM265 -5q-106 0 -170.5 63.5t-64.5 170.5q0 60 23 112.5t78 89.5t134 37q117 0 174 -71t57 -167q0 -94 -59 -164.5t-172 -70.5zM264 105q50 0 76.5 32t26.5 93q0 65 -30.5 95.5t-71.5 30.5
q-40 0 -72.5 -30.5t-32.5 -96.5q0 -54 26.5 -89t77.5 -35z" />
    <glyph glyph-name="OE" unicode="&#x152;" horiz-adv-x="927" 
d="M388 -6q-158 0 -255.5 96t-97.5 254q0 149 96 249t258 100q32 0 65 -5h433v-118h-297v-161h275v-116h-275v-174h297v-119h-426q-34 -6 -73 -6zM384 112q35 0 70 10l1 444q-31 9 -68 9q-101 0 -157.5 -65.5t-56.5 -165.5q0 -96 56 -164t155 -68z" />
    <glyph glyph-name="oe" unicode="&#x153;" horiz-adv-x="807" 
d="M753 26q-67 -33 -157 -33q-109 0 -170 61q-62 -59 -161 -59q-106 0 -170.5 63.5t-64.5 170.5q0 60 23 112.5t78 89.5t134 37q106 0 167 -63q60 62 157 62q91 0 141.5 -61.5t50.5 -154.5v-66h-285q7 -37 37 -60.5t67 -23.5q60 0 117 18zM264 105q41 0 71.5 29.5t31.5 95.5
q0 65 -30.5 95.5t-71.5 30.5q-40 0 -72.5 -30.5t-32.5 -96.5q0 -54 26.5 -89t77.5 -35zM494 270h164q0 41 -19 70.5t-59 29.5q-73 0 -86 -100z" />
    <glyph glyph-name="Racute" unicode="&#x154;" horiz-adv-x="596" 
d="M438 -6l-153 263h-79v-257h-136v688h203q117 0 189.5 -51.5t72.5 -153.5q0 -71 -28 -117t-90 -81l177 -278zM206 374h57q134 0 134 99q0 96 -137 96h-54v-195zM231 717l-59 74l183 133l68 -92z" />
    <glyph glyph-name="racute" unicode="&#x155;" horiz-adv-x="366" 
d="M60 0v461h126v-57q40 43 57 53q23 13 54 13q30 0 74 -19l-54 -114q-18 13 -56 13q-41 0 -75 -65v-285h-126zM167 499l-64 69l173 146l75 -86z" />
    <glyph glyph-name="Rcommaaccent" unicode="&#x156;" horiz-adv-x="596" 
d="M438 -6l-153 263h-79v-257h-136v688h203q117 0 189.5 -51.5t72.5 -153.5q0 -71 -28 -117t-90 -81l177 -278zM206 374h57q134 0 134 99q0 96 -137 96h-54v-195zM239 -228l29 197h116l-58 -197h-87z" />
    <glyph glyph-name="rcommaaccent" unicode="&#x157;" horiz-adv-x="366" 
d="M60 0v461h126v-57q40 43 57 53q23 13 54 13q30 0 74 -19l-54 -114q-18 13 -56 13q-41 0 -75 -65v-285h-126zM47 -228l29 197h116l-58 -197h-87z" />
    <glyph glyph-name="Rcaron" unicode="&#x158;" horiz-adv-x="596" 
d="M438 -6l-153 263h-79v-257h-136v688h203q117 0 189.5 -51.5t72.5 -153.5q0 -71 -28 -117t-90 -81l177 -278zM206 374h57q134 0 134 99q0 96 -137 96h-54v-195zM285 717l-182 135l78 76l104 -86l103 86l79 -76z" />
    <glyph glyph-name="rcaron" unicode="&#x159;" horiz-adv-x="366" 
d="M60 0v461h126v-57q40 43 57 53q23 13 54 13q30 0 74 -19l-54 -114q-18 13 -56 13q-41 0 -75 -65v-285h-126zM189 496l-183 135l79 76l104 -86l103 86l78 -76z" />
    <glyph glyph-name="Sacute" unicode="&#x15a;" horiz-adv-x="504" 
d="M249 -6q-73 0 -126.5 18t-102.5 63l82 95q69 -57 142 -57q39 0 69.5 20.5t30.5 58.5q0 41 -28 64t-85 46q-30 13 -43 19t-39.5 20t-39.5 28t-28.5 34.5t-22 48t-6.5 60.5q0 80 67 131t149 51q114 0 206 -54l-61 -102q-20 14 -60.5 26t-77.5 12q-90 0 -90 -69
q0 -15 6 -27.5t13.5 -20.5t24 -18t27 -14.5t34.5 -14t34 -14.5q34 -15 58 -29.5t49 -38t38 -57.5t13 -77q0 -89 -71 -145.5t-162 -56.5zM260 717l-59 74l183 133l68 -92z" />
    <glyph glyph-name="sacute" unicode="&#x15b;" horiz-adv-x="397" 
d="M183 -7q-101 0 -170 51l54 90q56 -34 115 -34q65 0 65 32q0 5 -2 9t-7.5 8.5t-10 7.5t-14 8t-15.5 7.5t-19 7.5t-19 8q-57 23 -89 55t-32 89q0 66 50.5 100.5t114.5 34.5q104 0 166 -50l-59 -85q-49 32 -106 32q-47 0 -47 -28q0 -7 2.5 -12.5t10.5 -10.5t13 -7.5t19 -8
t20 -8.5q3 -1 19.5 -8t21 -9t19.5 -9t20.5 -11t17.5 -12.5t17 -15t13.5 -17t11.5 -21t6 -23.5t3 -28q0 -66 -54.5 -104t-134.5 -38zM166 499l-64 69l173 146l75 -86z" />
    <glyph glyph-name="Scircumflex" unicode="&#x15c;" horiz-adv-x="504" 
d="M249 -6q-73 0 -126.5 18t-102.5 63l82 95q69 -57 142 -57q39 0 69.5 20.5t30.5 58.5q0 41 -28 64t-85 46q-30 13 -43 19t-39.5 20t-39.5 28t-28.5 34.5t-22 48t-6.5 60.5q0 80 67 131t149 51q114 0 206 -54l-61 -102q-20 14 -60.5 26t-77.5 12q-90 0 -90 -69
q0 -15 6 -27.5t13.5 -20.5t24 -18t27 -14.5t34.5 -14t34 -14.5q34 -15 58 -29.5t49 -38t38 -57.5t13 -77q0 -89 -71 -145.5t-162 -56.5zM175 718l-78 76l182 135l182 -135l-79 -76l-103 86z" />
    <glyph glyph-name="scircumflex" unicode="&#x15d;" horiz-adv-x="397" 
d="M183 -7q-101 0 -170 51l54 90q56 -34 115 -34q65 0 65 32q0 5 -2 9t-7.5 8.5t-10 7.5t-14 8t-15.5 7.5t-19 7.5t-19 8q-57 23 -89 55t-32 89q0 66 50.5 100.5t114.5 34.5q104 0 166 -50l-59 -85q-49 32 -106 32q-47 0 -47 -28q0 -7 2.5 -12.5t10.5 -10.5t13 -7.5t19 -8
t20 -8.5q3 -1 19.5 -8t21 -9t19.5 -9t20.5 -11t17.5 -12.5t17 -15t13.5 -17t11.5 -21t6 -23.5t3 -28q0 -66 -54.5 -104t-134.5 -38zM106 495l-79 76l183 135l181 -135l-78 -76l-103 86z" />
    <glyph glyph-name="Scedilla" unicode="&#x15e;" horiz-adv-x="504" 
d="M202 -243l-41 65q55 22 55 55q0 35 -37 64l22 55q-106 9 -181 79l82 95q69 -57 142 -57q39 0 69.5 20.5t30.5 58.5q0 41 -28 64t-85 46q-30 13 -43 19t-39.5 20t-39.5 28t-28.5 34.5t-22 48t-6.5 60.5q0 80 67 131t149 51q114 0 206 -54l-61 -102q-69 37 -147 37
q-31 0 -56 -19t-25 -49q0 -15 6 -27.5t13.5 -20.5t24 -18t27 -14.5t34.5 -14t34 -14.5q34 -15 58 -29.5t49 -38t38 -57.5t13 -77q0 -74 -51 -126.5t-126 -69.5l-18 -42q35 -35 35 -83q0 -38 -34.5 -73.5t-85.5 -44.5z" />
    <glyph glyph-name="scedilla" unicode="&#x15f;" horiz-adv-x="397" 
d="M138 -243l-41 65q55 22 55 55q0 35 -37 64l22 56q-74 10 -124 47l54 90q56 -34 115 -34q65 0 65 32q0 5 -2 9t-7.5 8.5t-10 7.5t-14 8t-15.5 7.5t-19 7.5t-19 8q-57 23 -89 55t-32 89q0 66 50.5 100.5t114.5 34.5q104 0 166 -50l-59 -85q-49 32 -106 32q-47 0 -47 -28
q0 -7 2.5 -12.5t10.5 -10.5t13 -7.5t19 -8t20 -8.5q3 -1 19.5 -8t21 -9t19.5 -9t20.5 -11t17.5 -12.5t17 -15t13.5 -17t11.5 -21t6 -23.5t3 -28q0 -53 -36 -88t-95 -48l-18 -41q35 -35 35 -83q0 -38 -34.5 -73.5t-85.5 -44.5z" />
    <glyph glyph-name="Scaron" unicode="&#x160;" horiz-adv-x="504" 
d="M249 -6q-73 0 -126.5 18t-102.5 63l82 95q69 -57 142 -57q39 0 69.5 20.5t30.5 58.5q0 41 -28 64t-85 46q-30 13 -43 19t-39.5 20t-39.5 28t-28.5 34.5t-22 48t-6.5 60.5q0 80 67 131t149 51q114 0 206 -54l-61 -102q-69 37 -147 37q-31 0 -56 -19t-25 -49q0 -15 6 -27.5
t13.5 -20.5t24 -18t27 -14.5t34.5 -14t34 -14.5q34 -15 58 -29.5t49 -38t38 -57.5t13 -77q0 -89 -71 -145.5t-162 -56.5zM268 717l-182 135l78 76l104 -86l103 86l79 -76z" />
    <glyph glyph-name="scaron" unicode="&#x161;" horiz-adv-x="397" 
d="M206 496l-183 135l79 76l104 -86l103 86l78 -76zM183 -7q-101 0 -170 51l54 90q56 -34 115 -34q65 0 65 32q0 5 -2 9t-7.5 8.5t-10 7.5t-14 8t-15.5 7.5t-19 7.5t-19 8q-57 23 -89 55t-32 89q0 66 50.5 100.5t114.5 34.5q104 0 166 -50l-59 -85q-49 32 -106 32
q-47 0 -47 -28q0 -7 2.5 -12.5t10.5 -10.5t13 -7.5t19 -8t20 -8.5q3 -1 19.5 -8t21 -9t19.5 -9t20.5 -11t17.5 -12.5t17 -15t13.5 -17t11.5 -21t6 -23.5t3 -28q0 -66 -54.5 -104t-134.5 -38z" />
    <glyph glyph-name="Tcommaaccent" unicode="&#x162;" horiz-adv-x="519" 
d="M193 0v570h-193v118h519v-118h-189v-570h-137zM182 -228l29 197h116l-58 -197h-87z" />
    <glyph glyph-name="tcommaaccent" unicode="&#x163;" horiz-adv-x="366" 
d="M222 -6q-67 0 -102.5 37.5t-35.5 102.5v221h-74v106h74v109h126v-109h119v-105h-119v-209q0 -42 48 -42q24 0 71 14l27 -100q-55 -25 -134 -25zM153 -228l29 197h116l-58 -197h-87z" />
    <glyph glyph-name="Tcaron" unicode="&#x164;" horiz-adv-x="519" 
d="M193 0v570h-193v118h519v-118h-189v-570h-137zM261 717l-182 135l78 76l104 -86l103 86l79 -76z" />
    <glyph glyph-name="tcaron" unicode="&#x165;" horiz-adv-x="393" 
d="M222 -6q-67 0 -102.5 37.5t-35.5 102.5v221h-74v106h74v109h126v-109h119v-105h-119v-209q0 -42 48 -42q24 0 71 14l27 -100q-55 -25 -134 -25zM274 493l29 197h116l-58 -197h-87z" />
    <glyph glyph-name="Tbar" unicode="&#x166;" horiz-adv-x="519" 
d="M193 0v355h-152v83h152v132h-193v118h519v-118h-189v-132h152v-83h-152v-355h-137z" />
    <glyph glyph-name="tbar" unicode="&#x167;" horiz-adv-x="366" 
d="M222 -6q-67 0 -102.5 37.5t-35.5 102.5v89h-74v83h74v49h-74v106h74v109h126v-109h119v-105h-119v-50h73v-83h-73v-76q0 -42 48 -42q24 0 71 14l27 -100q-55 -25 -134 -25z" />
    <glyph glyph-name="Utilde" unicode="&#x168;" horiz-adv-x="704" 
d="M354 -6q-77 0 -140.5 24t-106 79.5t-42.5 134.5v456h137v-448q0 -62 45 -94.5t110 -32.5q145 0 145 134v441h137v-455q0 -114 -83 -176.5t-202 -62.5zM522 795q-28 -39 -52.5 -58t-59.5 -19q-24 0 -61 15t-54 15q-30 0 -56 -28l-55 64q45 68 109 68q24 0 61 -15t52 -15
q31 0 52 28z" />
    <glyph glyph-name="utilde" unicode="&#x169;" horiz-adv-x="536" 
d="M215 -6q-71 0 -115.5 36t-44.5 105v326h126v-303q0 -29 13.5 -41t42.5 -12q45 0 113 53v303h126v-461h-126v46q-60 -52 -135 -52zM434 601q-46 -77 -112 -77q-24 0 -61 15t-54 15q-30 0 -56 -28l-55 64q45 68 109 68q24 0 61 -15t52 -15q31 0 52 28z" />
    <glyph glyph-name="Umacron" unicode="&#x16a;" horiz-adv-x="704" 
d="M354 -6q-77 0 -140.5 24t-106 79.5t-42.5 134.5v456h137v-448q0 -62 45 -94.5t110 -32.5q145 0 145 134v441h137v-455q0 -114 -83 -176.5t-202 -62.5zM220 742v105h265v-105h-265z" />
    <glyph glyph-name="umacron" unicode="&#x16b;" horiz-adv-x="536" 
d="M215 -6q-71 0 -115.5 36t-44.5 105v326h126v-303q0 -29 13.5 -41t42.5 -12q45 0 113 53v303h126v-461h-126v46q-60 -52 -135 -52zM132 541v105h265v-105h-265z" />
    <glyph glyph-name="Ubreve" unicode="&#x16c;" horiz-adv-x="704" 
d="M354 -6q-77 0 -140.5 24t-106 79.5t-42.5 134.5v456h137v-448q0 -62 45 -94.5t110 -32.5q145 0 145 134v441h137v-455q0 -114 -83 -176.5t-202 -62.5zM354 716q-72 0 -112.5 38.5t-55.5 85.5l84 34q34 -60 86 -60q58 0 83 60l80 -32q-46 -126 -165 -126z" />
    <glyph glyph-name="ubreve" unicode="&#x16d;" horiz-adv-x="536" 
d="M215 -6q-71 0 -115.5 36t-44.5 105v326h126v-303q0 -29 13.5 -41t42.5 -12q45 0 113 53v303h126v-461h-126v46q-60 -52 -135 -52zM264 516q-72 0 -112.5 38.5t-55.5 85.5l84 34q34 -60 86 -60q58 0 83 60l80 -32q-46 -126 -165 -126z" />
    <glyph glyph-name="Uring" unicode="&#x16e;" horiz-adv-x="704" 
d="M354 -6q-77 0 -140.5 24t-106 79.5t-42.5 134.5v456h137v-448q0 -62 45 -94.5t110 -32.5q145 0 145 134v441h137v-455q0 -114 -83 -176.5t-202 -62.5zM353 681q-52 0 -88.5 32t-36.5 82t36.5 81.5t88.5 31.5t88 -31.5t36 -81.5t-36.5 -82t-87.5 -32zM353 750
q16 0 28.5 11.5t12.5 33.5q0 21 -13 32.5t-28 11.5q-16 0 -28.5 -11.5t-12.5 -32.5t12.5 -33t28.5 -12z" />
    <glyph glyph-name="uring" unicode="&#x16f;" horiz-adv-x="536" 
d="M215 -6q-71 0 -115.5 36t-44.5 105v326h126v-303q0 -29 13.5 -41t42.5 -12q45 0 113 53v303h126v-461h-126v46q-60 -52 -135 -52zM269 511q-52 0 -88.5 32t-36.5 82t36.5 81.5t88.5 31.5t88 -31.5t36 -81.5t-36.5 -82t-87.5 -32zM269 580q16 0 28.5 11.5t12.5 33.5
q0 21 -13 32.5t-28 11.5q-16 0 -28.5 -11.5t-12.5 -32.5t12.5 -33t28.5 -12z" />
    <glyph glyph-name="Uhungarumlaut" unicode="&#x170;" horiz-adv-x="704" 
d="M354 -6q-77 0 -140.5 24t-106 79.5t-42.5 134.5v456h137v-448q0 -62 45 -94.5t110 -32.5q145 0 145 134v441h137v-455q0 -114 -83 -176.5t-202 -62.5zM238 717l-70 63l159 161l82 -80zM463 717l-59 74l183 133l68 -92z" />
    <glyph glyph-name="uhungarumlaut" unicode="&#x171;" horiz-adv-x="536" 
d="M215 -6q-71 0 -115.5 36t-44.5 105v326h126v-303q0 -29 13.5 -41t42.5 -12q45 0 113 53v303h126v-461h-126v46q-60 -52 -135 -52zM153 499l-76 56l144 175l89 -70zM355 499l-64 69l173 146l75 -86z" />
    <glyph glyph-name="Uogonek" unicode="&#x172;" horiz-adv-x="704" 
d="M365 -203q-45 0 -77.5 28.5t-32.5 79.5q0 45 49 92q-104 12 -171.5 71.5t-67.5 163.5v456h137v-448q0 -62 45 -94.5t110 -32.5q145 0 145 134v441h137v-455q0 -96 -59.5 -155.5t-152.5 -77.5q-58 -41 -58 -81q0 -16 9 -25t24 -9q22 0 41 9l16 -78q-36 -19 -94 -19z" />
    <glyph glyph-name="uogonek" unicode="&#x173;" horiz-adv-x="536" 
d="M414 -203q-45 0 -77.5 28.5t-32.5 79.5q0 41 46 95v46q-60 -52 -135 -52q-71 0 -115.5 36t-44.5 105v326h126v-303q0 -29 13.5 -41t42.5 -12q45 0 113 53v303h126v-461q-58 -44 -58 -81q0 -16 9 -25t24 -9q21 0 41 9l16 -78q-36 -19 -94 -19z" />
    <glyph glyph-name="Wcircumflex" unicode="&#x174;" horiz-adv-x="947" 
d="M175 0l-176 683l149 13l116 -554l133 546h165l121 -546l128 552l137 -10l-189 -684h-159l-123 531l-139 -531h-163zM374 718l-78 76l182 135l182 -135l-79 -76l-103 86z" />
    <glyph glyph-name="wcircumflex" unicode="&#x175;" horiz-adv-x="765" 
d="M160 0l-167 454l130 13l107 -330l97 324h115l98 -324l104 330l127 -10l-173 -457h-127l-90 291l-92 -291h-129zM278 495l-79 76l183 135l181 -135l-78 -76l-103 86z" />
    <glyph glyph-name="Ycircumflex" unicode="&#x176;" horiz-adv-x="620" 
d="M239 0v275l-243 398l154 20l163 -297l167 297l145 -20l-249 -398v-275h-137zM209 718l-78 76l182 135l182 -135l-79 -76l-103 86z" />
    <glyph glyph-name="ycircumflex" unicode="&#x177;" horiz-adv-x="486" 
d="M66 -239q-12 0 -35.5 1.5t-28.5 1.5v113q32 -2 49 -2q77 0 108 79l14 38l-178 465l138 7l109 -327l121 327l128 -13l-218 -528q-67 -162 -207 -162zM141 495l-79 76l183 135l181 -135l-78 -76l-103 86z" />
    <glyph glyph-name="Ydieresis" unicode="&#x178;" horiz-adv-x="620" 
d="M204 724q-32 0 -54 22t-22 54t22.5 54.5t53.5 22.5q32 0 54.5 -22.5t22.5 -54.5t-22.5 -54t-54.5 -22zM425 724q-31 0 -53.5 22t-22.5 54t22.5 54.5t53.5 22.5q32 0 54.5 -22.5t22.5 -54.5t-22.5 -54t-54.5 -22zM239 0v275l-243 398l154 20l163 -297l167 297l145 -20
l-249 -398v-275h-137z" />
    <glyph glyph-name="Zacute" unicode="&#x179;" horiz-adv-x="574" 
d="M60 0l-45 91l350 478h-317v119h453l48 -95l-350 -475h328v-118h-467zM258 717l-59 74l183 133l68 -92z" />
    <glyph glyph-name="zacute" unicode="&#x17a;" horiz-adv-x="440" 
d="M61 0l-41 83l226 266h-208v112h350l32 -88l-219 -261h212v-112h-352zM177 499l-64 69l173 146l75 -86z" />
    <glyph glyph-name="Zdotaccent" unicode="&#x17b;" horiz-adv-x="574" 
d="M60 0l-45 91l350 478h-317v119h453l48 -95l-350 -475h328v-118h-467zM289 732q-31 0 -53.5 22t-22.5 54t22.5 54.5t53.5 22.5q32 0 54.5 -22.5t22.5 -54.5t-22.5 -54t-54.5 -22z" />
    <glyph glyph-name="zdotaccent" unicode="&#x17c;" horiz-adv-x="440" 
d="M61 0l-41 83l226 266h-208v112h350l32 -88l-219 -261h212v-112h-352zM240 541q-32 0 -54 22.5t-22 53.5q0 32 22.5 54.5t53.5 22.5q32 0 54.5 -22.5t22.5 -54.5t-22.5 -54t-54.5 -22z" />
    <glyph glyph-name="Zcaron" unicode="&#x17d;" horiz-adv-x="574" 
d="M290 717l-182 135l78 76l104 -86l103 86l79 -76zM60 0l-45 91l350 478h-317v119h453l48 -95l-350 -475h328v-118h-467z" />
    <glyph glyph-name="zcaron" unicode="&#x17e;" horiz-adv-x="440" 
d="M236 496l-183 135l79 76l104 -86l103 86l78 -76zM61 0l-41 83l226 266h-208v112h350l32 -88l-219 -261h212v-112h-352z" />
    <glyph glyph-name="florin" unicode="&#x192;" horiz-adv-x="489" 
d="M138 -7q-59 0 -119 30l40 92q31 -16 63 -16q53 0 60 52l3 33h-75v96h84l2 20q9 79 52 123.5t120 44.5q59 0 107 -23l-37 -94q-25 12 -61 12q-24 0 -41 -18t-21 -52l-1 -13h95v-96h-104l-3 -40q-8 -69 -51.5 -110t-112.5 -41z" />
    <glyph glyph-name="uni01D3" unicode="&#x1d3;" horiz-adv-x="704" 
d="M354 -6q-77 0 -140.5 24t-106 79.5t-42.5 134.5v456h137v-448q0 -62 45 -94.5t110 -32.5q145 0 145 134v441h137v-455q0 -114 -83 -176.5t-202 -62.5zM350 717l-182 135l78 76l104 -86l103 86l79 -76z" />
    <glyph glyph-name="uni01D4" unicode="&#x1d4;" horiz-adv-x="536" 
d="M215 -6q-71 0 -115.5 36t-44.5 105v326h126v-303q0 -29 13.5 -41t42.5 -12q45 0 113 53v303h126v-461h-126v46q-60 -52 -135 -52zM265 496l-183 135l79 76l104 -86l103 86l78 -76z" />
    <glyph glyph-name="AEmacron" unicode="&#x1e2;" horiz-adv-x="890" 
d="M124 -5l-139 19l383 674h482v-119h-295v-161h273v-115h-273v-174h295v-119h-431v183h-197zM282 295h137v255zM471 742v105h265v-105h-265z" />
    <glyph glyph-name="aemacron" unicode="&#x1e3;" horiz-adv-x="728" 
d="M175 -7q-59 0 -102 33t-43 101q0 65 49.5 100t121.5 46l87 13v28q0 20 -17 33.5t-50 13.5q-57 0 -127 -36l-45 86q29 19 82.5 37.5t103.5 18.5q89 0 138 -44q55 44 137 44q91 0 141.5 -61.5t50.5 -154.5v-66h-285q7 -37 37 -60.5t67 -23.5q60 0 117 18l36 -93
q-67 -33 -157 -33q-116 0 -176 68q-32 -30 -76.5 -49t-89.5 -19zM196 91q16 0 47 8t45 16v92l-77 -14q-59 -11 -59 -58q0 -20 13.5 -32t30.5 -12zM415 270h164q0 41 -19 69.5t-59 28.5q-73 0 -86 -98zM242 541v105h265v-105h-265z" />
    <glyph glyph-name="AEacute" unicode="&#x1fc;" horiz-adv-x="890" 
d="M124 -5l-139 19l383 674h482v-119h-295v-161h273v-115h-273v-174h295v-119h-431v183h-197zM282 295h137v255zM545 717l-59 74l183 133l68 -92z" />
    <glyph glyph-name="aeacute" unicode="&#x1fd;" horiz-adv-x="728" 
d="M175 -7q-59 0 -102 33t-43 101q0 65 49.5 100t121.5 46l87 13v28q0 20 -17 33.5t-50 13.5q-57 0 -127 -36l-45 86q29 19 82.5 37.5t103.5 18.5q89 0 138 -44q55 44 137 44q91 0 141.5 -61.5t50.5 -154.5v-66h-285q7 -37 37 -60.5t67 -23.5q60 0 117 18l36 -93
q-67 -33 -157 -33q-116 0 -176 68q-32 -30 -76.5 -49t-89.5 -19zM196 91q16 0 47 8t45 16v92l-77 -14q-59 -11 -59 -58q0 -20 13.5 -32t30.5 -12zM415 270h164q0 41 -19 69.5t-59 28.5q-73 0 -86 -98zM339 499l-64 69l173 146l75 -86z" />
    <glyph glyph-name="Oslashacute" unicode="&#x1fe;" horiz-adv-x="773" 
d="M388 -6q-132 0 -223 68l-68 -67l-61 58l69 68q-70 90 -70 223q0 149 96 249t258 100q129 0 218 -70l71 70l61 -58l-72 -72q71 -93 71 -218q0 -156 -95 -253.5t-255 -97.5zM384 112q100 0 158.5 66t58.5 166q0 73 -28 126l-317 -316q53 -42 128 -42zM203 219l316 315
q-54 41 -132 41q-101 0 -157.5 -65.5t-56.5 -165.5q0 -70 30 -125zM337 717l-59 74l183 133l68 -92z" />
    <glyph glyph-name="oslashacute" unicode="&#x1ff;" horiz-adv-x="526" 
d="M73 -10l-60 57l50 51q-33 57 -33 131q0 60 23 112.5t78 89.5t134 37q85 0 142 -41l41 40l59 -60l-44 -43q33 -59 33 -134q0 -94 -59 -164.5t-172 -70.5q-84 0 -145 42zM264 105q49 0 76 31t27 94q0 16 -4 38l-155 -148q25 -15 56 -15zM164 194l154 147q-23 15 -53 15
q-40 0 -72.5 -30.5t-32.5 -96.5q0 -13 4 -35zM221 499l-64 69l173 146l75 -86z" />
    <glyph glyph-name="Scommaaccent" unicode="&#x218;" horiz-adv-x="504" 
d="M249 -6q-73 0 -126.5 18t-102.5 63l82 95q69 -57 142 -57q39 0 69.5 20.5t30.5 58.5q0 41 -28 64t-85 46q-30 13 -43 19t-39.5 20t-39.5 28t-28.5 34.5t-22 48t-6.5 60.5q0 80 67 131t149 51q114 0 206 -54l-61 -102q-20 14 -60.5 26t-77.5 12q-90 0 -90 -69
q0 -15 6 -27.5t13.5 -20.5t24 -18t27 -14.5t34.5 -14t34 -14.5q34 -15 58 -29.5t49 -38t38 -57.5t13 -77q0 -89 -71 -145.5t-162 -56.5zM165 -228l29 197h116l-58 -197h-87z" />
    <glyph glyph-name="scommaaccent" unicode="&#x219;" horiz-adv-x="397" 
d="M183 -7q-101 0 -170 51l54 90q56 -34 115 -34q65 0 65 32q0 5 -2 9t-7.5 8.5t-10 7.5t-14 8t-15.5 7.5t-19 7.5t-19 8q-57 23 -89 55t-32 89q0 66 50.5 100.5t114.5 34.5q104 0 166 -50l-59 -85q-49 32 -106 32q-47 0 -47 -28q0 -7 2.5 -12.5t10.5 -10.5t13 -7.5t19 -8
t20 -8.5q3 -1 19.5 -8t21 -9t19.5 -9t20.5 -11t17.5 -12.5t17 -15t13.5 -17t11.5 -21t6 -23.5t3 -28q0 -66 -54.5 -104t-134.5 -38zM111 -228l29 197h116l-58 -197h-87z" />
    <glyph glyph-name="uni021A" unicode="&#x21a;" horiz-adv-x="519" 
d="M193 0v570h-193v118h519v-118h-189v-570h-137zM182 -228l29 197h116l-58 -197h-87z" />
    <glyph glyph-name="uni021B" unicode="&#x21b;" horiz-adv-x="366" 
d="M222 -6q-67 0 -102.5 37.5t-35.5 102.5v221h-74v106h74v109h126v-109h119v-105h-119v-209q0 -42 48 -42q24 0 71 14l27 -100q-55 -25 -134 -25zM154 -228l29 197h116l-58 -197h-87z" />
    <glyph glyph-name="Ymacron" unicode="&#x232;" horiz-adv-x="620" 
d="M239 0v275l-243 398l154 20l163 -297l167 297l145 -20l-249 -398v-275h-137zM181 742v105h265v-105h-265z" />
    <glyph glyph-name="ymacron" unicode="&#x233;" horiz-adv-x="486" 
d="M66 -239q-12 0 -35.5 1.5t-28.5 1.5v113q32 -2 49 -2q77 0 108 79l14 38l-178 465l138 7l109 -327l121 327l128 -13l-218 -528q-67 -162 -207 -162zM110 541v105h265v-105h-265z" />
    <glyph glyph-name="dotlessj" unicode="&#x237;" horiz-adv-x="245" 
d="M20 -239l-75 87q70 35 93 79.5t23 107.5v426h126v-430q0 -87 -39.5 -158.5t-127.5 -111.5z" />
    <glyph glyph-name="circumflex" unicode="&#x2c6;" horiz-adv-x="408" 
d="M106 495l-79 76l183 135l181 -135l-78 -76l-103 86z" />
    <glyph glyph-name="caron" unicode="&#x2c7;" horiz-adv-x="408" 
d="M210 496l-183 135l79 76l104 -86l103 86l78 -76z" />
    <glyph glyph-name="breve" unicode="&#x2d8;" horiz-adv-x="419" 
d="M209 516q-72 0 -112.5 38.5t-55.5 85.5l84 34q34 -60 86 -60q58 0 83 60l80 -32q-46 -126 -165 -126z" />
    <glyph glyph-name="dotaccent" unicode="&#x2d9;" horiz-adv-x="301" 
d="M150 541q-32 0 -54 22.5t-22 53.5q0 32 22.5 54.5t53.5 22.5q32 0 54.5 -22.5t22.5 -54.5t-22.5 -54t-54.5 -22z" />
    <glyph glyph-name="ring" unicode="&#x2da;" horiz-adv-x="337" 
d="M169 511q-52 0 -88.5 32t-36.5 82t36.5 81.5t88.5 31.5t88 -31.5t36 -81.5t-36.5 -82t-87.5 -32zM169 580q16 0 28.5 11.5t12.5 33.5q0 21 -13 32.5t-28 11.5q-16 0 -28.5 -11.5t-12.5 -32.5t12.5 -33t28.5 -12z" />
    <glyph glyph-name="ogonek" unicode="&#x2db;" horiz-adv-x="229" 
d="M121 -203q-45 0 -77.5 28.5t-32.5 79.5q0 44 45 87.5t100 72.5l56 -45q-87 -53 -87 -101q0 -16 9 -25t24 -9q22 0 41 9l16 -78q-36 -19 -94 -19z" />
    <glyph glyph-name="tilde" unicode="&#x2dc;" horiz-adv-x="427" 
d="M379 601q-46 -77 -112 -77q-24 0 -61 15t-54 15q-30 0 -56 -28l-55 64q45 68 109 68q24 0 61 -15t52 -15q31 0 52 28z" />
    <glyph glyph-name="hungarumlaut" unicode="&#x2dd;" horiz-adv-x="566" 
d="M126 499l-76 56l144 175l89 -70zM328 499l-64 69l173 146l75 -86z" />
    <glyph glyph-name="Omega" unicode="&#x3a9;" horiz-adv-x="826" 
d="M50 0v112h89q-78 92 -78 232q0 149 96 249t258 100q158 0 253.5 -101.5t95.5 -246.5q0 -140 -76 -233h88v-112h-301v118q73 24 112.5 83t39.5 143q0 101 -56 166t-158 65q-101 0 -157.5 -65.5t-56.5 -165.5q0 -80 35 -140t103 -86v-118h-287z" />
    <glyph glyph-name="Omega" unicode="&#x2126;" horiz-adv-x="826" 
d="M50 0v112h89q-78 92 -78 232q0 149 96 249t258 100q158 0 253.5 -101.5t95.5 -246.5q0 -140 -76 -233h88v-112h-301v118q73 24 112.5 83t39.5 143q0 101 -56 166t-158 65q-101 0 -157.5 -65.5t-56.5 -165.5q0 -80 35 -140t103 -86v-118h-287z" />
    <glyph glyph-name="pi" unicode="&#x3c0;" horiz-adv-x="617" 
d="M488 -6q-142 0 -142 138v227h-127v-359h-120v359h-69v101h515v-101h-79v-227q0 -30 27 -30q15 0 31 4t24 8l9 5l30 -98q-43 -27 -99 -27z" />
    <glyph glyph-name="uni1E46" unicode="&#x1e46;" horiz-adv-x="765" 
d="M70 0v688h146l342 -450v450h137v-688h-134l-354 457v-457h-137zM399 -217q-31 0 -53.5 22.5t-22.5 53.5q0 32 22.5 54.5t53.5 22.5q32 0 54.5 -22.5t22.5 -54.5t-22.5 -54t-54.5 -22z" />
    <glyph glyph-name="uni1E47" unicode="&#x1e47;" horiz-adv-x="531" 
d="M60 0v461h126v-46q62 52 135 52q70 0 115 -36.5t45 -104.5v-326h-126v303q0 29 -13.5 41t-42.5 12q-52 0 -113 -49v-307h-126zM273 -218q-31 0 -53.5 22t-22.5 54t22.5 54.5t53.5 22.5q32 0 54.5 -22.5t22.5 -54.5t-22.5 -54t-54.5 -22z" />
    <glyph glyph-name="uni1E62" unicode="&#x1e62;" horiz-adv-x="504" 
d="M249 -6q-73 0 -126.5 18t-102.5 63l82 95q69 -57 142 -57q39 0 69.5 20.5t30.5 58.5q0 41 -28 64t-85 46q-30 13 -43 19t-39.5 20t-39.5 28t-28.5 34.5t-22 48t-6.5 60.5q0 80 67 131t149 51q114 0 206 -54l-61 -102q-20 14 -60.5 26t-77.5 12q-90 0 -90 -69
q0 -15 6 -27.5t13.5 -20.5t24 -18t27 -14.5t34.5 -14t34 -14.5q34 -15 58 -29.5t49 -38t38 -57.5t13 -77q0 -89 -71 -145.5t-162 -56.5zM257 -219q-31 0 -53.5 22.5t-22.5 53.5q0 32 22.5 54.5t53.5 22.5q32 0 54.5 -22.5t22.5 -54.5t-22.5 -54t-54.5 -22z" />
    <glyph glyph-name="uni1E63" unicode="&#x1e63;" horiz-adv-x="397" 
d="M183 -7q-101 0 -170 51l54 90q56 -34 115 -34q65 0 65 32q0 5 -2 9t-7.5 8.5t-10 7.5t-14 8t-15.5 7.5t-19 7.5t-19 8q-57 23 -89 55t-32 89q0 66 50.5 100.5t114.5 34.5q104 0 166 -50l-59 -85q-49 32 -106 32q-47 0 -47 -28q0 -7 2.5 -12.5t10.5 -10.5t13 -7.5t19 -8
t20 -8.5q3 -1 19.5 -8t21 -9t19.5 -9t20.5 -11t17.5 -12.5t17 -15t13.5 -17t11.5 -21t6 -23.5t3 -28q0 -66 -54.5 -104t-134.5 -38zM190 -221q-32 0 -54 22.5t-22 53.5q0 32 22.5 54.5t53.5 22.5q32 0 54.5 -22.5t22.5 -54.5t-22.5 -54t-54.5 -22z" />
    <glyph glyph-name="Wgrave" unicode="&#x1e80;" horiz-adv-x="947" 
d="M175 0l-176 683l149 13l116 -554l133 546h165l121 -546l128 552l137 -10l-189 -684h-159l-123 531l-139 -531h-163zM562 719l-192 115l68 92l183 -133z" />
    <glyph glyph-name="wgrave" unicode="&#x1e81;" horiz-adv-x="765" 
d="M160 0l-167 454l130 13l107 -330l97 324h115l98 -324l104 330l127 -10l-173 -457h-127l-90 291l-92 -291h-129zM439 499l-184 129l75 86l173 -146z" />
    <glyph glyph-name="Wacute" unicode="&#x1e82;" horiz-adv-x="947" 
d="M175 0l-176 683l149 13l116 -554l133 546h165l121 -546l128 552l137 -10l-189 -684h-159l-123 531l-139 -531h-163zM408 717l-59 74l183 133l68 -92z" />
    <glyph glyph-name="wacute" unicode="&#x1e83;" horiz-adv-x="765" 
d="M160 0l-167 454l130 13l107 -330l97 324h115l98 -324l104 330l127 -10l-173 -457h-127l-90 291l-92 -291h-129zM333 499l-64 69l173 146l75 -86z" />
    <glyph glyph-name="Wdieresis" unicode="&#x1e84;" horiz-adv-x="947" 
d="M175 0l-176 683l149 13l116 -554l133 546h165l121 -546l128 552l137 -10l-189 -684h-159l-123 531l-139 -531h-163zM366 724q-32 0 -54 22t-22 54t22.5 54.5t53.5 22.5q32 0 54.5 -22.5t22.5 -54.5t-22.5 -54t-54.5 -22zM587 724q-31 0 -53.5 22t-22.5 54t22.5 54.5
t53.5 22.5q32 0 54.5 -22.5t22.5 -54.5t-22.5 -54t-54.5 -22z" />
    <glyph glyph-name="wdieresis" unicode="&#x1e85;" horiz-adv-x="765" 
d="M160 0l-167 454l130 13l107 -330l97 324h115l98 -324l104 330l127 -10l-173 -457h-127l-90 291l-92 -291h-129zM269 529q-31 0 -53.5 22.5t-22.5 53.5q0 32 22.5 54.5t53.5 22.5q32 0 54.5 -22.5t22.5 -54.5t-22.5 -54t-54.5 -22zM490 529q-32 0 -54 22.5t-22 53.5
q0 32 22.5 54.5t53.5 22.5q32 0 54.5 -22.5t22.5 -54.5t-22.5 -54t-54.5 -22z" />
    <glyph glyph-name="uni1EBC" unicode="&#x1ebc;" horiz-adv-x="542" 
d="M70 0v688h432v-118h-296v-161h274v-116h-274v-174h296v-119h-432zM447 795q-28 -39 -52.5 -58t-59.5 -19q-24 0 -61 15t-54 15q-30 0 -56 -28l-55 64q45 68 109 68q24 0 61 -15t52 -15q31 0 52 28z" />
    <glyph glyph-name="uni1EBD" unicode="&#x1ebd;" horiz-adv-x="470" 
d="M420 601q-46 -77 -112 -77q-24 0 -61 15t-54 15q-30 0 -56 -28l-55 64q45 68 109 68q24 0 61 -15t52 -15q31 0 52 28zM259 -7q-111 0 -170 61.5t-59 172.5q0 104 60 172t162 68q91 0 141.5 -61.5t50.5 -154.5v-66h-285q7 -37 37 -60.5t67 -23.5q60 0 117 18l36 -93
q-67 -33 -157 -33zM157 270h164q0 41 -19 70.5t-59 29.5t-60.5 -29.5t-25.5 -70.5z" />
    <glyph glyph-name="Ygrave" unicode="&#x1ef2;" horiz-adv-x="620" 
d="M239 0v275l-243 398l154 20l163 -297l167 297l145 -20l-249 -398v-275h-137zM351 719l-192 115l68 92l183 -133z" />
    <glyph glyph-name="ygrave" unicode="&#x1ef3;" horiz-adv-x="486" 
d="M66 -239q-12 0 -35.5 1.5t-28.5 1.5v113q32 -2 49 -2q77 0 108 79l14 38l-178 465l138 7l109 -327l121 327l128 -13l-218 -528q-67 -162 -207 -162zM284 499l-184 129l75 86l173 -146z" />
    <glyph glyph-name="uni2012" unicode="&#x2012;" horiz-adv-x="464" 
d="M-20 292v103h504v-103h-504z" />
    <glyph glyph-name="endash" unicode="&#x2013;" 
d="M30 178v103h440v-103h-440z" />
    <glyph glyph-name="emdash" unicode="&#x2014;" horiz-adv-x="770" 
d="M30 178v103h710v-103h-710z" />
    <glyph glyph-name="quoteleft" unicode="&#x2018;" horiz-adv-x="248" 
d="M30 517l85 207h103l-72 -207h-116z" />
    <glyph glyph-name="quoteright" unicode="&#x2019;" horiz-adv-x="248" 
d="M30 518l72 207h116l-85 -207h-103z" />
    <glyph glyph-name="quotesinglbase" unicode="&#x201a;" horiz-adv-x="248" 
d="M30 -112l72 207h116l-85 -207h-103z" />
    <glyph glyph-name="quotedblleft" unicode="&#x201c;" horiz-adv-x="410" 
d="M30 517l85 207h103l-72 -207h-116zM192 517l85 207h103l-72 -207h-116z" />
    <glyph glyph-name="quotedblright" unicode="&#x201d;" horiz-adv-x="410" 
d="M30 518l72 207h116l-85 -207h-103zM192 518l72 207h116l-85 -207h-103z" />
    <glyph glyph-name="quotedblbase" unicode="&#x201e;" horiz-adv-x="410" 
d="M30 -113l72 207h116l-85 -207h-103zM192 -113l72 207h116l-85 -207h-103z" />
    <glyph glyph-name="dagger" unicode="&#x2020;" horiz-adv-x="523" 
d="M196 -114v483h-186v107h185v212h126v-212h192v-107h-192v-483h-125z" />
    <glyph glyph-name="daggerdbl" unicode="&#x2021;" horiz-adv-x="523" 
d="M196 -114v273h-186v107h186v103h-186v107h185v212h126v-212h192v-107h-192v-103h192v-107h-192v-273h-125z" />
    <glyph glyph-name="bullet" unicode="&#x2022;" horiz-adv-x="486" 
d="M243 149q-61 0 -104 43t-43 103q0 61 43 104t104 43t104 -43t43 -104q0 -60 -43 -103t-104 -43z" />
    <glyph glyph-name="ellipsis" unicode="&#x2026;" horiz-adv-x="800" 
d="M144 -6q-33 0 -56.5 23.5t-23.5 56.5t23.5 56t56.5 23t56 -23t23 -56t-23 -56.5t-56 -23.5zM400 -6q-33 0 -56.5 23.5t-23.5 56.5t23.5 56t56.5 23t56.5 -23t23.5 -56t-23.5 -56.5t-56.5 -23.5zM657 -6q-33 0 -56.5 23.5t-23.5 56.5t23.5 56t56.5 23t56 -23t23 -56
t-23 -56.5t-56 -23.5z" />
    <glyph glyph-name="perthousand" unicode="&#x2030;" horiz-adv-x="1239" 
d="M201 337q-76 0 -123.5 47.5t-47.5 131.5q0 81 52 129t131 48q77 0 124.5 -47.5t47.5 -130.5q0 -82 -53.5 -130t-130.5 -48zM206 441q24 0 41 18t17 58t-17.5 57.5t-38.5 17.5q-22 0 -39.5 -18t-17.5 -57q0 -76 55 -76zM639 -7q-76 0 -123.5 47.5t-47.5 131.5q0 81 52 129
t131 48q77 0 124.5 -47.5t47.5 -130.5q0 -82 -53.5 -130t-130.5 -48zM644 97q24 0 41 18t17 58t-17 57.5t-39 17.5t-39.5 -18t-17.5 -57q0 -40 16 -58t39 -18zM1024 -7q-76 0 -123 47.5t-47 131.5q0 81 52 129t131 48q77 0 124.5 -47.5t47.5 -130.5q0 -82 -54 -130t-131 -48
zM1030 97q24 0 41 18t17 58t-17.5 57.5t-38.5 17.5q-22 0 -39.5 -18t-17.5 -57q0 -76 55 -76zM314 -42l-110 51l333 723l110 -52z" />
    <glyph glyph-name="guilsinglleft" unicode="&#x2039;" horiz-adv-x="281" 
d="M165 25l-135 189l135 189l86 -55l-97 -134l97 -132z" />
    <glyph glyph-name="guilsinglright" unicode="&#x203a;" horiz-adv-x="281" 
d="M116 25l-86 57l97 132l-97 134l86 55l135 -189z" />
    <glyph glyph-name="fraction" unicode="&#x2044;" horiz-adv-x="146" 
d="M-43 -39l-95 39l365 722l94 -39z" />
    <glyph glyph-name="zerosuperior" unicode="&#x2070;" horiz-adv-x="359" 
d="M180 332q-72 0 -107.5 54t-35.5 129q0 83 38 132.5t105 49.5q65 0 102.5 -49.5t37.5 -132.5q0 -84 -38 -133.5t-102 -49.5zM179 419q20 0 32.5 25.5t12.5 70.5t-12 70t-32 25q-45 0 -45 -95q0 -33 10 -64.5t34 -31.5z" />
    <glyph glyph-name="foursuperior" unicode="&#x2074;" horiz-adv-x="314" 
d="M147 335v76h-113l-25 61l123 223h110v-196h38v-88h-38v-76h-95zM97 499h50v98z" />
    <glyph glyph-name="fivesuperior" unicode="&#x2075;" horiz-adv-x="352" 
d="M158 331q-60 0 -111 39l41 72q40 -24 73 -24q40 0 40 37q0 15 -14.5 25t-31.5 10l-58 -4l-22 32l25 177h190v-87h-123l-5 -36h12q60 0 94 -29t34 -87q0 -61 -41.5 -93t-102.5 -32z" />
    <glyph glyph-name="sixsuperior" unicode="&#x2076;" horiz-adv-x="313" 
d="M156 329q-131 0 -131 135q0 80 50 140.5t129 93.5l48 -71q-78 -40 -104 -69q15 6 32 6q41 0 71.5 -31.5t30.5 -80.5q0 -54 -36 -88.5t-90 -34.5zM155 413q15 0 24 10t9 27q0 40 -40 40q-17 0 -28 -5q-2 -6 -2 -23q0 -49 37 -49z" />
    <glyph glyph-name="sevensuperior" unicode="&#x2077;" horiz-adv-x="293" 
d="M143 329l-91 26l132 253h-142v87h208l33 -51z" />
    <glyph glyph-name="eightsuperior" unicode="&#x2078;" horiz-adv-x="335" 
d="M166 331q-53 0 -90.5 29.5t-37.5 80.5t53 82q-45 30 -45 74q0 40 31.5 70t90.5 30q57 0 88 -28.5t31 -71.5q0 -34 -42 -74q50 -35 50 -80q0 -51 -36.5 -81.5t-92.5 -30.5zM167 416q14 0 23 7t9 18q0 31 -34 48q-32 -14 -32 -45q0 -11 10 -19.5t24 -8.5zM172 553
q19 17 19 36q0 24 -23 24q-27 0 -27 -21q0 -27 31 -39z" />
    <glyph glyph-name="ninesuperior" unicode="&#x2079;" horiz-adv-x="336" 
d="M116 328l-48 71q78 40 104 69q-15 -6 -32 -6q-41 0 -71.5 31.5t-30.5 80.5q0 54 36 88.5t90 34.5q131 0 131 -135q0 -80 -50 -140.5t-129 -93.5zM172 536q17 0 28 5q2 6 2 23q0 49 -37 49q-15 0 -24 -10t-9 -27q0 -40 40 -40z" />
    <glyph glyph-name="plussuperior" unicode="&#x207a;" horiz-adv-x="306" 
d="M110 384v85h-85v75h85v85h85v-85h86v-75h-86v-85h-85z" />
    <glyph glyph-name="minussuperior" unicode="&#x207b;" horiz-adv-x="306" 
d="M25 469v75h256v-75h-256z" />
    <glyph glyph-name="equalsuperior" unicode="&#x207c;" horiz-adv-x="304" 
d="M25 420v76h254v-76h-254zM25 518v76h254v-76h-254z" />
    <glyph glyph-name="parenleftsuperior" unicode="&#x207d;" horiz-adv-x="190" 
d="M131 265q-45 42 -73.5 103.5t-28.5 121.5q0 63 30 125t73 99l53 -54q-31 -30 -52 -77t-21 -93q0 -39 20 -88.5t53 -78.5z" />
    <glyph glyph-name="parenrightsuperior" unicode="&#x207e;" horiz-adv-x="190" 
d="M59 265l-54 58q34 28 54 78t20 89q0 46 -21 93t-53 77l54 54q42 -36 72 -98t30 -126q0 -60 -28.5 -121.5t-73.5 -103.5z" />
    <glyph glyph-name="zeroinferior" unicode="&#x2080;" horiz-adv-x="359" 
d="M180 -3q-72 0 -107.5 54t-35.5 129q0 83 38 132.5t105 49.5q65 0 102.5 -49.5t37.5 -132.5q0 -84 -38 -133.5t-102 -49.5zM179 84q20 0 32.5 25.5t12.5 70.5t-12 70t-32 25q-45 0 -45 -95q0 -33 10 -64.5t34 -31.5z" />
    <glyph glyph-name="oneinferior" unicode="&#x2081;" horiz-adv-x="262" 
d="M109 0v240l-54 -43l-54 68l122 95h81v-360h-95z" />
    <glyph glyph-name="twoinferior" unicode="&#x2082;" horiz-adv-x="350" 
d="M65 0l-26 72q40 30 61.5 46.5t49.5 42t40.5 46t12.5 38.5q0 30 -41 30q-33 0 -64 -28l-54 67q53 48 130 48q58 0 92.5 -28.5t34.5 -83.5q-3 -75 -130 -162h127v-88h-233z" />
    <glyph glyph-name="threeinferior" unicode="&#x2083;" horiz-adv-x="330" 
d="M154 -4q-64 0 -120 37l38 72q40 -22 80 -22q17 0 29 9t12 24q0 37 -43 37h-39v62h40q16 0 25 10.5t9 23.5q0 28 -40 28q-31 0 -62 -17l-33 74q51 28 110 28q50 0 85.5 -25.5t35.5 -74.5q0 -39 -41 -72q51 -21 51 -75q0 -55 -40 -87t-97 -32z" />
    <glyph glyph-name="fourinferior" unicode="&#x2084;" horiz-adv-x="314" 
d="M147 0v76h-113l-25 61l123 223h110v-196h38v-88h-38v-76h-95zM97 164h50v98z" />
    <glyph glyph-name="fiveinferior" unicode="&#x2085;" horiz-adv-x="352" 
d="M158 -4q-60 0 -111 39l41 72q40 -24 73 -24q40 0 40 37q0 15 -14.5 25t-31.5 10l-58 -4l-22 32l25 177h190v-87h-123l-5 -36h12q60 0 94 -29t34 -87q0 -61 -41.5 -93t-102.5 -32z" />
    <glyph glyph-name="sixinferior" unicode="&#x2086;" horiz-adv-x="313" 
d="M156 -6q-131 0 -131 135q0 80 50 140.5t129 93.5l48 -71q-78 -40 -104 -69q15 6 32 6q41 0 71.5 -31.5t30.5 -80.5q0 -54 -36 -88.5t-90 -34.5zM155 78q15 0 24 10t9 27q0 40 -40 40q-17 0 -28 -5q-2 -6 -2 -23q0 -49 37 -49z" />
    <glyph glyph-name="seveninferior" unicode="&#x2087;" horiz-adv-x="293" 
d="M143 -6l-91 26l132 253h-142v87h208l33 -51z" />
    <glyph glyph-name="eightinferior" unicode="&#x2088;" horiz-adv-x="335" 
d="M166 -4q-53 0 -90.5 29.5t-37.5 80.5t53 82q-45 30 -45 74q0 40 31.5 70t90.5 30q57 0 88 -28.5t31 -71.5q0 -34 -42 -74q50 -35 50 -80q0 -51 -36.5 -81.5t-92.5 -30.5zM167 81q14 0 23 7t9 18q0 31 -34 48q-32 -14 -32 -45q0 -11 10 -19.5t24 -8.5zM172 218
q19 17 19 36q0 24 -23 24q-27 0 -27 -21q0 -27 31 -39z" />
    <glyph glyph-name="nineinferior" unicode="&#x2089;" horiz-adv-x="336" 
d="M116 -7l-48 71q78 40 104 69q-15 -6 -32 -6q-41 0 -71.5 31.5t-30.5 80.5q0 54 36 88.5t90 34.5q131 0 131 -135q0 -80 -50 -140.5t-129 -93.5zM172 201q17 0 28 5q2 6 2 23q0 49 -37 49q-15 0 -24 -10t-9 -27q0 -40 40 -40z" />
    <glyph glyph-name="parenleft.inferior" unicode="&#x208d;" horiz-adv-x="190" 
d="M131 -70q-45 42 -73.5 103.5t-28.5 121.5q0 63 30 125t73 99l53 -54q-31 -30 -52 -77t-21 -93q0 -39 20 -88.5t53 -78.5z" />
    <glyph glyph-name="parenright.inferior" unicode="&#x208e;" horiz-adv-x="190" 
d="M59 -70l-54 58q34 28 54 78t20 89q0 46 -21 93t-53 77l54 54q42 -36 72 -98t30 -126q0 -60 -28.5 -121.5t-73.5 -103.5z" />
    <glyph glyph-name="colonsign" unicode="&#x20a1;" horiz-adv-x="654" 
d="M181 11l-95 39l28 56q-79 91 -79 239q0 154 98.5 251.5t252.5 97.5q17 0 25 -1l40 79l94 -39l-30 -59q23 -9 45 -21l30 59l94 -39l-283 -560q81 2 129 27l54 -97q-74 -49 -193 -49q-25 0 -48 3l-23 -46l-95 39l15 29q-24 9 -45 21zM255 157q17 -14 42 -25l210 417
q-17 11 -46 18zM172 346q0 -53 16 -95l162 322q-82 -11 -130 -75t-48 -152z" />
    <glyph glyph-name="cruzeiro" unicode="&#x20a2;" horiz-adv-x="617" 
d="M391 -6q-168 0 -262 96t-94 255q0 154 98.5 251.5t252.5 97.5q111 0 184 -47l-59 -100q-44 28 -131 28q-95 0 -151.5 -66.5t-56.5 -162.5q0 -77 35.5 -135t98.5 -83v293h126v-57q40 43 57 53q23 13 54 13q30 0 74 -19l-54 -114q-18 13 -56 13q-41 0 -75 -65v-131
q58 5 98 26l54 -97q-74 -49 -193 -49z" />
    <glyph glyph-name="franc" unicode="&#x20a3;" horiz-adv-x="623" 
d="M70 0v688h422v-118h-286v-191h111v62h126v-57q25 33 49.5 49.5t61.5 16.5q30 0 74 -19l-54 -114q-18 13 -56 13q-17 0 -39.5 -20.5t-35.5 -44.5v-265h-126v262h-111v-262h-136z" />
    <glyph glyph-name="lira" unicode="&#x20a4;" horiz-adv-x="540" 
d="M62 0v90q69 41 89 95q2 6 7 25h-97v96h98q-2 17 -8 53h-90v96h77q-1 9 -1 28q0 94 61 152t155 58q74 0 145 -37l-44 -98q-49 23 -99 23q-40 0 -64.5 -27t-24.5 -67q0 -22 1 -32h159v-96h-149q4 -36 5 -53h144v-96h-148q-5 -21 -7 -28q-11 -35 -31 -70h270v-112h-448z" />
    <glyph glyph-name="mill" unicode="&#x20a5;" horiz-adv-x="764" 
d="M239 -142l-95 39l180 356v58q0 44 -45 44q-57 0 -93 -34v-321h-126v461h126v-44q55 50 130 50q59 0 96 -40l97 192l94 -39l-58 -115q20 2 32 2q64 0 100.5 -42t36.5 -106v-319h-126v311q0 45 -43 45q-32 0 -62 -14l-33 -66v-276h-126v26z" />
    <glyph glyph-name="naira" unicode="&#x20a6;" horiz-adv-x="765" 
d="M12 365v53h58v270h146l205 -270h137v270h137v-270h60v-53h-60v-38h60v-53h-60v-274h-134l-213 274h-141v-274h-137v274h-58v53h58v38h-58zM207 365v-38h100l-29 38h-71zM461 365l29 -38h68v38h-97zM207 457v-39h30zM530 274l28 -36v36h-28z" />
    <glyph glyph-name="pesetas" unicode="&#x20a7;" horiz-adv-x="1290" 
d="M70 0v688h201q117 0 191.5 -52.5t74.5 -156.5q0 -62 -22 -109t-60.5 -73.5t-84.5 -39.5t-99 -13h-65v-244h-136zM206 356h58q56 0 95.5 29t39.5 89q0 96 -133 96h-60v-214zM762 -6q-67 0 -102.5 37.5t-35.5 102.5v221h-74v106h74v109h126v-109h119v-105h-119v-209
q0 -42 48 -42q24 0 71 14l27 -100q-55 -25 -134 -25zM1076 -7q-101 0 -170 51l54 90q56 -34 115 -34q65 0 65 32q0 5 -2 9t-7.5 8.5t-10 7.5t-14 8t-15.5 7.5t-19 7.5t-19 8q-57 23 -89 55t-32 89q0 66 50.5 100.5t114.5 34.5q104 0 166 -50l-59 -85q-49 32 -106 32
q-47 0 -47 -28q0 -7 2.5 -12.5t10.5 -10.5t13 -7.5t19 -8t20 -8.5q3 -1 19.5 -8t21 -9t19.5 -9t20.5 -11t17.5 -12.5t17 -15t13.5 -17t11.5 -21t6 -23.5t3 -28q0 -66 -54.5 -104t-134.5 -38z" />
    <glyph glyph-name="rupee" unicode="&#x20a8;" horiz-adv-x="899" 
d="M685 -10q-41 0 -68.5 3t-69 17.5t-78.5 42t-87 79t-106 125.5h-70v-257h-136v688h203q117 0 189.5 -51.5t72.5 -153.5q0 -71 -28 -117t-90 -81q99 -117 156.5 -152.5t110.5 -35.5q65 0 65 35q0 5 -2 9t-7.5 8.5t-10 7.5t-14 8t-15.5 7.5t-19 7.5t-19 8q-57 23 -89 55
t-32 89q0 66 50.5 100.5t114.5 34.5q104 0 166 -50l-59 -85q-49 32 -106 32q-47 0 -47 -28q0 -7 2.5 -12.5t10.5 -10.5t13 -7.5t19 -8t20 -8.5q3 -1 19.5 -8t21 -9t19.5 -9t20.5 -11t17.5 -12.5t17 -15t13.5 -17t11.5 -21t6 -23.5t3 -28q0 -66 -54.5 -105.5t-134.5 -39.5z
M206 374h57q134 0 134 99q0 96 -137 96h-54v-195z" />
    <glyph glyph-name="won" unicode="&#x20a9;" horiz-adv-x="953" 
d="M-2 374v73h65l-63 230l148 17l56 -247h139l54 242h165l58 -242h138l53 247l136 -17l-61 -230h69v-73h-88l-15 -57h103v-73h-122l-64 -244h-159l-61 244h-142l-59 -244h-163l-67 244h-120v73h100l-15 57h-85zM221 374l13 -57h79l13 57h-105zM637 374l14 -57h79l12 57h-105
zM439 374l-14 -57h106l-15 57h-77zM668 244l25 -102l22 102h-47zM250 244l24 -102l23 102h-47zM477 531l-21 -84h42z" />
    <glyph glyph-name="sheqel" unicode="&#x20aa;" horiz-adv-x="899" 
d="M70 0v688h280q159 0 214 -63.5t55 -225.5v-158h-139v152q0 42 -1.5 66t-11 43.5t-19 28t-37.5 14t-53 6t-78 0.5h-72v-551h-138zM280 0v461h138v-324h72q53 0 78 0.5t53 6t37.5 14t19 28t11 43.5t1.5 66v393h139v-399q0 -162 -55 -225.5t-214 -63.5h-280z" />
    <glyph glyph-name="dong" unicode="&#x20ab;" horiz-adv-x="570" 
d="M249 121q-92 0 -150.5 56t-58.5 144q0 94 59.5 149t145.5 55q58 0 113 -35v81h-117v83h117v67h126v-67h56v-83h-56v-443h-126v34q-50 -41 -109 -41zM255 233q62 0 103 45v103q-46 33 -101 33q-91 0 -91 -85q0 -43 24 -69.5t65 -26.5zM38 0v93h502v-93h-502z" />
    <glyph glyph-name="Euro" unicode="&#x20ac;" horiz-adv-x="542" 
d="M299 -6q-126 0 -192.5 63.5t-66.5 170.5q0 103 75.5 171.5t183.5 68.5q57 0 110.5 -21.5t85.5 -58.5l-106 -74q-13 16 -39 25.5t-49 9.5q-82 0 -108 -54h142v-53h-156v-23h156v-53h-143q28 -55 106 -55q28 0 57.5 11.5t46.5 33.5l103 -64q-74 -98 -206 -98z" />
    <glyph glyph-name="uni20AD" unicode="&#x20ad;" horiz-adv-x="650" 
d="M-2 326v73h72v289h137v-289h28l240 296l157 -20l-239 -276h189v-73h-183l250 -305l-156 -29l-262 334h-24v-326h-137v326h-72z" />
    <glyph glyph-name="uni20AE" unicode="&#x20ae;" horiz-adv-x="519" 
d="M53 227l-29 48l169 103v192h-193v118h519v-118h-189v-108l81 50l29 -47l-110 -68v-77l149 91l29 -47l-178 -109v-255h-137v172l-72 -44l-29 47l101 61v77z" />
    <glyph glyph-name="uni20B1" unicode="&#x20b1;" horiz-adv-x="581" 
d="M12 485v53h58v150h201q90 0 162.5 -38.5t95.5 -111.5h52v-53h-45q0 -1 0.5 -3t0.5 -3q0 -12 -2 -32h46v-53h-57q-25 -76 -94 -113t-159 -37h-65v-244h-136v394h-58v53h58v38h-58zM399 474q0 7 -1 11h-192v-38h190q3 12 3 27zM206 356h58q68 0 105 38h-163v-38zM206 570
v-32h167q-36 32 -107 32h-60z" />
    <glyph glyph-name="afii61289" unicode="&#x2113;" horiz-adv-x="453" 
d="M243 -12q-85 0 -122.5 38.5t-37.5 121.5v45q-5 -3 -45 -26l-38 68q30 20 83 61v191q0 122 60.5 182.5t139.5 60.5q60 0 105 -36.5t45 -101.5q0 -151 -224 -317v-74q0 -74 13 -101.5t47 -27.5q42 0 71 37l48 -52q-16 -27 -60 -48t-85 -21zM209 405q101 103 101 175
q0 71 -49 71q-28 0 -40 -26t-12 -89v-131z" />
    <glyph glyph-name="afii61352" unicode="&#x2116;" horiz-adv-x="955" 
d="M776 187q-62 0 -100 38.5t-38 106.5q0 66 42.5 104.5t106.5 38.5q62 0 100 -38t38 -106q0 -66 -43.5 -105t-105.5 -39zM780 271q20 0 33.5 15t13.5 47t-14 46t-31 14q-18 0 -32 -14t-14 -46q0 -62 44 -62zM70 0v461h146l222 -278v278h137v-461h-134l-234 280v-280h-137z
M646 84v74h275v-74h-275z" />
    <glyph glyph-name="uni2117" unicode="&#x2117;" horiz-adv-x="767" 
d="M384 -6q-146 0 -250 103t-104 247t104.5 246.5t249.5 102.5t249 -102.5t104 -246.5t-104 -247t-249 -103zM384 64q116 0 194.5 82t78.5 198q0 115 -78.5 197t-194.5 82t-195 -81.5t-79 -197.5t79 -198t195 -82zM279 149v385h117q64 0 106.5 -33t42.5 -92
q0 -61 -43.5 -99.5t-108.5 -38.5h-32v-122h-82zM361 342h29q28 0 50.5 16t22.5 46t-23 45t-52 15h-27v-122z" />
    <glyph glyph-name="servicemark" unicode="&#x2120;" horiz-adv-x="899" 
d="M198 273q-85 0 -143 53l55 63q43 -36 85 -36q22 0 38 11t16 31t-17 33.5t-49 27.5q-26 13 -38.5 20.5t-31.5 23t-27.5 36.5t-8.5 49q0 50 41 81t91 31q69 0 129 -34l-41 -69q-42 23 -89 23q-17 0 -30 -10t-13 -25q0 -13 10.5 -23.5t20.5 -16t34 -16.5q26 -11 40 -19
t33.5 -23t28.5 -37t9 -50q0 -55 -44 -89.5t-99 -34.5zM396 288l27 400h92l118 -249l130 249h86l20 -400h-95l-10 209l-94 -184h-78l-87 183l-14 -208h-95z" />
    <glyph glyph-name="trademark" unicode="&#x2122;" horiz-adv-x="899" 
d="M396 288l27 400h92l118 -249l130 249h86l20 -400h-95l-10 209l-94 -184h-78l-87 183l-14 -208h-95zM160 288v316h-130v84h354v-84h-127v-316h-97z" />
    <glyph glyph-name="estimated" unicode="&#x212e;" horiz-adv-x="519" 
d="M267 -6q-101 0 -166.5 61t-65.5 167q0 107 65.5 177.5t172.5 70.5q94 0 152.5 -54t58.5 -149v-51h-313v-46q0 -49 25 -82t77 -33q54 0 85.5 16.5t63.5 58.5l41 -35q-68 -101 -196 -101zM171 274h177v15q0 55 -24 85.5t-61 30.5q-92 0 -92 -116v-15z" />
    <glyph glyph-name="onethird" unicode="&#x2153;" horiz-adv-x="748" 
d="M227 -39l-95 39l365 722l94 -39zM591 -4q-64 0 -120 37l38 72q40 -22 80 -22q17 0 29 9t12 24q0 37 -43 37h-39v62h40q16 0 25 10.5t9 23.5q0 28 -40 28q-31 0 -62 -17l-33 74q51 28 110 28q50 0 85.5 -25.5t35.5 -74.5q0 -39 -41 -72q51 -21 51 -75q0 -55 -40 -87
t-97 -32zM118 335v240l-54 -43l-54 68l122 95h81v-360h-95z" />
    <glyph glyph-name="twothirds" unicode="&#x2154;" horiz-adv-x="756" 
d="M36 335l-26 72q40 30 61.5 46.5t49.5 42t40.5 46t12.5 38.5q0 30 -41 30q-33 0 -64 -28l-54 67q53 48 130 48q58 0 92.5 -28.5t34.5 -83.5q-3 -75 -130 -162h127v-88h-233zM245 -39l-95 39l365 722l94 -39zM599 -4q-64 0 -120 37l38 72q40 -22 80 -22q17 0 29 9t12 24
q0 37 -43 37h-39v62h40q16 0 25 10.5t9 23.5q0 28 -40 28q-31 0 -62 -17l-33 74q51 28 110 28q50 0 85.5 -25.5t35.5 -74.5q0 -39 -41 -72q51 -21 51 -75q0 -55 -40 -87t-97 -32z" />
    <glyph glyph-name="uni215B" unicode="&#x215b;" horiz-adv-x="752" 
d="M227 -39l-95 39l365 722l94 -39zM603 -4q-53 0 -90.5 29.5t-37.5 80.5t53 82q-45 30 -45 74q0 40 31.5 70t90.5 30q57 0 88 -28.5t31 -71.5q0 -34 -42 -74q50 -35 50 -80q0 -51 -36.5 -81.5t-92.5 -30.5zM118 335v240l-54 -43l-54 68l122 95h81v-360h-95zM604 81
q14 0 23 7t9 18q0 31 -34 48q-32 -14 -32 -45q0 -11 10 -19.5t24 -8.5zM609 218q19 17 19 36q0 24 -23 24q-27 0 -27 -21q0 -27 31 -39z" />
    <glyph glyph-name="arrowleft" unicode="&#x2190;" horiz-adv-x="744" 
d="M277 86l-257 257l257 257l74 -74l-132 -132h505v-103h-504l131 -131z" />
    <glyph glyph-name="arrowup" unicode="&#x2191;" horiz-adv-x="744" 
d="M320 -9v504l-131 -131l-74 74l257 257l257 -257l-74 -74l-132 132v-505h-103z" />
    <glyph glyph-name="arrowright" unicode="&#x2192;" horiz-adv-x="744" 
d="M467 86l-74 74l132 132h-505v103h504l-131 131l74 74l257 -257z" />
    <glyph glyph-name="arrowdown" unicode="&#x2193;" horiz-adv-x="744" 
d="M372 -9l-257 257l74 74l132 -132v505h103v-504l131 131l74 -74z" />
    <glyph glyph-name="uni2196" unicode="&#x2196;" horiz-adv-x="744" 
d="M567 65l-357 356v-185h-104l-1 364l364 -1v-104h-186l357 -358z" />
    <glyph glyph-name="uni2197" unicode="&#x2197;" horiz-adv-x="744" 
d="M159 58l-73 73l357 356h-186v105h364v-364h-105v187z" />
    <glyph glyph-name="uni2198" unicode="&#x2198;" horiz-adv-x="744" 
d="M257 94v105h187l-357 357l73 73l356 -357v186h105v-364h-364z" />
    <glyph glyph-name="uni2199" unicode="&#x2199;" horiz-adv-x="744" 
d="M469 87l-365 1v363h105v-186l357 357l74 -74l-357 -356h185z" />
    <glyph glyph-name="partialdiff" unicode="&#x2202;" horiz-adv-x="543" 
d="M258 -6q-99 0 -163.5 59t-64.5 158q0 104 68 163t158 59q66 0 114 -19q-25 71 -60.5 109t-116.5 88l74 94q246 -149 246 -377q0 -50 -6 -93.5t-23 -89t-44.5 -78t-74 -53t-107.5 -20.5zM260 105q115 0 124 177q-72 38 -121 38q-55 0 -82 -31t-27 -76q0 -35 12 -58.5
t31.5 -33.5t34 -13t28.5 -3z" />
    <glyph glyph-name="Delta" unicode="&#x2206;" horiz-adv-x="649" 
d="M5 0l278 689h93l268 -689h-639zM163 105h321l-159 427z" />
    <glyph glyph-name="product" unicode="&#x220f;" horiz-adv-x="715" 
d="M70 0v688h575v-688h-137v570h-301v-570h-137z" />
    <glyph glyph-name="minus" unicode="&#x2212;" horiz-adv-x="510" 
d="M19 288v109h472v-109h-472z" />
    <glyph glyph-name="radical" unicode="&#x221a;" horiz-adv-x="618" 
d="M280 0l-135 324h-115v107h205l89 -216l176 551l118 -29l-246 -737h-92z" />
    <glyph glyph-name="infinity" unicode="&#x221e;" horiz-adv-x="869" 
d="M232 149q-84 0 -143 55t-59 139t59 140t143 56q65 0 112 -28t90 -77q45 49 92 77t112 28q83 0 142 -56t59 -140t-59 -139t-143 -55q-65 0 -111.5 28t-90.5 77q-47 -51 -93 -78t-110 -27zM230 265q28 0 53.5 13.5t38.5 26.5t38 40q-25 27 -38.5 39.5t-39 25.5t-53.5 13
q-32 0 -52.5 -22.5t-20.5 -57.5q0 -36 19.5 -57t54.5 -21zM639 265q34 0 54 21.5t20 56.5q0 37 -19.5 58.5t-53.5 21.5q-28 0 -54 -13.5t-39 -26.5t-38 -40q23 -26 37.5 -39.5t39.5 -26t53 -12.5z" />
    <glyph glyph-name="approxequal" unicode="&#x2248;" horiz-adv-x="491" 
d="M301 168q-27 0 -65.5 24t-58.5 24q-13 0 -22 -1t-17.5 -5t-12.5 -6t-15 -10t-16 -12l-64 73q25 37 66 59.5t85 22.5q28 0 68 -24t57 -24q25 0 41.5 8t38.5 28l75 -64q-17 -25 -32.5 -41.5t-50.5 -34t-77 -17.5zM301 355q-27 0 -65.5 24t-58.5 24q-13 0 -22 -1t-17.5 -5
t-12.5 -6t-15 -10t-16 -12l-64 73q25 37 66 59.5t85 22.5q28 0 68 -24t57 -24q25 0 41.5 8t38.5 28l75 -64q-17 -25 -32.5 -41.5t-50.5 -34t-77 -17.5z" />
    <glyph glyph-name="notequal" unicode="&#x2260;" horiz-adv-x="608" 
d="M190 61l-84 53l47 75h-83v112h153l53 85h-206v112h276l76 121l84 -49l-45 -72h77v-112h-147l-52 -85h199v-112h-269z" />
    <glyph glyph-name="lessequal" unicode="&#x2264;" horiz-adv-x="510" 
d="M366 145l-314 257l314 258l79 -91l-210 -166l211 -166zM35 0v112h443v-112h-443z" />
    <glyph glyph-name="greaterequal" unicode="&#x2265;" horiz-adv-x="510" 
d="M147 145l-80 92l211 166l-210 166l79 91l314 -258zM35 0v112h443v-112h-443z" />
    <glyph glyph-name="uni25A0" unicode="&#x25a0;" horiz-adv-x="619" 
d="M80 0v460h459v-460h-459z" />
    <glyph glyph-name="uni25A1" unicode="&#x25a1;" horiz-adv-x="619" 
d="M80 0v460h459v-460h-459zM209 125h203v210h-203v-210z" />
    <glyph glyph-name="lozenge" unicode="&#x25ca;" horiz-adv-x="644" 
d="M280 0l-260 343l259 345h88l257 -345l-259 -343h-85zM324 115l156 230l-159 228l-156 -231z" />
    <glyph glyph-name="apple" unicode="&#xf8ff;" horiz-adv-x="1241" 
d="M390 318v11h10v18h-10v41h11v-40h19v40h11v-41h-10v-9h-10v-10h-10v-10h-11zM350 338v9h-10v30h-10v11h10v10h11v-10h20v-11h-20v-29h20v-10h-21zM590 338v9h-10v30h-10v11h10v10h11v-10h20v-11h-20v-29h20v-10h-21zM700 338v9h-10v31h10v10h21v-10h10v-21h-30v-9h30v-10
h-31zM880 338v9h-10v31h10v10h21v-10h10v-21h-30v-9h30v-10h-31zM110 347v10h-10v11h10v10h11v-10h10v-11h-10v-10h-11zM180 347v10h-10v11h10v10h11v-10h10v-11h-10v-10h-11zM270 347v10h-10v11h10v10h11v-10h10v-11h-10v-10h-11zM520 338v9h-10v31h10v10h21v-10h10v-31
h-10v-9h-21zM630 338v70h11v-20h20v-10h10v-40h-11v39h-19v-39h-11zM960 347v10h-10v11h10v10h11v-10h10v-11h-10v-10h-11zM1050 347v10h-10v11h10v10h11v-10h10v-11h-10v-10h-11zM1120 347v10h-10v11h10v10h11v-10h10v-11h-10v-10h-11zM450 318v70h31v-10h10v-31h-10v-9
h-20v-20h-11zM780 318v20h-20v9h-10v31h10v10h31v-70h-11zM820 338v9h-10v41h11v-40h19v40h11v-50h-31zM240 328v10h10v10h11v-10h-10v-10h-11zM250 377v10h-10v11h11v-10h10v-11h-11zM300 328v10h-10v10h11v-10h10v-10h-11zM290 377v11h10v10h11v-11h-10v-10h-11zM930 328
v10h10v10h11v-10h-10v-10h-11zM940 377v10h-10v11h11v-10h10v-11h-11zM990 328v10h-10v10h11v-10h10v-10h-11zM980 377v11h10v10h11v-11h-10v-10h-11zM160 338v10h11v-10h-11zM160 377v11h11v-11h-11zM200 338v10h11v-10h-11zM200 377v11h11v-11h-11zM461 348h19v29h-19v-29
zM521 348h19v29h-19v-29zM701 368h19v9h-19v-9zM761 348h19v29h-19v-29zM881 368h19v9h-19v-9zM1030 338v10h11v-10h-11zM1030 377v11h11v-11h-11zM1070 338v10h11v-10h-11zM1070 377v11h11v-11h-11z" />
    <glyph glyph-name="fl" unicode="&#xfb02;" horiz-adv-x="617" 
d="M100 0v355h-90v105h90v114q0 66 38.5 109t117.5 43q20 0 37.5 -1.5t29 -3.5t24.5 -5.5t17.5 -5.5t15 -6.5t11.5 -4.5l-35 -93q-42 14 -74 14q-56 0 -56 -52v-107h110v-105h-110v-356h-126zM431 0v721h126v-721h-126z" />
    <glyph glyph-name="NUL" horiz-adv-x="988" 
 />
    <glyph glyph-name="HT" horiz-adv-x="988" 
 />
    <glyph glyph-name="LF" horiz-adv-x="988" 
 />
    <glyph glyph-name="CR" horiz-adv-x="988" 
 />
    <glyph glyph-name="DLE" horiz-adv-x="988" 
 />
    <glyph glyph-name="DC1" horiz-adv-x="988" 
 />
    <glyph glyph-name="DC2" horiz-adv-x="988" 
 />
    <glyph glyph-name="DC3" horiz-adv-x="988" 
 />
    <glyph glyph-name="DC4" horiz-adv-x="988" 
 />
    <glyph glyph-name="RS" horiz-adv-x="988" 
 />
    <glyph glyph-name="US" horiz-adv-x="988" 
 />
    <glyph glyph-name="DEL" horiz-adv-x="988" 
 />
    <glyph glyph-name="uni0045030A" horiz-adv-x="542" 
d="M70 0v688h432v-118h-296v-161h274v-116h-274v-174h296v-119h-432zM288 720q-52 0 -88.5 32t-36.5 82t36.5 81.5t88.5 31.5t88 -31.5t36 -81.5t-36.5 -82t-87.5 -32zM288 789q16 0 28.5 11.5t12.5 33.5q0 21 -13 32.5t-28 11.5q-16 0 -28.5 -11.5t-12.5 -32.5t12.5 -33
t28.5 -12z" />
    <glyph glyph-name="uni00460304" horiz-adv-x="512" 
d="M70 0v688h422v-118h-286v-161h264v-117h-264v-292h-136zM148 742v105h265v-105h-265z" />
    <glyph glyph-name="uni004A0301" horiz-adv-x="277" 
d="M-100 -212v119q84 -1 128 33t44 116v632h136v-627q0 -142 -81.5 -207.5t-226.5 -65.5zM93 717l-59 74l183 133l68 -92z" />
    <glyph glyph-name="uni004E0304" horiz-adv-x="765" 
d="M70 0v688h146l342 -450v450h137v-688h-134l-354 457v-457h-137zM250 742v105h265v-105h-265z" />
    <glyph glyph-name="uni00500304" horiz-adv-x="562" 
d="M70 0v688h201q117 0 191.5 -52.5t74.5 -156.5q0 -62 -22 -109t-60.5 -73.5t-84.5 -39.5t-99 -13h-65v-244h-136zM206 356h58q56 0 95.5 29t39.5 89q0 96 -133 96h-60v-214zM149 742v105h265v-105h-265z" />
    <glyph glyph-name="uni00520300" horiz-adv-x="596" 
d="M438 -6l-153 263h-79v-257h-136v688h203q117 0 189.5 -51.5t72.5 -153.5q0 -71 -28 -117t-90 -81l177 -278zM206 374h57q134 0 134 99q0 96 -137 96h-54v-195zM288 719l-192 115l68 92l183 -133z" />
    <glyph glyph-name="uni00530306" horiz-adv-x="504" 
d="M249 -6q-73 0 -126.5 18t-102.5 63l82 95q69 -57 142 -57q39 0 69.5 20.5t30.5 58.5q0 41 -28 64t-85 46q-30 13 -43 19t-39.5 20t-39.5 28t-28.5 34.5t-22 48t-6.5 60.5q0 80 67 131t149 51q114 0 206 -54l-61 -102q-20 14 -60.5 26t-77.5 12q-90 0 -90 -69
q0 -15 6 -27.5t13.5 -20.5t24 -18t27 -14.5t34.5 -14t34 -14.5q34 -15 58 -29.5t49 -38t38 -57.5t13 -77q0 -89 -71 -145.5t-162 -56.5zM256 716q-72 0 -112.5 38.5t-55.5 85.5l84 34q34 -60 86 -60q58 0 83 60l80 -32q-46 -126 -165 -126z" />
    <glyph glyph-name="uni00560304" horiz-adv-x="690" 
d="M256 0l-261 676l145 17l204 -553l208 555l142 -15l-280 -680h-158zM213 742v105h265v-105h-265z" />
    <glyph glyph-name="uni00580304" horiz-adv-x="660" 
d="M148 -6l-154 16l254 341l-246 329l165 15l168 -239l167 239l149 -21l-237 -320l253 -344l-161 -16l-180 254zM204 742v105h265v-105h-265z" />
    <glyph glyph-name="Iacute_Jacute" horiz-adv-x="550" 
d="M70 0v688h137v-688h-137zM173 -212v119q84 -1 128 33t44 116v632h136v-627q0 -142 -81.5 -207.5t-226.5 -65.5zM97 717l-59 74l183 133l68 -92zM369 717l-59 74l183 133l68 -92z" />
    <glyph glyph-name="uni0065030A" horiz-adv-x="470" 
d="M244 511q-52 0 -88.5 32t-36.5 82t36.5 81.5t88.5 31.5t88 -31.5t36 -81.5t-36.5 -82t-87.5 -32zM244 580q16 0 28.5 11.5t12.5 33.5q0 21 -13 32.5t-28 11.5q-16 0 -28.5 -11.5t-12.5 -32.5t12.5 -33t28.5 -12zM259 -7q-111 0 -170 61.5t-59 172.5q0 104 60 172t162 68
q91 0 141.5 -61.5t50.5 -154.5v-66h-285q7 -37 37 -60.5t67 -23.5q60 0 117 18l36 -93q-67 -33 -157 -33zM157 270h164q0 41 -19 70.5t-59 29.5t-60.5 -29.5t-25.5 -70.5z" />
    <glyph glyph-name="uni00660304" horiz-adv-x="371" 
d="M100 0v355h-90v105h90v114q0 66 38.5 109t117.5 43q20 0 37.5 -1.5t29 -3.5t24.5 -5.5t17.5 -5.5t15 -6.5t11.5 -4.5l-35 -93q-42 14 -74 14q-56 0 -56 -52v-107h110v-105h-110v-356h-126zM115 768v105h265v-105h-265z" />
    <glyph glyph-name="uni006A0301" horiz-adv-x="245" 
d="M93 499l-64 69l173 146l75 -86zM20 -239l-75 87q70 35 93 79.5t23 107.5v426h126v-430q0 -87 -39.5 -158.5t-127.5 -111.5z" />
    <glyph glyph-name="uni006E0304" horiz-adv-x="531" 
d="M60 0v461h126v-46q62 52 135 52q70 0 115 -36.5t45 -104.5v-326h-126v303q0 29 -13.5 41t-42.5 12q-52 0 -113 -49v-307h-126zM138 541v105h265v-105h-265z" />
    <glyph glyph-name="uni007000AF" horiz-adv-x="543" 
d="M60 -239v700h126v-35q63 41 122 41q96 0 150.5 -65.5t54.5 -168.5q0 -100 -56 -169.5t-153 -69.5q-71 0 -118 37v-270h-126zM293 105q47 0 71 38.5t24 87.5q0 51 -24 88t-73 37q-55 0 -105 -38v-172q31 -24 51 -32.5t56 -8.5zM143 541v105h265v-105h-265z" />
    <glyph glyph-name="uni00720300" horiz-adv-x="366" 
d="M60 0v461h126v-57q40 43 57 53q23 13 54 13q30 0 74 -19l-54 -114q-18 13 -56 13q-41 0 -75 -65v-285h-126zM225 499l-184 129l75 86l173 -146z" />
    <glyph glyph-name="uni00730306" horiz-adv-x="397" 
d="M183 -7q-101 0 -170 51l54 90q56 -34 115 -34q65 0 65 32q0 5 -2 9t-7.5 8.5t-10 7.5t-14 8t-15.5 7.5t-19 7.5t-19 8q-57 23 -89 55t-32 89q0 66 50.5 100.5t114.5 34.5q104 0 166 -50l-59 -85q-49 32 -106 32q-47 0 -47 -28q0 -7 2.5 -12.5t10.5 -10.5t13 -7.5t19 -8
t20 -8.5q3 -1 19.5 -8t21 -9t19.5 -9t20.5 -11t17.5 -12.5t17 -15t13.5 -17t11.5 -21t6 -23.5t3 -28q0 -66 -54.5 -104t-134.5 -38zM205 516q-72 0 -112.5 38.5t-55.5 85.5l84 34q34 -60 86 -60q58 0 83 60l80 -32q-46 -126 -165 -126z" />
    <glyph glyph-name="uni00760304" horiz-adv-x="486" 
d="M170 0l-175 456l140 9l107 -333l121 334l132 -12l-190 -454h-135zM109 541v105h265v-105h-265z" />
    <glyph glyph-name="uni00780304" horiz-adv-x="469" 
d="M472 6l-146 -14l-98 151l-92 -149l-145 12l172 228l-155 220l148 13l80 -137l94 137l141 -15l-172 -208zM103 541v105h265v-105h-265z" />
    <glyph glyph-name="iacute_jacute" horiz-adv-x="486" 
d="M261 -239l-75 87q70 35 93 79.5t23 107.5v426h126v-430q0 -87 -39.5 -158.5t-127.5 -111.5zM60 0v461h125v-461h-125zM96 499l-64 69l173 146l75 -86zM334 499l-64 69l173 146l75 -86z" />
    <glyph glyph-name="questiondown.cap" horiz-adv-x="436" 
d="M338 -5q-54 0 -102.5 11.5t-90.5 36t-67 68t-25 100.5q0 18 5.5 42.5t20 57t47.5 57.5t80 32v75h132v-162q-59 0 -103 -25t-44 -78q0 -35 24 -58t55.5 -31.5t67.5 -8.5v-117zM273 536q-32 0 -55.5 23.5t-23.5 56.5q0 32 23.5 55.5t55.5 23.5q33 0 56.5 -23.5t23.5 -55.5
q0 -33 -23.5 -56.5t-56.5 -23.5z" />
    <glyph glyph-name="exclamdown.cap" horiz-adv-x="347" 
d="M173 535q-33 0 -56 23t-23 56t23 56.5t56 23.5t56.5 -23.5t23.5 -56.5t-23.5 -56t-56.5 -23zM110 0v474h126v-474h-126z" />
    <glyph glyph-name="hyphen.cap" horiz-adv-x="296" 
d="M14 282v119h268v-119h-268z" />
    <glyph glyph-name="endash.cap" 
d="M30 291v103h440v-103h-440z" />
    <glyph glyph-name="emdash.cap" horiz-adv-x="770" 
d="M30 291v103h710v-103h-710z" />
    <glyph glyph-name="parenleft.cap" horiz-adv-x="380" 
d="M262 -112q-80 76 -132 200.5t-52 240.5q0 125 55 250.5t130 189.5l79 -80q-59 -54 -99 -158.5t-40 -201.5q0 -82 38.5 -192.5t100.5 -162.5z" />
    <glyph glyph-name="parenright.cap" horiz-adv-x="380" 
d="M118 -112l-80 86q63 52 101.5 162.5t38.5 192.5q0 97 -40.5 201t-99.5 159l80 80q75 -64 129.5 -189.5t54.5 -250.5q0 -116 -52 -240.5t-132 -200.5z" />
    <glyph glyph-name="bracketleft.cap" horiz-adv-x="325" 
d="M64 -102v879h247v-114h-121v-651h121v-114h-247z" />
    <glyph glyph-name="bracketright.cap" horiz-adv-x="325" 
d="M14 -102v114h121v651h-121v114h247v-879h-247z" />
    <glyph glyph-name="braceleft.cap" horiz-adv-x="376" 
d="M281 -93q-79 0 -120 39.5t-41 110.5v154q0 49 -14.5 62t-78.5 14v111q62 1 77.5 14.5t15.5 61.5v168q0 79 39 114t122 35h63v-119h-60q-22 0 -29.5 -11.5t-7.5 -47.5v-152q0 -86 -40 -120q40 -34 40 -117v-133v-11.5v-12t0.5 -10t2 -10.5t4.5 -8t6.5 -7t9.5 -3.5t14 -1.5
h60v-120h-63z" />
    <glyph glyph-name="braceright.cap" horiz-adv-x="376" 
d="M30 -97v120h60q8 0 14 1.5t9.5 3t6.5 6.5l4.5 7.5t2 9.5t0.5 9.5v11.5v11v151q0 83 40 117q-40 34 -40 120v143q0 37 -7.5 48t-29.5 11h-60v119h63q83 0 122 -35t39 -114v-159q0 -48 15.5 -61.5t77.5 -14.5v-111q-63 -1 -78 -14t-15 -62v-168q0 -71 -41 -110.5
t-120 -39.5h-63z" />
    <glyph glyph-name="guilsinglright.cap" horiz-adv-x="281" 
d="M165 153l-135 189l135 189l86 -55l-97 -134l97 -132z" />
    <glyph glyph-name="guilsinglleft.cap" horiz-adv-x="281" 
d="M116 151l-86 57l97 132l-97 134l86 55l135 -189z" />
    <glyph glyph-name="guillemotleft.cap" horiz-adv-x="482" 
d="M165 154l-135 189l135 189l86 -55l-97 -134l97 -132zM366 154l-135 189l134 189l87 -55l-98 -134l98 -132z" />
    <glyph glyph-name="guillemotright.cap" horiz-adv-x="482" 
d="M116 152l-86 57l97 132l-97 134l86 55l135 -189zM317 152l-86 57l97 132l-97 134l86 55l135 -189z" />
    <glyph glyph-name="Acute" horiz-adv-x="551" 
d="M207 717l-59 74l183 133l68 -92z" />
    <glyph glyph-name="Caron" horiz-adv-x="544" 
d="M272 717l-182 135l78 76l104 -86l103 86l79 -76z" />
    <glyph glyph-name="Circumflex" horiz-adv-x="544" 
d="M168 718l-78 76l182 135l182 -135l-79 -76l-103 86z" />
    <glyph glyph-name="Dotaccent" horiz-adv-x="253" 
d="M126 732q-32 0 -54 22t-22 54t22.5 54.5t53.5 22.5q32 0 54.5 -22.5t22.5 -54.5t-22.5 -54t-54.5 -22z" />
    <glyph glyph-name="Hungarumlaut" horiz-adv-x="787" 
d="M220 717l-70 63l159 161l82 -80zM445 717l-59 74l183 133l68 -92z" />
    <glyph glyph-name="Grave" horiz-adv-x="551" 
d="M342 719l-192 115l68 92l183 -133z" />
    <glyph glyph-name="Macron" horiz-adv-x="325" 
d="M30 742v105h265v-105h-265z" />
    <glyph glyph-name="Tilde" horiz-adv-x="692" 
d="M512 795q-28 -39 -52.5 -58t-59.5 -19q-24 0 -61 15t-54 15q-30 0 -56 -28l-55 64q45 68 109 68q24 0 61 -15t52 -15q31 0 52 28z" />
    <glyph glyph-name="commaaccent" horiz-adv-x="234" 
d="M30 -228l29 197h116l-58 -197h-87z" />
    <glyph glyph-name="zero.tnum_lnum_zero" 
d="M255 -6q-114 0 -170 95.5t-56 254.5q0 157 61 253.5t165 96.5q106 0 163 -94.5t57 -256.5q0 -161 -58 -255t-162 -94zM250 111q45 0 66.5 66.5t21.5 166.5q0 59 -7 102l-138 -288q21 -47 57 -47zM171 259l133 279q-21 37 -51 37q-85 0 -85 -231q0 -44 3 -85z" />
    <glyph glyph-name="zero.pnum_lnum" horiz-adv-x="594" 
d="M300 -6q-69 0 -122.5 30.5t-83.5 81.5t-45 111.5t-15 126.5q0 158 71 254t195 96q121 0 190.5 -95.5t69.5 -255.5q0 -159 -70.5 -254t-189.5 -95zM297 111q57 0 91.5 62t34.5 171t-33.5 170t-89.5 61q-39 0 -66 -24t-39.5 -63.5t-17 -73.5t-4.5 -70q0 -33 5 -68t17 -74.5
t38.5 -65t63.5 -25.5z" />
    <glyph glyph-name="one.pnum_lnum" horiz-adv-x="427" 
d="M211 0v536l-139 -112l-72 91l221 173h126v-688h-136z" />
    <glyph glyph-name="two.pnum_lnum" horiz-adv-x="538" 
d="M67 0l-37 106q207 143 309 294q27 40 27 91q0 39 -29.5 61.5t-68.5 22.5q-37 0 -78 -19t-72 -46l-73 89q104 95 228 95q108 0 171.5 -52t63.5 -152q0 -64 -49 -145q-56 -92 -236 -226h279v-119h-435z" />
    <glyph glyph-name="three.pnum_lnum" horiz-adv-x="524" 
d="M228 -7q-116 0 -208 62l54 100q77 -45 148 -45q47 0 82.5 27t35.5 73q0 25 -8 42.5t-19 26.5t-30.5 14t-35.5 6t-41 1l-51 -1v107h52q45 0 81 24.5t36 69.5q0 33 -25.5 54t-64.5 21q-62 0 -133 -33l-52 104q87 48 190 48q91 0 155.5 -46.5t64.5 -132.5q0 -56 -20.5 -91.5
t-58.5 -63.5q51 -23 76.5 -57t25.5 -95q0 -100 -74.5 -157.5t-179.5 -57.5z" />
    <glyph glyph-name="four.pnum_lnum" horiz-adv-x="558" 
d="M294 0v158h-246l-38 94l258 436h162v-411h78v-119h-78v-158h-136zM155 277h139v258z" />
    <glyph glyph-name="five.pnum_lnum" horiz-adv-x="528" 
d="M227 -7q-116 0 -197 60l60 105q79 -48 146 -48q52 0 82.5 27.5t30.5 82.5q0 46 -30.5 70t-79.5 24q-19 0 -51.5 -3t-55.5 -7l-23 -3l-41 58l45 329h358v-118h-253l-17 -142q46 4 61 4q110 0 173 -53.5t63 -157.5q0 -112 -77.5 -170t-193.5 -58z" />
    <glyph glyph-name="six.pnum_lnum" horiz-adv-x="543" 
d="M281 -6q-114 0 -177.5 62.5t-63.5 190.5q0 154 92.5 270.5t236.5 176.5l67 -95q-79 -41 -131 -81t-84 -99q36 9 76 9q98 0 157 -50.5t59 -157.5q0 -100 -66 -163t-166 -63zM279 106q46 0 71.5 29t25.5 80q0 44 -26.5 72.5t-69.5 28.5q-29 0 -97 -10q-8 -27 -8 -63
q0 -137 104 -137z" />
    <glyph glyph-name="seven.pnum_lnum" horiz-adv-x="507" 
d="M183 -8l-128 38l282 539h-317v119h427l50 -77z" />
    <glyph glyph-name="eight.pnum_lnum" horiz-adv-x="554" 
d="M276 -7q-99 0 -167.5 52t-68.5 144q0 116 120 171q-103 49 -103 144q0 33 13 65.5t39 61t70 46t100 17.5q104 0 161.5 -53.5t57.5 -130.5q0 -96 -96 -149q112 -59 112 -167q0 -91 -67.5 -146t-170.5 -55zM277 106q45 0 73 23t28 60q0 38 -26.5 64t-77.5 51
q-48 -21 -73 -45t-25 -63q0 -36 29 -63t72 -27zM285 410q75 35 75 90q0 39 -24.5 57t-57.5 18q-34 0 -59 -18t-25 -51t23.5 -55t67.5 -41z" />
    <glyph glyph-name="nine.pnum_lnum" horiz-adv-x="543" 
d="M174 -6l-67 95q79 41 131 81t84 99q-36 -9 -76 -9q-98 0 -157 50.5t-59 157.5q0 100 66 163t166 63q114 0 177.5 -62.5t63.5 -190.5q0 -154 -92.5 -270.5t-236.5 -176.5zM263 372q29 0 97 10q8 27 8 63q0 137 -104 137q-46 0 -71.5 -29t-25.5 -80q0 -44 26.5 -72.5
t69.5 -28.5z" />
    <glyph glyph-name="zero.tnum_lnum" 
d="M255 -6q-114 0 -170 95.5t-56 254.5q0 157 61 253.5t165 96.5q106 0 163 -94.5t57 -256.5q0 -161 -58 -255t-162 -94zM250 111q45 0 66.5 66.5t21.5 166.5q0 103 -21.5 167t-63.5 64q-85 0 -85 -231q0 -233 82 -233z" />
    <glyph glyph-name="one.tnum_lnum" 
d="M234 0v536l-148 -95l-67 97l225 150h126v-688h-136z" />
    <glyph glyph-name="two.tnum_lnum" 
d="M54 0l-37 106q68 59 116 104t97.5 99t75.5 100t26 82q0 40 -24 62t-68 22q-35 0 -72.5 -18.5t-62.5 -46.5l-73 89q81 95 213 95q107 0 168 -52t61 -152q0 -50 -26.5 -104.5t-71 -103t-90.5 -88t-97 -75.5h279v-119h-414z" />
    <glyph glyph-name="three.tnum_lnum" 
d="M211 -7q-116 0 -208 62l54 100q77 -45 148 -45q48 0 83 26t35 72q0 25 -8 42t-18.5 26t-31 13.5t-35.5 5.5t-41 1l-51 -1v107h52q52 0 84.5 24.5t32.5 70.5q0 33 -27.5 57t-63.5 24q-68 0 -125 -29l-48 93q83 55 178 55q89 0 155 -53t66 -141q0 -55 -19.5 -84t-60.5 -59
q51 -23 77 -58t26 -96q0 -100 -74.5 -156.5t-179.5 -56.5z" />
    <glyph glyph-name="four.tnum_lnum" 
d="M272 0v158h-216l-38 94l203 436h187v-411h78v-119h-78v-158h-136zM146 277h126v294z" />
    <glyph glyph-name="five.tnum_lnum" 
d="M199 -7q-106 0 -187 60l60 105q79 -48 136 -48q108 0 108 110q0 46 -28.5 70t-76.5 24q-19 0 -49 -3t-50 -7l-21 -3l-41 58l45 329h348v-118h-243l-17 -142q46 4 51 4q109 0 167.5 -53t58.5 -158q0 -113 -73.5 -170.5t-187.5 -57.5z" />
    <glyph glyph-name="six.tnum_lnum" 
d="M257 -6q-230 0 -230 253q0 156 88 271.5t230 175.5l67 -95q-72 -38 -122 -79t-82 -101q36 9 65 9q97 0 151.5 -50t54.5 -158q0 -101 -61.5 -163.5t-160.5 -62.5zM255 106q87 0 87 109q0 46 -22 73.5t-64 27.5q-18 0 -86 -10q-8 -27 -8 -63q0 -67 20.5 -102t72.5 -35z" />
    <glyph glyph-name="seven.tnum_lnum" 
d="M179 -8l-128 38l282 539h-317v119h427l50 -77z" />
    <glyph glyph-name="eight.tnum_lnum" horiz-adv-x="493" 
d="M249 -7q-99 0 -167.5 52t-68.5 144q0 116 120 171q-103 49 -103 144q0 33 13 65.5t39 61t70 46t100 17.5q104 0 161.5 -53.5t57.5 -130.5q0 -96 -96 -149q112 -59 112 -167q0 -91 -67.5 -146t-170.5 -55zM250 106q45 0 73 23t28 60q0 38 -26.5 64t-77.5 51
q-48 -21 -73 -45t-25 -63q0 -36 29 -63t72 -27zM258 410q75 35 75 90q0 39 -24.5 57t-57.5 18q-34 0 -59 -18t-25 -51t23.5 -55t67.5 -41z" />
    <glyph glyph-name="nine.tnum_lnum" 
d="M161 -6l-67 95q72 38 122 79t82 101q-36 -9 -65 -9q-97 0 -151.5 50t-54.5 158q0 101 61.5 163.5t160.5 62.5q230 0 230 -253q0 -156 -88 -271.5t-230 -175.5zM250 372q18 0 86 10q8 27 8 63q0 67 -20.5 102t-72.5 35q-87 0 -87 -109q0 -46 22 -73.5t64 -27.5z" />
    <glyph glyph-name="zero.zero" horiz-adv-x="586" 
d="M296 -6q-134 0 -195 68t-61 172q0 101 69.5 167.5t186.5 66.5q115 0 182.5 -61.5t67.5 -173.5q0 -110 -66 -174.5t-184 -64.5zM293 111q55 0 85.5 35t30.5 88q0 22 -8 43l-181 -141q29 -25 73 -25zM186 189l177 139q-29 21 -67 21q-54 0 -85.5 -31.5t-31.5 -83.5
q0 -27 7 -45z" />
    <glyph glyph-name="zero.tnum_onum" 
d="M256 -6q-65 0 -112.5 21t-73.5 57t-38 76t-12 86q0 95 64.5 164.5t171.5 69.5q104 0 167 -65t63 -170t-60.5 -172t-169.5 -67zM253 111q48 0 72 34.5t24 88.5q0 48 -25 81.5t-68 33.5q-48 0 -72.5 -32t-24.5 -83q0 -54 24.5 -88.5t69.5 -34.5z" />
    <glyph glyph-name="one.tnum_onum" 
d="M246 0v331l-160 -62l-46 104l216 88h126v-461h-136z" />
    <glyph glyph-name="two.tnum_onum" 
d="M82 0l-41 108q151 76 204.5 115t53.5 76q0 22 -16.5 36t-50.5 14q-58 0 -119 -55l-73 89q87 85 197 85q101 0 155.5 -45.5t54.5 -120.5q0 -56 -53.5 -100.5t-158.5 -82.5h222v-119h-375z" />
    <glyph glyph-name="three.tnum_onum" 
d="M217 -231q-116 0 -208 62l54 100q77 -45 148 -45q47 0 82.5 27t35.5 73q0 25 -8 42.5t-19 26.5t-30.5 14t-35.5 6t-41 1l-51 -1v107h52q45 0 81 24.5t36 69.5q0 33 -25.5 54t-64.5 21q-62 0 -133 -33l-52 104q87 48 190 48q91 0 155.5 -46.5t64.5 -132.5
q0 -56 -20.5 -91.5t-58.5 -63.5q51 -23 76.5 -57t25.5 -95q0 -100 -74.5 -157.5t-179.5 -57.5z" />
    <glyph glyph-name="four.tnum_onum" 
d="M257 -202v202h-209l-38 94l221 366h162v-341h78v-119h-78v-202h-136zM141 119h116v206z" />
    <glyph glyph-name="five.tnum_onum" 
d="M209 -234q-106 0 -187 60l60 105q79 -48 136 -48q108 0 108 110q0 46 -28.5 70t-76.5 24q-19 0 -49 -3.5t-50 -6.5l-21 -3l-41 58l45 329h348v-118h-243l-17 -142q46 4 51 4q109 0 167.5 -53t58.5 -158q0 -113 -73.5 -170.5t-187.5 -57.5z" />
    <glyph glyph-name="six.tnum_onum" 
d="M257 -6q-230 0 -230 253q0 156 88 271.5t230 175.5l67 -95q-72 -38 -122 -79t-82 -101q36 9 65 9q97 0 151.5 -50t54.5 -158q0 -101 -61.5 -163.5t-160.5 -62.5zM255 106q87 0 87 109q0 46 -22 73.5t-64 27.5q-18 0 -86 -10q-8 -27 -8 -63q0 -67 20.5 -102t72.5 -35z" />
    <glyph glyph-name="seven.tnum_onum" 
d="M186 -235l-128 38l262 539h-297v119h407l50 -77z" />
    <glyph glyph-name="eight.tnum_onum" 
d="M249 -7q-99 0 -167.5 52t-68.5 144q0 116 120 171q-103 49 -103 144q0 33 13 65.5t39 61t70 46t100 17.5q104 0 161.5 -53.5t57.5 -130.5q0 -96 -96 -149q112 -59 112 -167q0 -91 -67.5 -146t-170.5 -55zM250 106q45 0 73 23t28 60q0 38 -26.5 64t-77.5 51
q-48 -21 -73 -45t-25 -63q0 -36 29 -63t72 -27zM258 410q75 35 75 90q0 39 -24.5 57t-57.5 18q-34 0 -59 -18t-25 -51t23.5 -55t67.5 -41z" />
    <glyph glyph-name="nine.tnum_onum" 
d="M161 -233l-67 95q72 38 122 79t82 101q-36 -9 -65 -9q-97 0 -151.5 50t-54.5 158q0 101 61.5 163.5t160.5 62.5q230 0 230 -253q0 -156 -88 -271.5t-230 -175.5zM250 145q18 0 86 10q8 27 8 63q0 67 -20.5 102t-72.5 35q-87 0 -87 -109q0 -46 22 -73.5t64 -27.5z" />
    <glyph glyph-name="registered.pnum_lnum" horiz-adv-x="767" 
d="M465 143l-88 148h-40v-142h-82v385h117q66 0 107.5 -28.5t41.5 -86.5q0 -73 -65 -111l98 -151zM384 -6q-146 0 -250 103t-104 247t104.5 246.5t249.5 102.5t249 -102.5t104 -246.5t-104 -247t-249 -103zM384 64q116 0 194.5 82t78.5 198q0 115 -78.5 197t-194.5 82
t-195 -81.5t-79 -197.5t79 -198t195 -82zM337 362h29q73 0 73 52q0 50 -75 50h-27v-102z" />
    <glyph glyph-name="Euro.pnum_lnum" horiz-adv-x="542" 
d="M311 -6q-137 0 -204 97t-67 253q0 167 72 258.5t199 91.5q115 0 184 -80l-106 -74q-29 35 -78 35q-89 0 -118 -108h195v-87h-208q-1 -12 -1 -36q0 -14 2 -44h207v-86h-192q33 -103 112 -103q60 0 94 45l103 -64q-74 -98 -194 -98z" />
    <glyph glyph-name="dollar.pnum_lnum" horiz-adv-x="548" 
d="M246 -67v62q-116 6 -202 85l78 87q57 -47 124 -53v191q-32 13 -50 22t-45 27t-41 37.5t-25 50.5t-11 70q0 69 50.5 116.5t121.5 61.5v62h83v-59q90 -7 167 -53l-61 -102q-57 30 -106 35v-168q86 -35 130.5 -80.5t44.5 -128.5q0 -74 -50.5 -126t-124.5 -69v-68h-83z
M329 129q37 22 37 63q0 44 -37 71v-134zM246 444v121q-39 -21 -39 -58q0 -39 39 -63z" />
    <glyph glyph-name="sterling.pnum_lnum" horiz-adv-x="540" 
d="M62 0v90q46 22 74.5 61.5t28.5 88.5q0 36 -2 54h-103v112h86q-9 56 -9 77q0 94 61 152t155 58q74 0 145 -37l-44 -98q-49 23 -99 23q-40 0 -64.5 -27t-24.5 -67q0 -27 10 -81h151v-112h-136q1 -10 1 -31q0 -85 -40 -151h258v-112h-448z" />
    <glyph glyph-name="florin.pnum_lnum" horiz-adv-x="489" 
d="M109 -7q-59 0 -119 30l40 92q31 -16 63 -16q53 0 60 52l21 170h-75v106h88l13 99q9 79 52 123.5t120 44.5q59 0 107 -23l-37 -94q-25 12 -61 12q-24 0 -41 -18t-21 -52l-12 -92h102v-106h-114l-22 -177q-8 -69 -51.5 -110t-112.5 -41z" />
    <glyph glyph-name="yen.pnum_lnum" horiz-adv-x="648" 
d="M253 0v143h-189v100h189v68h-189v100h114l-164 252l146 31l167 -278l169 278l138 -31l-167 -252h113v-100h-190v-68h190v-100h-190v-143h-137z" />
    <glyph glyph-name="threesup_fraction_eightinf" horiz-adv-x="752" 
d="M130 331q-64 0 -120 37l38 72q40 -22 80 -22q17 0 29 9t12 24q0 37 -43 37h-39v62h40q16 0 25 10.5t9 23.5q0 28 -40 28q-31 0 -62 -17l-33 74q51 28 110 28q50 0 85.5 -25.5t35.5 -74.5q0 -39 -41 -72q51 -21 51 -75q0 -55 -40 -87t-97 -32zM227 -39l-95 39l365 722
l94 -39zM603 -4q-53 0 -90.5 29.5t-37.5 80.5t53 82q-45 30 -45 74q0 40 31.5 70t90.5 30q57 0 88 -28.5t31 -71.5q0 -34 -42 -74q50 -35 50 -80q0 -51 -36.5 -81.5t-92.5 -30.5zM604 81q14 0 23 7t9 18q0 31 -34 48q-32 -14 -32 -45q0 -11 10 -19.5t24 -8.5zM609 218
q19 17 19 36q0 24 -23 24q-27 0 -27 -21q0 -27 31 -39z" />
    <glyph glyph-name="fivesup_fraction_eightinf" horiz-adv-x="752" 
d="M121 331q-60 0 -111 39l41 72q40 -24 73 -24q40 0 40 37q0 15 -14.5 25t-31.5 10l-58 -4l-22 32l25 177h190v-87h-123l-5 -36h12q60 0 94 -29t34 -87q0 -61 -41.5 -93t-102.5 -32zM227 -39l-95 39l365 722l94 -39zM603 -4q-53 0 -90.5 29.5t-37.5 80.5t53 82
q-45 30 -45 74q0 40 31.5 70t90.5 30q57 0 88 -28.5t31 -71.5q0 -34 -42 -74q50 -35 50 -80q0 -51 -36.5 -81.5t-92.5 -30.5zM604 81q14 0 23 7t9 18q0 31 -34 48q-32 -14 -32 -45q0 -11 10 -19.5t24 -8.5zM609 218q19 17 19 36q0 24 -23 24q-27 0 -27 -21q0 -27 31 -39z
" />
    <glyph glyph-name="sevensup_fraction_eightinf" horiz-adv-x="752" 
d="M151 329l-91 26l132 253h-142v87h208l33 -51zM227 -39l-95 39l365 722l94 -39zM603 -4q-53 0 -90.5 29.5t-37.5 80.5t53 82q-45 30 -45 74q0 40 31.5 70t90.5 30q57 0 88 -28.5t31 -71.5q0 -34 -42 -74q50 -35 50 -80q0 -51 -36.5 -81.5t-92.5 -30.5zM604 81q14 0 23 7
t9 18q0 31 -34 48q-32 -14 -32 -45q0 -11 10 -19.5t24 -8.5zM609 218q19 17 19 36q0 24 -23 24q-27 0 -27 -21q0 -27 31 -39z" />
    <glyph glyph-name="afii61352.pnum_lnum" horiz-adv-x="1116" 
d="M732 218v74h354v-74h-354zM70 0v688h146l342 -450v450h137v-688h-134l-354 457v-457h-137zM901 337q-76 0 -123 47.5t-47 131.5q0 81 52 129t131 48q77 0 124.5 -47.5t47.5 -130.5q0 -82 -54 -130t-131 -48zM907 441q24 0 41 18.5t17 57.5q0 40 -17.5 57.5t-38.5 17.5
q-22 0 -39.5 -18t-17.5 -57q0 -76 55 -76z" />
    <glyph glyph-name="period.superior" horiz-adv-x="150" 
d="M76 322q-21 0 -35.5 14.5t-14.5 35.5t14.5 35.5t35.5 14.5t35 -14.5t14 -35.5t-14 -35.5t-35 -14.5z" />
    <glyph glyph-name="comma.superior" horiz-adv-x="150" 
d="M6 280l47 125h98l-73 -125h-72z" />
    <glyph glyph-name="dollar.superior" horiz-adv-x="274" 
d="M113 291v35q-53 6 -103 50l50 56q38 -29 63 -33v75q-20 8 -34 16t-29.5 22t-24 34t-8.5 45q0 37 29.5 66t66.5 35v29h52v-30q38 -5 83 -35l-36 -58q-26 18 -57 24v-76q46 -19 71.5 -44.5t25.5 -68.5q0 -40 -30 -71.5t-67 -33.5v-37h-52zM165 400q18 10 18 31q0 8 -3 13.5
t-5 7t-10 8.5v-60zM123 562v56q-19 -10 -19 -25q0 -18 19 -31z" />
    <glyph glyph-name="cent.superior" horiz-adv-x="213" 
d="M102 293v33q-45 9 -70 40t-25 80t25.5 84t69.5 44v30h57v-30q26 -4 55 -21l-36 -60q-12 9 -19 11v-112q1 0 10.5 3.5t13.5 5.5l33 -51q-24 -22 -57 -24v-33h-57zM102 402v96q-16 -16 -16 -47q0 -36 16 -49z" />
    <glyph glyph-name="equal.inferior" horiz-adv-x="304" 
d="M25 85v76h254v-76h-254zM25 183v76h254v-76h-254z" />
    <glyph glyph-name="minus.inferior" horiz-adv-x="306" 
d="M25 134v75h256v-75h-256z" />
    <glyph glyph-name="plus.inferior" horiz-adv-x="306" 
d="M110 49v85h-85v75h85v85h85v-85h86v-75h-86v-85h-85z" />
    <glyph glyph-name="period.inferior" horiz-adv-x="150" 
d="M76 -13q-21 0 -35.5 14.5t-14.5 35.5t14.5 35.5t35.5 14.5t35 -14.5t14 -35.5t-14 -35.5t-35 -14.5z" />
    <glyph glyph-name="comma.inferior" horiz-adv-x="150" 
d="M6 -55l47 125h98l-73 -125h-72z" />
    <glyph glyph-name="dollar.inferior" horiz-adv-x="274" 
d="M113 -44v35q-53 6 -103 50l50 56q38 -29 63 -33v75q-20 8 -34 16t-29.5 22t-24 34t-8.5 45q0 37 29.5 66t66.5 35v29h52v-30q38 -5 83 -35l-36 -58q-26 18 -57 24v-76q46 -19 71.5 -44.5t25.5 -68.5q0 -40 -30 -71.5t-67 -33.5v-37h-52zM165 65q18 10 18 31q0 8 -3 13.5
t-5 7t-10 8.5v-60zM123 227v56q-19 -10 -19 -25q0 -18 19 -31z" />
    <glyph glyph-name="cent.inferior" horiz-adv-x="213" 
d="M102 -42v33q-45 9 -70 40t-25 80t25.5 84t69.5 44v30h57v-30q26 -4 55 -21l-36 -60q-12 9 -19 11v-112q1 0 10.5 3.5t13.5 5.5l33 -51q-24 -22 -57 -24v-33h-57zM102 67v96q-16 -16 -16 -47q0 -36 16 -49z" />
    <glyph glyph-name="Breve" horiz-adv-x="419" 
d="M209 740q-72 0 -118 39t-61 81l95 38q1 -2 3 -6.5t9 -14.5t16 -18t24 -14.5t32 -6.5q27 0 48.5 15t28.5 30l8 15l95 -38q-16 -43 -61 -81.5t-119 -38.5z" />
    <glyph glyph-name="Dieresis" horiz-adv-x="398" 
d="M88 743q-32 0 -54 22.5t-22 53.5q0 32 22.5 54.5t53.5 22.5q32 0 54.5 -22.5t22.5 -54.5t-22.5 -54t-54.5 -22zM309 743q-31 0 -53.5 22.5t-22.5 53.5q0 32 22.5 54.5t53.5 22.5q32 0 54.5 -22.5t22.5 -54.5t-22.5 -54t-54.5 -22z" />
    </font>
</defs>
</svg>
