<?xml version="1.0" standalone="no"?>
<!DOCTYPE svg PUBLIC "-//W3C//DTD SVG 1.1//EN" "http://www.w3.org/Graphics/SVG/1.1/DTD/svg11.dtd" >
<svg xmlns="http://www.w3.org/2000/svg" xmlns:xlink="http://www.w3.org/1999/xlink" version="1.1">
<metadata>
Created by FontForge 20170731 at Mon Sep  1 22:01:01 2008
 By Aleksey,,,
Copyright (c) 1999-2008 Typotheque.com All rights reserved.
</metadata>
<defs>
<font id="JigsawLight" horiz-adv-x="497" >
  <font-face 
    font-family="Jigsaw Light"
    font-weight="300"
    font-stretch="normal"
    units-per-em="1000"
    panose-1="2 0 5 3 3 0 0 2 0 3"
    ascent="710"
    descent="-290"
    x-height="460"
    cap-height="688"
    bbox="-112 -241 1141 898"
    underline-thickness="50"
    underline-position="-200"
    unicode-range="U+0020-FB03"
  />
<missing-glyph horiz-adv-x="180" 
 />
    <glyph glyph-name="fi" unicode="fi" horiz-adv-x="520" 
d="M111 0v404h-80v56h80v144q0 55 32 89.5t86 34.5q29 0 56.5 -7.5t35.5 -13.5l-24 -51q-35 16 -65 16q-22 0 -42 -17t-20 -57v-138h255v-460h-61v405h-193v-405h-60zM395 563q-19 0 -32 13t-13 32t13 32.5t32 13.5t32 -13.5t13 -32.5t-13 -32t-32 -13z" />
    <glyph glyph-name="f_f_i" unicode="ffi" horiz-adv-x="775" 
d="M111 0v404h-80v56h80v144q0 55 32 89.5t86 34.5q29 0 56.5 -7.5t35.5 -13.5l-24 -51q-35 16 -65 16q-22 0 -42 -17t-20 -57v-138h196v144q0 55 32 89.5t86 34.5q29 0 56.5 -7.5t35.5 -13.5l-24 -51q-35 16 -65 16q-22 0 -42 -17t-20 -57v-138h255v-460h-61v405h-193v-405
h-60v405h-195v-405h-60zM650 563q-19 0 -32 13t-13 32t13 32.5t32 13.5t32 -13.5t13 -32.5t-13 -32t-32 -13z" />
    <glyph glyph-name="f_f_j" unicode="ffj" horiz-adv-x="775" 
d="M548 -230l-34 42q106 72 106 207v386h-194v-405h-60v405h-195v-405h-60v404h-80v56h80v144q0 55 32 89.5t86 34.5q29 0 56.5 -7.5t35.5 -13.5l-24 -51q-35 16 -65 16q-22 0 -42 -17t-20 -57v-138h196v144q0 55 32 89.5t86 34.5q29 0 56.5 -7.5t35.5 -13.5l-24 -51
q-35 16 -65 16q-22 0 -42 -17t-20 -57v-138h255v-456q0 -148 -132 -234zM650 563q-19 0 -32 13t-13 32t13 32.5t32 13.5t32 -13.5t13 -32.5t-13 -32t-32 -13z" />
    <glyph glyph-name=".notdef" horiz-adv-x="180" 
 />
    <glyph glyph-name=".null" horiz-adv-x="0" 
 />
    <glyph glyph-name="nonmarkingreturn" horiz-adv-x="333" 
 />
    <glyph glyph-name="space" unicode=" " horiz-adv-x="180" 
 />
    <glyph glyph-name="exclam" unicode="!" horiz-adv-x="290" 
d="M145 -6q-19 0 -32 13t-13 32t13 32t32 13t32 -13t13 -32t-13 -32t-32 -13zM113 159v529h64v-529h-64z" />
    <glyph glyph-name="quotedbl" unicode="&#x22;" horiz-adv-x="286" 
d="M61 551l-11 170h68l-10 -170h-47zM178 551l-11 170h69l-11 -170h-47z" />
    <glyph glyph-name="numbersign" unicode="#" horiz-adv-x="643" 
d="M137 0l28 211h-95v57h104l21 158h-100v57h107l27 205h60l-28 -205h158l27 205h59l-28 -205h96v-57h-103l-20 -158h99v-57h-108l-28 -211h-61l28 211h-155l-29 -211h-59zM233 268h157l20 158h-157z" />
    <glyph glyph-name="dollar" unicode="$" horiz-adv-x="473" 
d="M219 -67v61q-103 3 -167 57l34 48q63 -49 133 -50v161q-72 23 -113 51t-41 77t45 87.5t109 45.5v58h49v-58q86 -6 148 -51l-36 -51q-40 36 -112 43v-153q29 -10 47 -16.5t41.5 -18.5t37 -23t23.5 -27.5t10 -34.5q0 -58 -44.5 -96t-114.5 -47v-63h-49zM219 275v138
q-40 -4 -65 -23.5t-25 -50.5q0 -20 23 -34.5t67 -29.5zM268 52q93 14 93 75q0 38 -93 68v-143z" />
    <glyph glyph-name="percent" unicode="%" horiz-adv-x="739" 
d="M180 344q-65 0 -107.5 48t-42.5 127t42 127t108 48q65 0 106 -47.5t41 -127.5q0 -79 -41.5 -127t-105.5 -48zM179 396q36 0 60.5 34t24.5 90q0 57 -24 90t-60 33q-37 0 -61.5 -33t-24.5 -90q0 -54 24.5 -89t60.5 -35zM556 -6q-65 0 -107.5 48t-42.5 127t42 127t109 48
q64 0 105.5 -48t41.5 -128q0 -79 -42 -126.5t-106 -47.5zM555 45q36 0 60.5 34t24.5 90q0 57 -23.5 90t-60.5 33t-61.5 -33t-24.5 -90q0 -54 24.5 -89t60.5 -35zM217 -30l-50 24l339 727l51 -23z" />
    <glyph glyph-name="ampersand" unicode="&#x26;" horiz-adv-x="659" 
d="M263 -7q-97 0 -155 58.5t-58 143.5q0 42 15.5 77t37.5 55.5t39 31.5t28 14q-103 51 -103 164q0 68 52 112.5t138 44.5q77 0 139 -48l-28 -49q-61 38 -120 38q-49 0 -80 -29t-31 -73q0 -36 15 -62.5t39.5 -40t49 -19.5t48.5 -6h340v-60h-109v-345h-64v54q-23 -17 -40 -27
t-59.5 -22t-93.5 -12zM269 55q112 0 187 69v221h-194q-57 -13 -98.5 -47.5t-41.5 -96.5q0 -67 44.5 -106.5t102.5 -39.5z" />
    <glyph glyph-name="quotesingle" unicode="'" horiz-adv-x="198" 
d="M76 551l-11 170h68l-10 -170h-47z" />
    <glyph glyph-name="parenleft" unicode="(" horiz-adv-x="369" 
d="M280 -225q-92 82 -142 200.5t-50 262.5q0 149 59 278.5t138 183.5l35 -38q-68 -51 -120.5 -168.5t-52.5 -255.5q0 -127 48.5 -242t121.5 -181z" />
    <glyph glyph-name="parenright" unicode=")" horiz-adv-x="369" 
d="M89 -225l-37 40q73 66 121.5 181t48.5 242q0 138 -52.5 255.5t-120.5 168.5l35 38q79 -54 138 -183.5t59 -278.5q0 -144 -50 -262.5t-142 -200.5z" />
    <glyph glyph-name="asterisk" unicode="*" horiz-adv-x="392" 
d="M143 365l-50 29l60 96l-113 -3v57l111 -4l-58 95l50 28l52 -99l54 100l50 -28l-60 -96l113 4v-57l-113 4l60 -98l-50 -29l-53 101zM195 470q18 0 31 13t13 31t-13 31t-31 13t-31 -13t-13 -31t13 -31t31 -13z" />
    <glyph glyph-name="plus" unicode="+" horiz-adv-x="489" 
d="M214 116v200h-195v60h195v192h61v-192h195v-60h-195v-200h-61z" />
    <glyph glyph-name="comma" unicode="," horiz-adv-x="200" 
d="M33 -89l50 173h78l-84 -173h-44z" />
    <glyph glyph-name="hyphen" unicode="-" horiz-adv-x="300" 
d="M20 228v60h260v-60h-260z" />
    <glyph glyph-name="period" unicode="." horiz-adv-x="200" 
d="M100 -6q-20 0 -34 14t-14 34t14 34t34 14t34 -14t14 -34t-14 -34t-34 -14z" />
    <glyph glyph-name="slash" unicode="/" horiz-adv-x="336" 
d="M56 -21l-56 20l279 709l57 -20z" />
    <glyph glyph-name="zero" unicode="0" horiz-adv-x="495" 
d="M250 -6q-56 0 -98.5 21.5t-66 57.5t-34.5 75t-11 81q0 40 12 79.5t35.5 76t65.5 59t96 22.5q55 0 96.5 -22.5t64.5 -58.5t34 -75.5t11 -79.5t-11 -79.5t-34 -75.5t-64.5 -58.5t-95.5 -22.5zM248 50q25 0 49 9.5t46 29.5t35.5 56.5t13.5 84.5q0 89 -43 134t-99 45
t-101.5 -44.5t-45.5 -135.5q0 -89 44.5 -134t100.5 -45z" />
    <glyph glyph-name="one" unicode="1" horiz-adv-x="328" 
d="M174 0v385l-119 -62l-29 52l162 85h50v-460h-64z" />
    <glyph glyph-name="two" unicode="2" horiz-adv-x="426" 
d="M50 0l-20 50q55 39 79.5 57t66.5 49.5t60.5 50t41 42.5t31 44t8.5 39q0 80 -108 80q-34 0 -70 -13t-60 -37l-32 43q31 31 77.5 48t91.5 17q76 0 122.5 -34t46.5 -100q0 -119 -249 -273h245v-63h-331z" />
    <glyph glyph-name="three" unicode="3" horiz-adv-x="445" 
d="M183 -235q-91 0 -158 50l28 56q70 -44 138 -44q62 0 97 36t35 105q0 71 -52.5 104.5t-125.5 33.5h-27v60h28q62 0 111.5 34t49.5 97q0 45 -31 77.5t-79 32.5q-63 0 -124 -36l-24 47q76 48 148 48q84 0 132.5 -44.5t48.5 -117.5q0 -59 -33.5 -103.5t-88.5 -58.5
q57 -14 98 -57t41 -123q0 -82 -57.5 -139.5t-154.5 -57.5z" />
    <glyph glyph-name="four" unicode="4" horiz-adv-x="481" 
d="M305 -202v211h-271l-34 49l290 402h80v-390h84v-61h-84v-211h-65zM83 70h222v314z" />
    <glyph glyph-name="five" unicode="5" horiz-adv-x="444" 
d="M187 -234q-89 0 -167 45l31 59q77 -45 134 -45q74 0 113 39.5t39 114.5q0 86 -40.5 119.5t-113.5 33.5q-29 0 -87 -9l-36 39l34 298h291v-64h-237l-22 -210q46 7 67 7q211 0 211 -208q0 -86 -55 -152.5t-162 -66.5z" />
    <glyph glyph-name="six" unicode="6" horiz-adv-x="487" 
d="M247 -7q-106 0 -156.5 69t-50.5 184q0 154 93.5 274t242.5 179l23 -58q-97 -37 -159 -95t-108 -153q74 16 112 16q89 0 146 -56.5t57 -145.5q0 -97 -54 -155.5t-146 -58.5zM248 51q63 0 97 43t34 108q0 59 -37.5 103t-95.5 44q-68 0 -129 -22q-9 -41 -9 -94
q0 -73 35.5 -127.5t104.5 -54.5z" />
    <glyph glyph-name="seven" unicode="7" horiz-adv-x="397" 
d="M128 -227l-63 20l253 600h-308v67h360l27 -46z" />
    <glyph glyph-name="eight" unicode="8" horiz-adv-x="482" 
d="M241 -5q-82 0 -141.5 53.5t-59.5 131.5q0 126 128 182q-111 55 -111 154q0 68 48 123t138 55q85 0 134 -53t49 -119q0 -58 -32.5 -100t-81.5 -64q54 -19 92 -61.5t38 -111.5q0 -80 -57 -135t-144 -55zM241 52q59 0 98 35.5t39 92.5q0 33 -11.5 58t-34.5 42.5t-44 28
t-53 22.5q-56 -19 -93.5 -55.5t-37.5 -88.5q0 -49 39.5 -92t97.5 -43zM252 386q108 40 108 130q0 60 -36 90.5t-82 30.5t-83 -30t-37 -85q0 -89 130 -136z" />
    <glyph glyph-name="nine" unicode="9" horiz-adv-x="488" 
d="M111 -240l-23 59q97 37 159 95t108 153q-74 -16 -112 -16q-89 0 -146 56.5t-57 145.5q0 97 54 155t146 58q106 0 157 -68.5t51 -183.5q0 -154 -93.5 -274.5t-243.5 -179.5zM242 111q67 0 128 22q9 41 9 94q0 73 -35.5 127t-104.5 54q-62 0 -96.5 -42.5t-34.5 -107.5
q0 -59 38 -103t96 -44z" />
    <glyph glyph-name="colon" unicode=":" horiz-adv-x="200" 
d="M100 -6q-21 0 -35.5 14.5t-14.5 35.5t14.5 35.5t35.5 14.5t35.5 -14.5t14.5 -35.5t-14.5 -35.5t-35.5 -14.5zM100 359q-21 0 -35.5 15t-14.5 35q0 21 14.5 35.5t35.5 14.5t35.5 -14.5t14.5 -35.5q0 -20 -14.5 -35t-35.5 -15z" />
    <glyph glyph-name="semicolon" unicode=";" horiz-adv-x="200" 
d="M104 366q-20 0 -34.5 15t-14.5 35q0 21 14.5 35.5t34.5 14.5q21 0 35.5 -14.5t14.5 -35.5q0 -20 -14.5 -35t-35.5 -15zM30 -89l50 173h78l-84 -173h-44z" />
    <glyph glyph-name="less" unicode="&#x3c;" horiz-adv-x="478" 
d="M363 91l-293 236l292 250l42 -41l-245 -208l249 -195z" />
    <glyph glyph-name="equal" unicode="=" horiz-adv-x="558" 
d="M70 232v57h418v-57h-418zM70 391v57h418v-57h-418z" />
    <glyph glyph-name="greater" unicode="&#x3e;" horiz-adv-x="478" 
d="M114 91l-44 42l249 194l-245 208l42 42l292 -249z" />
    <glyph glyph-name="question" unicode="?" horiz-adv-x="399" 
d="M115 161v186q72 0 114 35.5t42 104.5q0 72 -42.5 108.5t-113.5 36.5v61q102 0 163 -52.5t61 -153.5q0 -48 -16 -85t-37 -56t-46.5 -30.5t-40.5 -14.5t-23 -3v-137h-61zM190 39q0 -19 -14 -32t-31 -13q-19 0 -32 13t-13 32t13 32t32 13t32 -13t13 -32z" />
    <glyph glyph-name="at" unicode="@" horiz-adv-x="796" 
d="M400 -124q-65 0 -125.5 24t-108.5 68.5t-77 116t-29 158.5q0 86 30 155t80.5 112t114 66t132.5 23q134 0 226.5 -84.5t92.5 -222.5q0 -82 -18 -138t-48 -80.5t-56 -33t-56 -8.5q-26 0 -52.5 14t-39.5 31q-60 -45 -115 -45q-51 0 -79 28.5t-28 71.5q0 31 13 54.5
t40.5 39.5t55.5 26t73 22l36 9v33q0 70 -70 70q-26 0 -54 -15.5t-43 -29.5l-32 40q72 58 134 58q121 0 121 -113v-219q20 -23 44 -23q18 0 34.5 7t36 26t31.5 63t12 109q0 106 -74 180.5t-184 74.5q-132 0 -214.5 -82.5t-82.5 -212.5q0 -49 13.5 -99.5t43 -101.5t86.5 -83.5
t134 -32.5q46 0 91 16l21 -50q-55 -22 -110 -22zM360 86q34 0 101 46v100l-29 -7q-129 -32 -129 -85q0 -54 57 -54z" />
    <glyph glyph-name="A" unicode="A" horiz-adv-x="618" 
d="M78 -8l-58 20l269 676h46l263 -674l-63 -20l-90 232h-274zM195 286h226l-113 290z" />
    <glyph glyph-name="B" unicode="B" horiz-adv-x="528" 
d="M90 0v688h177q21 0 42 -3t47 -13.5t45 -28t32 -48.5t13 -72q0 -100 -94 -151l-1.5 -1.5t-1.5 -0.5q18 -5 41.5 -21t48 -55.5t24.5 -89.5q0 -108 -68.5 -156t-172.5 -48h-132zM154 60h68q83 0 128 31.5t45 112.5q0 59 -43.5 95t-111.5 36h-86v-275zM154 396h67
q81 0 120 36.5t39 91.5q0 103 -135 103h-91v-231z" />
    <glyph glyph-name="C" unicode="C" horiz-adv-x="548" 
d="M373 -6q-60 0 -116.5 23t-103 65t-75 110.5t-28.5 151.5q0 156 100.5 253t233.5 97q95 0 149 -36l-28 -56q-54 31 -132 31q-40 0 -83.5 -18t-82.5 -52t-64.5 -91.5t-25.5 -127.5q0 -123 74.5 -206t181.5 -83q77 0 134 27l26 -54q-62 -34 -160 -34z" />
    <glyph glyph-name="D" unicode="D" horiz-adv-x="692" 
d="M90 0v688h230q90 0 156 -30.5t100.5 -81.5t50 -106t15.5 -116q0 -152 -95.5 -253t-239.5 -101h-217zM154 60h133q35 0 70.5 8t75.5 29t70.5 53.5t50.5 86.5t20 123q0 53 -12.5 96t-31.5 70.5t-46.5 47.5t-52 30t-55 15.5t-47.5 6.5t-37 1h-138v-567z" />
    <glyph glyph-name="E" unicode="E" 
d="M90 0v688h360v-61h-296v-243h274v-60h-274v-264h296v-60h-360z" />
    <glyph glyph-name="F" unicode="F" horiz-adv-x="480" 
d="M90 0v688h360v-61h-296v-243h274v-60h-274v-324h-64z" />
    <glyph glyph-name="G" unicode="G" horiz-adv-x="658" 
d="M377 -6q-142 0 -234.5 101t-92.5 242q0 145 99 251t243 106q110 0 187 -46l-32 -51q-59 36 -156 36q-120 0 -196.5 -87t-76.5 -208q0 -119 71.5 -201.5t189.5 -82.5q47 0 89.5 13t65.5 33v182h-181v60h245v-269q-40 -37 -102 -58t-119 -21z" />
    <glyph glyph-name="H" unicode="H" horiz-adv-x="690" 
d="M90 0v688h65v-300h381v300h64v-688h-64v327h-381v-327h-65z" />
    <glyph glyph-name="I" unicode="I" horiz-adv-x="244" 
d="M90 0v688h64v-688h-64z" />
    <glyph glyph-name="J" unicode="J" horiz-adv-x="244" 
d="M-82 -212v58q73 0 122.5 46t49.5 150v646h64v-660q0 -115 -63 -177.5t-173 -62.5z" />
    <glyph glyph-name="K" unicode="K" horiz-adv-x="574" 
d="M500 -6l-334 373l320 328l53 -36l-285 -288l300 -338zM90 0v688h65v-688h-65z" />
    <glyph glyph-name="L" unicode="L" horiz-adv-x="468" 
d="M90 0v688h64v-627h304v-61h-368z" />
    <glyph glyph-name="M" unicode="M" horiz-adv-x="872" 
d="M145 -6l-65 4l40 690h80l234 -568l258 568h70l30 -690l-64 -4l-25 583l-235 -527l-70 -1l-221 531z" />
    <glyph glyph-name="N" unicode="N" horiz-adv-x="741" 
d="M90 0v688h78l418 -601v601h65v-688h-81l-415 598v-598h-65z" />
    <glyph glyph-name="O" unicode="O" horiz-adv-x="770" 
d="M386 -6q-149 0 -242.5 98t-93.5 252q0 150 93 250t244 100q145 0 239 -102t94 -247q0 -156 -94 -253.5t-240 -97.5zM383 55q123 0 197.5 84t74.5 205q0 122 -73 205.5t-196 83.5t-196.5 -83.5t-73.5 -205.5q0 -115 73 -202t194 -87z" />
    <glyph glyph-name="P" unicode="P" horiz-adv-x="499" 
d="M90 0v688h173q28 0 54 -4.5t52.5 -17t46 -31.5t31.5 -51t12 -73q0 -86 -61 -149.5t-169 -63.5h-75v-298h-64zM154 358h61q51 0 87.5 14t55 38t26.5 49t8 53q0 115 -147 115h-91v-269z" />
    <glyph glyph-name="Q" unicode="Q" horiz-adv-x="770" 
d="M753 -6l-279 5q-81 -5 -88 -5q-149 0 -242.5 98t-93.5 252q0 150 93 250t244 100q145 0 239 -102t94 -247q0 -96 -38.5 -174t-107.5 -120l179 2v-59zM383 55q123 0 197.5 84t74.5 205q0 122 -73 205.5t-196 83.5t-196.5 -83.5t-73.5 -205.5q0 -115 73 -202t194 -87z" />
    <glyph glyph-name="R" unicode="R" horiz-adv-x="512" 
d="M431 -9l-210 321h-66v-312h-65v688h168q199 0 199 -170q0 -79 -49 -131.5t-118 -67.5l202 -299zM155 373h56q178 0 178 146q0 29 -9.5 49.5t-23.5 32t-35.5 18t-39.5 8t-42 1.5h-84v-255z" />
    <glyph glyph-name="S" unicode="S" horiz-adv-x="473" 
d="M226 -6q-107 0 -176 69l40 46q29 -29 65.5 -42t65.5 -13q57 0 97 34t40 88q0 27 -8.5 49t-18 35.5t-32.5 28.5t-34.5 21t-42.5 20q-10 5 -15 7q-77 36 -111.5 75.5t-34.5 116.5q0 69 55.5 117t128.5 48q47 0 81.5 -9.5t85.5 -42.5l-36 -51q-32 21 -57 30.5t-36 10.5
t-40 1q-39 0 -78 -28t-39 -81q0 -23 7 -42t15.5 -31t26.5 -24.5t30 -19t36 -17.5q91 -42 120 -66q62 -52 62 -144q0 -78 -57.5 -132t-139.5 -54z" />
    <glyph glyph-name="T" unicode="T" 
d="M218 0v627h-223v61h507v-61h-219v-627h-65z" />
    <glyph glyph-name="U" unicode="U" horiz-adv-x="660" 
d="M332 -7q-115 0 -186 61.5t-71 164.5v469h65v-459q0 -80 54 -127t141 -47q85 0 135 43.5t50 138.5v451h65v-467q0 -107 -73 -167.5t-180 -60.5z" />
    <glyph glyph-name="V" unicode="V" horiz-adv-x="618" 
d="M282 0l-262 674l63 20l226 -580l231 582l58 -20l-266 -676h-50z" />
    <glyph glyph-name="W" unicode="W" horiz-adv-x="889" 
d="M233 0l-213 676l64 17l174 -561l165 556h45l171 -562l171 568l59 -16l-209 -678h-46l-170 562l-165 -562h-46z" />
    <glyph glyph-name="X" unicode="X" horiz-adv-x="557" 
d="M73 -6l-53 29l220 321l-219 319l56 31l202 -294l202 294l51 -31l-217 -316l222 -322l-57 -31l-203 296z" />
    <glyph glyph-name="Y" unicode="Y" horiz-adv-x="520" 
d="M228 0v328l-228 334l53 31l208 -300l207 300l52 -33l-228 -332v-328h-64z" />
    <glyph glyph-name="Z" unicode="Z" horiz-adv-x="566" 
d="M61 0l-26 51l407 571h-395v60h460l24 -45l-411 -577h404v-60h-463z" />
    <glyph glyph-name="bracketleft" unicode="[" horiz-adv-x="272" 
d="M70 -240v961h182v-54h-121v-853h121v-54h-182z" />
    <glyph glyph-name="backslash" unicode="\" horiz-adv-x="335" 
d="M280 -21l-280 709l56 20l280 -709z" />
    <glyph glyph-name="bracketright" unicode="]" horiz-adv-x="272" 
d="M20 -240v54h120v853h-120v54h182v-961h-182z" />
    <glyph glyph-name="asciicircum" unicode="^" horiz-adv-x="589" 
d="M42 263l213 414h81l211 -414h-69l-184 361l-186 -361h-66z" />
    <glyph glyph-name="underscore" unicode="_" horiz-adv-x="500" 
d="M0 -150v56h500v-56h-500z" />
    <glyph glyph-name="grave" unicode="`" horiz-adv-x="257" 
d="M185 524l-145 123l45 47l132 -138z" />
    <glyph glyph-name="a" unicode="a" horiz-adv-x="439" 
d="M368 -12l-67 62q-77 -56 -139 -56q-57 0 -88 32.5t-31 81.5q0 67 49.5 100t157.5 62l44 12v44q0 85 -85 85q-49 0 -111 -52l-35 43q1 1 11 9.5t17 13.5t21.5 14t27.5 14t31.5 9t37.5 4q64 0 104.5 -32t40.5 -97v-255l55 -49zM257 221q-1 0 -2 -1q-151 -41 -151 -107
q0 -68 67 -68q44 0 123 57v129l-38 -11zM256 220h-1h1z" />
    <glyph glyph-name="b" unicode="b" horiz-adv-x="516" 
d="M277 -6q-30 0 -62 13.5t-43 22t-32 25.5v-55h-60v721h60v-316q2 1 14 10t24 16t29 16t37.5 14t41.5 5q66 0 110.5 -37t62 -88t17.5 -110q0 -91 -52 -164t-147 -73zM275 50q60 0 100.5 49.5t40.5 130.5q0 82 -35.5 130.5t-97.5 48.5q-70 0 -143 -69v-220q1 -1 9.5 -9
t12.5 -11.5t13.5 -11t16 -12t17.5 -10t20.5 -8.5t21.5 -5.5t24 -2.5z" />
    <glyph glyph-name="c" unicode="c" horiz-adv-x="414" 
d="M258 -6q-96 0 -154.5 69t-58.5 167q0 108 64.5 172t151.5 64q75 0 134 -40q-29 -50 -29 -51q-47 34 -102 34q-69 0 -113 -50t-44 -133t45 -129.5t109 -46.5q58 0 113 38l30 -51q-72 -43 -146 -43z" />
    <glyph glyph-name="d" unicode="d" horiz-adv-x="516" 
d="M239 -6q-49 0 -88 21.5t-62.5 57t-36 76t-12.5 82.5q0 94 47.5 164.5t142.5 70.5q25 0 52 -8.5t42 -17.5t33.5 -21.5t19.5 -13.5v316h59v-721h-59v55q-1 -1 -9 -7t-12 -8.5t-12.5 -8.5t-14.5 -9.5t-15.5 -8.5t-17.5 -7.5t-17.5 -5.5t-19.5 -4.5t-20 -1.5zM241 50
q11 0 23 2.5t21.5 5.5t20.5 9t18 10t17 12t14 11.5t12.5 11t9.5 8.5v220q-1 1 -8 7.5t-11.5 10t-14 11t-17 12t-19 10.5t-22.5 9.5t-24.5 6t-27.5 2.5q-62 0 -97 -48.5t-35 -130.5q0 -81 40 -130.5t100 -49.5z" />
    <glyph glyph-name="e" unicode="e" horiz-adv-x="442" 
d="M253 -6q-99 0 -155 66t-56 165q0 103 53.5 172t150.5 69q86 0 127 -55.5t41 -145.5v-36h-310q0 -76 39 -127t114 -51q64 0 114 35l7 -13q8 -13 15 -26l7 -13q-67 -40 -147 -40zM110 283h241q0 53 -27.5 89.5t-78.5 36.5q-57 0 -92 -39.5t-43 -86.5z" />
    <glyph glyph-name="f" unicode="f" horiz-adv-x="281" 
d="M111 0v404h-80v56h80v144q0 55 32 89.5t86 34.5q25 0 48 -5t33 -11l11 -5l-24 -52q-26 17 -65 17q-22 0 -42 -17t-20 -57v-138h111v-55h-110v-405h-60z" />
    <glyph glyph-name="g" unicode="g" horiz-adv-x="457" 
d="M214 -239q-83 0 -138.5 50t-55.5 114q0 34 14 63t34.5 47t44 30.5t42.5 17.5t31 5v67q-56 10 -95 53.5t-39 100.5q0 65 48 111t113 46q45 0 86 -26l148 25v-60h-107q34 -44 34 -96q0 -59 -39 -102t-97 -52v-67q18 0 44.5 -9t56.5 -26.5t51 -51t21 -76.5q0 -66 -57 -115
t-140 -49zM214 -189q54 0 94.5 34t40.5 81q0 48 -40 82t-94 34t-94 -34t-40 -82q0 -47 39.5 -81t93.5 -34zM213 206q42 0 71.5 30t29.5 73t-29.5 73.5t-71.5 30.5t-72 -30.5t-30 -73.5t30 -73t72 -30z" />
    <glyph glyph-name="h" unicode="h" 
d="M80 0v721h60v-324q29 28 75 48.5t84 20.5q55 0 91.5 -32.5t36.5 -80.5v-353h-59v325q0 82 -80 82q-66 0 -148 -82v-325h-60z" />
    <glyph glyph-name="i" unicode="i" horiz-adv-x="250" 
d="M125 563q-19 0 -32 13.5t-13 32.5t13 32t32 13t32 -13t13 -32t-13 -32.5t-32 -13.5zM94 0v460h61v-460h-61z" />
    <glyph glyph-name="j" unicode="j" horiz-adv-x="250" 
d="M124 563q-19 0 -32 13.5t-13 32.5t13 32t32 13t32.5 -13t13.5 -32t-13.5 -32.5t-32.5 -13.5zM22 -230l-34 42q106 72 106 207v441h60v-456q0 -148 -132 -234z" />
    <glyph glyph-name="k" unicode="k" horiz-adv-x="445" 
d="M377 -7l-232 267l226 206l44 -38l-196 -170l209 -232zM80 0v721h60v-721h-60z" />
    <glyph glyph-name="l" unicode="l" horiz-adv-x="220" 
d="M80 0v721h60v-721h-60z" />
    <glyph glyph-name="m" unicode="m" horiz-adv-x="754" 
d="M80 0v460h60v-63q39 35 81 52t73 17q89 0 113 -71q78 70 157 70q60 0 90 -32t30 -76v-357h-60v344q0 35 -20 49.5t-45 14.5q-40 0 -82.5 -28t-62.5 -51v-329h-61v344q0 35 -20 49.5t-44 14.5q-44 0 -91.5 -32t-57.5 -48v-328h-60z" />
    <glyph glyph-name="n" unicode="n" 
d="M80 0v460h60v-64q76 70 151 70q68 0 102 -34t34 -85v-347h-60v325q0 43 -22 63.5t-57 20.5q-44 0 -91 -32t-57 -48v-329h-60z" />
    <glyph glyph-name="o" unicode="o" horiz-adv-x="505" 
d="M255 -6q-56 0 -100 22t-69 57t-38 75t-13 81q0 39 13.5 79.5t38.5 76.5t69 58.5t98 22.5q55 0 98 -22.5t68 -58.5t37.5 -75.5t12.5 -79.5q0 -54 -21 -106t-72 -91t-122 -39zM253 50q57 0 105.5 44.5t48.5 135.5q0 88 -47.5 133.5t-104.5 45.5t-107 -44.5t-50 -135.5
q0 -88 48.5 -133.5t106.5 -45.5z" />
    <glyph glyph-name="p" unicode="p" horiz-adv-x="516" 
d="M80 -239v699h60v-55q2 1 14 10t24 16t29 16t37.5 14t41.5 5q66 0 110.5 -37t62 -88t17.5 -110q0 -91 -52 -164t-147 -73q-61 0 -137 57v-290h-60zM275 50q60 0 100.5 49.5t40.5 130.5q0 82 -35.5 130.5t-97.5 48.5q-70 0 -143 -69v-225q71 -65 135 -65z" />
    <glyph glyph-name="q" unicode="q" horiz-adv-x="516" 
d="M377 -239v294q-1 -1 -9 -7t-12 -8.5t-12.5 -8.5t-14.5 -9.5t-15.5 -8.5t-17.5 -7.5t-17.5 -5.5t-19.5 -4.5t-20 -1.5q-49 0 -88 21.5t-62.5 57t-36 76t-12.5 82.5q0 94 47.5 164.5t142.5 70.5q25 0 52 -8.5t42 -17.5t33.5 -21.5t19.5 -13.5v55h59v-699h-59zM241 50
q11 0 23 2.5t21.5 5.5t20.5 9t18 10t17 12t14 11.5t12.5 11t9.5 8.5v220q-1 1 -8 7.5t-11.5 10t-14 11t-17 12t-19 10.5t-22.5 9.5t-24.5 6t-27.5 2.5q-62 0 -97 -48.5t-35 -130.5q0 -81 40 -130.5t100 -49.5z" />
    <glyph glyph-name="r" unicode="r" horiz-adv-x="332" 
d="M81 0v460h60v-65q10 12 24 25t42 29.5t52 16.5q37 0 74 -16l-25 -59q-28 14 -58 14q-28 0 -60 -24.5t-49 -52.5v-328h-60z" />
    <glyph glyph-name="s" unicode="s" horiz-adv-x="350" 
d="M168 -6q-74 0 -123 34l29 51q40 -29 92 -29q34 0 57 19.5t23 51.5q0 33 -24 54.5t-76 46.5q-52 26 -75 54t-23 75q0 53 41.5 84t90.5 31q68 0 114 -33l-28 -49q-33 25 -85 25q-30 0 -51 -15.5t-21 -41.5q0 -11 3.5 -21t6 -15.5t12.5 -13.5t13 -10t18.5 -11t17.5 -10
q3 -2 23.5 -12.5t26.5 -14.5t22.5 -15.5t23 -20.5t16 -22.5t13 -29.5t3.5 -35q0 -59 -43.5 -93t-96.5 -34z" />
    <glyph glyph-name="t" unicode="t" horiz-adv-x="311" 
d="M210 -6q-54 0 -79.5 29.5t-25.5 90.5v290h-80v56h79v86h60v-86h121v-56h-120v-280q0 -74 48 -74q17 0 33.5 4.5t23.5 9.5l8 4l23 -50q-34 -24 -91 -24z" />
    <glyph glyph-name="u" unicode="u" horiz-adv-x="492" 
d="M207 -6q-69 0 -103 34t-34 85v347h60v-325q0 -84 80 -84q42 0 86 30.5t56 48.5v330h60v-460h-60v65q-80 -71 -145 -71z" />
    <glyph glyph-name="v" unicode="v" horiz-adv-x="430" 
d="M183 0l-168 445l55 21l147 -387l146 386l52 -20l-169 -445h-63z" />
    <glyph glyph-name="w" unicode="w" horiz-adv-x="711" 
d="M168 0l-153 446l55 19l129 -382l126 377h62l125 -377l130 382l54 -17l-153 -448h-62l-125 370l-127 -370h-61z" />
    <glyph glyph-name="x" unicode="x" horiz-adv-x="440" 
d="M425 22l-51 -28l-157 201l-153 -201l-49 29l169 214l-159 203l54 25l146 -185l140 186l53 -26l-160 -204z" />
    <glyph glyph-name="y" unicode="y" horiz-adv-x="451" 
d="M37 -238q-15 0 -22 1v53q6 -1 18 -1q38 0 69 21t45 56l54 132l-184 419l56 23l159 -366l150 366l54 -20l-230 -563q-23 -56 -67 -88.5t-102 -32.5z" />
    <glyph glyph-name="z" unicode="z" horiz-adv-x="396" 
d="M49 0l-24 42l256 363h-241v55h302l17 -45l-254 -359h240v-56h-296z" />
    <glyph glyph-name="braceleft" unicode="{" horiz-adv-x="310" 
d="M250 -241q-69 0 -99.5 30t-30.5 95v217q0 60 -18 87t-75 28v50q57 1 75 32.5t18 95.5v202q0 125 130 125h28v-58h-26q-20 0 -34 -5.5t-21 -13t-11 -22.5t-4.5 -26.5t-0.5 -31.5v-183q0 -59 -16 -92.5t-65 -48.5q49 -9 65 -40t16 -86v-199q0 -47 14 -72.5t57 -25.5h26v-58
h-28z" />
    <glyph glyph-name="bar" unicode="|" horiz-adv-x="231" 
d="M84 -178v939h59v-939h-59z" />
    <glyph glyph-name="braceright" unicode="}" horiz-adv-x="310" 
d="M32 -240v58h25q44 0 58 25.5t14 72.5v196q0 55 16 86t65 40q-49 15 -65 48.5t-16 92.5v185q0 25 -1.5 39t-8 30t-22 23t-40.5 7h-25v58h28q129 0 129 -125v-204q0 -64 18.5 -95.5t75.5 -32.5v-50q-57 -1 -75.5 -28t-18.5 -87v-214q0 -65 -30 -95t-99 -30h-28z" />
    <glyph glyph-name="asciitilde" unicode="~" horiz-adv-x="545" 
d="M365 282q-42 0 -107.5 34t-88.5 34q-25 0 -57.5 -19.5t-50.5 -41.5l-41 35q64 89 152 89q42 0 106.5 -34t87.5 -34q32 0 62 17t48 43l49 -32q-67 -91 -160 -91z" />
    <glyph glyph-name="uni00A0" unicode="&#xa0;" horiz-adv-x="180" 
 />
    <glyph glyph-name="exclamdown" unicode="&#xa1;" horiz-adv-x="290" 
d="M145 409q-19 0 -32 13t-13 32t13 32t32 13t32 -13t13 -32t-13 -32t-32 -13zM114 -195v528h64v-528h-64z" />
    <glyph glyph-name="cent" unicode="&#xa2;" horiz-adv-x="414" 
d="M223 -67v64q-82 12 -130 78.5t-48 154.5q0 96 51 157t127 75v61h49v-58q70 -3 123 -39q-29 -50 -29 -51q-42 31 -94 34v-358q55 4 102 37l30 -51q-67 -39 -132 -43v-61h-49zM223 55v349q-53 -14 -84.5 -61.5t-31.5 -116.5q0 -70 32.5 -114t83.5 -57z" />
    <glyph glyph-name="sterling" unicode="&#xa3;" horiz-adv-x="470" 
d="M62 0v50q74 70 77 149h-76v55h74v34q0 89 51.5 136.5t134.5 47.5q67 0 107 -24l-24 -60q-40 22 -81 22q-56 0 -87.5 -32.5t-31.5 -84.5q0 -5 0.5 -18.5t0.5 -20.5h105v-55h-107q-9 -90 -66 -138h311v-61h-388z" />
    <glyph glyph-name="currency" unicode="&#xa4;" horiz-adv-x="496" 
d="M73 144l-33 34l72 70q-33 42 -33 104q0 66 32 104l-71 71l33 32l70 -70q53 34 105 34q63 0 105 -32l69 70l34 -35l-70 -70q32 -35 32 -104t-34 -106l70 -70l-31 -34l-70 70q-51 -30 -105 -30q-60 0 -103 32zM248 229q60 0 91.5 34t31.5 89q1 54 -31.5 89t-91.5 35
t-91.5 -35t-32.5 -89q0 -53 33 -88t91 -35z" />
    <glyph glyph-name="yen" unicode="&#xa5;" horiz-adv-x="540" 
d="M248 0v70h-192v53h192v74h-192v52h147l-137 204l53 31l162 -234l161 231l52 -33l-138 -199h141v-52h-185v-74h185v-53h-185v-70h-64z" />
    <glyph glyph-name="brokenbar" unicode="&#xa6;" horiz-adv-x="224" 
d="M76 -178v384h66v-384h-66zM76 391v370h66v-370h-66z" />
    <glyph glyph-name="section" unicode="&#xa7;" horiz-adv-x="434" 
d="M218 -122q-103 0 -173 59l37 49q21 -15 35 -23.5t42 -16.5t60 -8q43 0 76 22t33 59q0 31 -29.5 55t-72 42t-85 38t-72 54.5t-29.5 81.5q0 57 35 97.5t61 50.5l-10 6q-11 6 -15.5 9.5t-15 11.5t-16 16t-12.5 19.5t-10 25.5t-3 30q0 60 45 99t123 39q35 0 65.5 -8.5
t41.5 -14t38 -21.5l-36 -51q-51 34 -107 34q-44 0 -73.5 -19t-29.5 -55q0 -29 28 -51.5t68.5 -39.5t80.5 -36t68 -52.5t28 -79.5q0 -84 -107 -144q1 0 15 -7.5t22.5 -13t23.5 -17t23.5 -23.5t15.5 -30.5t7 -38.5q0 -65 -48 -106.5t-128 -41.5zM228 185q37 18 68 46.5
t32 61.5q0 20 -9 36.5t-28.5 29.5t-32 20t-38.5 17.5t-28 11.5q-26 -10 -56.5 -40.5t-30.5 -71.5q0 -19 9 -35t26 -28.5t29.5 -20t34 -17t24.5 -10.5z" />
    <glyph glyph-name="dieresis" unicode="&#xa8;" horiz-adv-x="291" 
d="M67 565q-19 0 -32 13t-13 32t13 32t32 13t32 -13t13 -32t-13 -32t-32 -13zM224 565q-19 0 -32.5 13t-13.5 32t13.5 32t32.5 13t32 -13t13 -32t-13 -32t-32 -13z" />
    <glyph glyph-name="copyright" unicode="&#xa9;" horiz-adv-x="796" 
d="M421 131q-73 0 -135.5 55t-62.5 148q0 90 61.5 146.5t142.5 56.5q59 0 100 -26l-26 -47q-36 20 -80 20q-49 0 -94 -40t-45 -110q0 -64 40.5 -107t98.5 -43q44 0 82 19l24 -47q-45 -25 -106 -25zM415 -29q-150 0 -256 106t-106 255q0 150 106 256t256 106q149 0 255 -106
t106 -256q0 -149 -106 -255t-255 -106zM415 25q124 0 212 90t88 217t-88 217.5t-212 90.5q-125 0 -213 -90.5t-88 -217.5t88.5 -217t212.5 -90z" />
    <glyph glyph-name="ordfeminine" unicode="&#xaa;" horiz-adv-x="381" 
d="M290 332l-49 45q-49 -37 -98 -37q-44 0 -68.5 26t-24.5 64q0 17 5.5 32t12.5 25.5t22 20.5t24 15.5t30 12.5t28 9.5t30.5 8t25.5 6.5v24q0 52 -51 52q-38 0 -80 -42l-37 46q3 2 15.5 11.5t16 12t14 9t16 9t15.5 6t19.5 4.5t20.5 1q49 0 80.5 -25t31.5 -76v-176l42 -39z
M150 395q26 0 78 36v75l-15 -5q-31 -8 -50 -15t-35.5 -21t-16.5 -32q0 -38 39 -38z" />
    <glyph glyph-name="guillemotleft" unicode="&#xab;" horiz-adv-x="494" 
d="M202 43l-122 171l122 171l48 -31l-102 -140l102 -139zM366 43l-122 171l122 171l48 -31l-102 -140l102 -139z" />
    <glyph glyph-name="logicalnot" unicode="&#xac;" horiz-adv-x="485" 
d="M389 115v199h-357v60h421v-259h-64z" />
    <glyph glyph-name="registered" unicode="&#xae;" horiz-adv-x="542" 
d="M315 416l-50 79h-16v-73h-39v201h50q82 0 82 -59q0 -44 -36 -60q9 -12 23.5 -35t23.5 -36zM271 333q-75 0 -128 53t-53 127q0 76 53 129t128 53t128 -53t53 -129q0 -74 -53 -127t-128 -53zM271 368q59 0 101 42.5t42 102.5q0 61 -42 104t-101 43t-101 -43t-42 -104
q0 -60 42 -102.5t101 -42.5zM249 529h13q38 0 38 33q0 12 -9.5 19.5t-21.5 7.5h-20v-60z" />
    <glyph glyph-name="macron" unicode="&#xaf;" horiz-adv-x="275" 
d="M30 551v54h215v-54h-215z" />
    <glyph glyph-name="degree" unicode="&#xb0;" horiz-adv-x="333" 
d="M164 450q-50 0 -85.5 35.5t-35.5 85.5t35.5 86t85.5 36q51 0 86.5 -36t35.5 -86t-35.5 -85.5t-86.5 -35.5zM164 498q30 0 51 21.5t21 51.5t-21 52t-51 22q-29 0 -50 -22t-21 -52q0 -29 21 -51t50 -22z" />
    <glyph glyph-name="plusminus" unicode="&#xb1;" horiz-adv-x="491" 
d="M215 170v195h-190v60h190v195h61v-195h190v-60h-190v-195h-61zM25 0v60h441v-60h-441z" />
    <glyph glyph-name="twosuperior" unicode="&#xb2;" horiz-adv-x="306" 
d="M50 335l-13 36q1 1 16 14.5t24 22.5l27 27t30.5 31.5t27.5 32t24 33t15.5 30.5t6.5 28q0 19 -16 36.5t-42 17.5q-46 0 -71 -36l-34 30q34 53 108 53q49 0 79 -26t30 -73q0 -78 -146 -208h144v-49h-210z" />
    <glyph glyph-name="threesuperior" unicode="&#xb3;" horiz-adv-x="278" 
d="M126 331q-56 0 -91 27l21 44q36 -22 74 -22q25 0 39.5 15t14.5 44q0 30 -22.5 44.5t-53.5 14.5h-25v47h25q26 0 47 14t21 41q0 18 -12.5 31.5t-30.5 13.5q-38 0 -68 -17l-21 38q40 25 89 25q47 0 74 -24t27 -64q0 -49 -46 -78q54 -26 54 -89q0 -43 -32 -74t-84 -31z" />
    <glyph glyph-name="acute" unicode="&#xb4;" horiz-adv-x="257" 
d="M72 524l-32 32l131 138l46 -47z" />
    <glyph glyph-name="mu" unicode="&#xb5;" horiz-adv-x="492" 
d="M70 -184v644h60v-325q0 -44 22.5 -64t57.5 -20q43 0 86.5 30.5t55.5 48.5v330h60v-460h-60v65q-77 -71 -145 -71q-45 0 -77 16v-194h-60z" />
    <glyph glyph-name="mu" unicode="&#x3bc;" horiz-adv-x="492" 
d="M70 -184v644h60v-325q0 -44 22.5 -64t57.5 -20q43 0 86.5 30.5t55.5 48.5v330h60v-460h-60v65q-77 -71 -145 -71q-45 0 -77 16v-194h-60z" />
    <glyph glyph-name="paragraph" unicode="&#xb6;" horiz-adv-x="520" 
d="M362 -184v798h-52v-329h-68q-29 0 -62 12.5t-65.5 37t-53.5 67.5t-21 96q0 41 12 73t31.5 51t46 31.5t52.5 17t54 4.5h194v-859h-68zM242 346v268q-58 0 -96.5 -26.5t-38.5 -87.5q0 -46 18.5 -80t44.5 -48t44 -20t28 -6z" />
    <glyph glyph-name="periodcentered" unicode="&#xb7;" horiz-adv-x="136" 
d="M68 301q-20 0 -34 14.5t-14 33.5q0 20 14 34t34 14t34 -14t14 -34t-14 -34t-34 -14z" />
    <glyph glyph-name="cedilla" unicode="&#xb8;" horiz-adv-x="206" 
d="M57 -226l-23 42q32 15 43.5 27.5t11.5 31.5q0 29 -37 66l33 78l47 -14l-21 -50q38 -35 38 -82q0 -34 -26 -60t-66 -39z" />
    <glyph glyph-name="onesuperior" unicode="&#xb9;" horiz-adv-x="189" 
d="M83 335v292q-11 -5 -30.5 -16t-28.5 -15l-24 41l97 51h38v-353h-52z" />
    <glyph glyph-name="ordmasculine" unicode="&#xba;" horiz-adv-x="381" 
d="M192 340q-80 0 -120 54t-40 121q0 40 15 78.5t53 68.5t92 30q78 0 117.5 -55t39.5 -121t-39.5 -121t-117.5 -55zM191 398q36 0 65.5 28.5t29.5 89.5q0 58 -28.5 87.5t-65.5 29.5q-36 0 -66.5 -29t-30.5 -89q0 -59 29.5 -88t66.5 -29z" />
    <glyph glyph-name="guillemotright" unicode="&#xbb;" horiz-adv-x="494" 
d="M128 43l-48 32l102 139l-102 140l48 31l122 -171zM293 43l-49 32l102 139l-102 140l49 31l121 -171z" />
    <glyph glyph-name="onequarter" unicode="&#xbc;" horiz-adv-x="759" 
d="M151 335v292q-11 -5 -30.5 -16t-28.5 -15l-24 41l97 51h38v-353h-52zM224 -30l-50 24l339 727l51 -23zM599 0v103h-128l-22 33l135 210h68v-196h41v-47h-41v-103h-53zM513 150h86l1 145z" />
    <glyph glyph-name="onehalf" unicode="&#xbd;" horiz-adv-x="787" 
d="M154 335v292q-11 -5 -30.5 -16t-28.5 -15l-24 41l97 51h38v-353h-52zM225 -30l-50 24l339 727l51 -23zM495 0l-13 36q1 1 16 14.5t24 22.5l27 27t30.5 31.5t27.5 32t24 33t15.5 30.5t6.5 28q0 19 -16 36.5t-42 17.5q-46 0 -71 -36l-34 30q34 53 108 53q49 0 79 -26
t30 -73q0 -78 -146 -208h144v-49h-210z" />
    <glyph glyph-name="threequarters" unicode="&#xbe;" horiz-adv-x="759" 
d="M142 331q-56 0 -91 27l21 44q36 -22 74 -22q25 0 39.5 15t14.5 44q0 30 -22.5 44.5t-53.5 14.5h-25v47h25q26 0 47 14t21 41q0 18 -12.5 31.5t-30.5 13.5q-38 0 -68 -17l-21 38q40 25 89 25q47 0 74 -24t27 -64q0 -49 -46 -78q54 -26 54 -89q0 -43 -32 -74t-84 -31z
M224 -30l-50 24l339 727l51 -23zM599 0v103h-128l-22 33l135 210h68v-196h41v-47h-41v-103h-53zM513 150h86l1 145z" />
    <glyph glyph-name="questiondown" unicode="&#xbf;" horiz-adv-x="399" 
d="M284 -200q-102 2 -163 53.5t-61 152.5q0 48 16 85t37 56t46.5 30.5t40.5 14.5t23 3v138h61v-187q-72 0 -114 -35.5t-42 -104.5q0 -72 42.5 -108.5t113.5 -36.5v-61zM254 408q-19 0 -32.5 13.5t-13.5 32.5t13.5 32t32.5 13t32 -13t13 -32t-13 -32.5t-32 -13.5z" />
    <glyph glyph-name="Agrave" unicode="&#xc0;" horiz-adv-x="618" 
d="M343 715l-156 110l42 50l142 -125zM78 -8l-58 20l269 676h46l263 -674l-63 -20l-90 232h-274zM195 286h226l-113 290z" />
    <glyph glyph-name="Aacute" unicode="&#xc1;" horiz-adv-x="618" 
d="M289 715l-28 35l142 125l42 -50zM78 -8l-58 20l269 676h46l263 -674l-63 -20l-90 232h-274zM195 286h226l-113 290z" />
    <glyph glyph-name="Acircumflex" unicode="&#xc2;" horiz-adv-x="618" 
d="M208 716l-36 42l136 105l136 -105l-36 -42l-100 83zM78 -8l-58 20l269 676h46l263 -674l-63 -20l-90 232h-274zM195 286h226l-113 290z" />
    <glyph glyph-name="Atilde" unicode="&#xc3;" horiz-adv-x="618" 
d="M78 -8l-58 20l269 676h46l263 -674l-63 -20l-90 232h-274zM195 286h226l-113 290zM464 805q-11 -28 -33.5 -50.5t-54.5 -22.5q-22 0 -60 22.5t-52 22.5q-36 0 -56 -45l-38 21q12 31 37 52t55 21q17 0 57 -22t52 -22q19 0 30 10.5t24 32.5z" />
    <glyph glyph-name="Adieresis" unicode="&#xc4;" horiz-adv-x="618" 
d="M230 735q-19 0 -32 13t-13 32t13 32t32 13t32 -13t13 -32t-13 -32t-32 -13zM387 735q-19 0 -32.5 13t-13.5 32t13.5 32t32.5 13t32 -13t13 -32t-13 -32t-32 -13zM78 -8l-58 20l269 676h46l263 -674l-63 -20l-90 232h-274zM195 286h226l-113 290z" />
    <glyph glyph-name="Aring" unicode="&#xc5;" horiz-adv-x="618" 
d="M78 -8l-58 20l269 676q-32 6 -52 29.5t-20 57.5q0 40 27 64.5t68 24.5t68 -24.5t27 -64.5q0 -33 -20 -56.5t-51 -30.5l262 -674l-63 -20l-90 232h-274zM312 722q21 0 35 16t14 37t-14 36.5t-35 15.5t-35 -15.5t-14 -36.5t14 -37t35 -16zM195 286h226l-113 290z" />
    <glyph glyph-name="AE" unicode="&#xc6;" horiz-adv-x="828" 
d="M56 -8l-56 20l421 676h360v-61h-296v-243h274v-60h-274v-264h295v-60h-359v226h-219zM239 286h182v290z" />
    <glyph glyph-name="Ccedilla" unicode="&#xc7;" horiz-adv-x="548" 
d="M335 -226l-23 42q32 15 43.5 27.5t11.5 31.5q0 29 -37 66l22 54q-122 7 -212 100t-90 249t100.5 253t233.5 97q95 0 149 -36l-28 -56q-54 31 -132 31q-40 0 -83.5 -18t-82.5 -52t-64.5 -91.5t-25.5 -127.5q0 -123 74.5 -206t181.5 -83q77 0 134 27l26 -54
q-50 -28 -127 -33l-17 -40q38 -35 38 -82q0 -34 -26 -60t-66 -39z" />
    <glyph glyph-name="Egrave" unicode="&#xc8;" 
d="M90 0v688h360v-61h-296v-243h274v-60h-274v-264h296v-60h-360zM309 715l-156 110l42 50l142 -125z" />
    <glyph glyph-name="Eacute" unicode="&#xc9;" 
d="M90 0v688h360v-61h-296v-243h274v-60h-274v-264h296v-60h-360zM223 715l-28 35l142 125l42 -50z" />
    <glyph glyph-name="Ecircumflex" unicode="&#xca;" 
d="M90 0v688h360v-61h-296v-243h274v-60h-274v-264h296v-60h-360zM171 716l-36 42l136 105l136 -105l-36 -42l-100 83z" />
    <glyph glyph-name="Edieresis" unicode="&#xcb;" 
d="M189 735q-19 0 -32 13t-13 32t13 32t32 13t32 -13t13 -32t-13 -32t-32 -13zM346 735q-19 0 -32.5 13t-13.5 32t13.5 32t32.5 13t32 -13t13 -32t-13 -32t-32 -13zM90 0v688h360v-61h-296v-243h274v-60h-274v-264h296v-60h-360z" />
    <glyph glyph-name="Igrave" unicode="&#xcc;" horiz-adv-x="244" 
d="M155 715l-156 110l42 50l142 -125zM90 0v688h64v-688h-64z" />
    <glyph glyph-name="Iacute" unicode="&#xcd;" horiz-adv-x="244" 
d="M87 715l-28 35l142 125l42 -50zM90 0v688h64v-688h-64z" />
    <glyph glyph-name="Icircumflex" unicode="&#xce;" horiz-adv-x="244" 
d="M21 716l-36 42l136 105l136 -105l-36 -42l-100 83zM90 0v688h64v-688h-64z" />
    <glyph glyph-name="Idieresis" unicode="&#xcf;" horiz-adv-x="244" 
d="M43 735q-19 0 -32 13t-13 32t13 32t32 13t32 -13t13 -32t-13 -32t-32 -13zM200 735q-19 0 -32.5 13t-13.5 32t13.5 32t32.5 13t32 -13t13 -32t-13 -32t-32 -13zM90 0v688h64v-688h-64z" />
    <glyph glyph-name="Eth" unicode="&#xd0;" horiz-adv-x="692" 
d="M90 0v326h-79v54h79v308h230q90 0 156 -30.5t100.5 -81.5t50 -106t15.5 -116q0 -152 -95.5 -253t-239.5 -101h-217zM154 60h133q35 0 70.5 8t75.5 29t70.5 53.5t50.5 86.5t20 123q0 53 -12.5 96t-31.5 70.5t-46.5 47.5t-52 30t-55 15.5t-47.5 6.5t-37 1h-138v-247h129
v-54h-129v-266z" />
    <glyph glyph-name="Ntilde" unicode="&#xd1;" horiz-adv-x="741" 
d="M90 0v688h78l418 -601v601h65v-688h-81l-415 598v-598h-65zM522 805q-11 -28 -33.5 -50.5t-54.5 -22.5q-22 0 -60 22.5t-52 22.5q-36 0 -56 -45l-38 21q12 31 37 52t55 21q17 0 57 -22t52 -22q19 0 30 10.5t24 32.5z" />
    <glyph glyph-name="Ograve" unicode="&#xd2;" horiz-adv-x="770" 
d="M429 715l-156 110l42 50l142 -125zM386 -6q-149 0 -242.5 98t-93.5 252q0 150 93 250t244 100q145 0 239 -102t94 -247q0 -156 -94 -253.5t-240 -97.5zM383 55q123 0 197.5 84t74.5 205q0 122 -73 205.5t-196 83.5t-196.5 -83.5t-73.5 -205.5q0 -115 73 -202t194 -87z
" />
    <glyph glyph-name="Oacute" unicode="&#xd3;" horiz-adv-x="770" 
d="M349 715l-28 35l142 125l42 -50zM386 -6q-149 0 -242.5 98t-93.5 252q0 150 93 250t244 100q145 0 239 -102t94 -247q0 -156 -94 -253.5t-240 -97.5zM383 55q123 0 197.5 84t74.5 205q0 122 -73 205.5t-196 83.5t-196.5 -83.5t-73.5 -205.5q0 -115 73 -202t194 -87z" />
    <glyph glyph-name="Ocircumflex" unicode="&#xd4;" horiz-adv-x="770" 
d="M287 716l-36 42l136 105l136 -105l-36 -42l-100 83zM386 -6q-149 0 -242.5 98t-93.5 252q0 150 93 250t244 100q145 0 239 -102t94 -247q0 -156 -94 -253.5t-240 -97.5zM383 55q123 0 197.5 84t74.5 205q0 122 -73 205.5t-196 83.5t-196.5 -83.5t-73.5 -205.5
q0 -115 73 -202t194 -87z" />
    <glyph glyph-name="Otilde" unicode="&#xd5;" horiz-adv-x="770" 
d="M536 805q-11 -28 -33.5 -50.5t-54.5 -22.5q-22 0 -60 22.5t-52 22.5q-36 0 -56 -45l-38 21q12 31 37 52t55 21q17 0 57 -22t52 -22q19 0 30 10.5t24 32.5zM386 -6q-149 0 -242.5 98t-93.5 252q0 150 93 250t244 100q145 0 239 -102t94 -247q0 -156 -94 -253.5t-240 -97.5
zM383 55q123 0 197.5 84t74.5 205q0 122 -73 205.5t-196 83.5t-196.5 -83.5t-73.5 -205.5q0 -115 73 -202t194 -87z" />
    <glyph glyph-name="Odieresis" unicode="&#xd6;" horiz-adv-x="770" 
d="M310 735q-19 0 -32 13t-13 32t13 32t32 13t32 -13t13 -32t-13 -32t-32 -13zM467 735q-19 0 -32.5 13t-13.5 32t13.5 32t32.5 13t32 -13t13 -32t-13 -32t-32 -13zM386 -6q-149 0 -242.5 98t-93.5 252q0 150 93 250t244 100q145 0 239 -102t94 -247q0 -156 -94 -253.5
t-240 -97.5zM383 55q123 0 197.5 84t74.5 205q0 122 -73 205.5t-196 83.5t-196.5 -83.5t-73.5 -205.5q0 -115 73 -202t194 -87z" />
    <glyph glyph-name="multiply" unicode="&#xd7;" horiz-adv-x="491" 
d="M105 150l-42 42l141 140l-141 141l42 42l140 -141l141 141l42 -42l-142 -140l142 -141l-42 -42l-141 141z" />
    <glyph glyph-name="Oslash" unicode="&#xd8;" horiz-adv-x="770" 
d="M386 -6q-131 0 -221 78l-73 -77l-44 39l76 81q-74 94 -74 229q0 150 93 250t244 100q123 0 213 -77l72 76l45 -40l-75 -79q78 -99 78 -229q0 -156 -94 -253.5t-240 -97.5zM383 55q123 0 197.5 84t74.5 205q0 106 -56 184l-389 -409q72 -64 173 -64zM171 164l387 409
q-71 60 -172 60q-123 0 -196.5 -83.5t-73.5 -205.5q0 -101 55 -180z" />
    <glyph glyph-name="Ugrave" unicode="&#xd9;" horiz-adv-x="660" 
d="M332 -7q-115 0 -186 61.5t-71 164.5v469h65v-459q0 -80 54 -127t141 -47q85 0 135 43.5t50 138.5v451h65v-467q0 -107 -73 -167.5t-180 -60.5zM386 715l-156 110l42 50l142 -125z" />
    <glyph glyph-name="Uacute" unicode="&#xda;" horiz-adv-x="660" 
d="M332 -7q-115 0 -186 61.5t-71 164.5v469h65v-459q0 -80 54 -127t141 -47q85 0 135 43.5t50 138.5v451h65v-467q0 -107 -73 -167.5t-180 -60.5zM294 715l-28 35l142 125l42 -50z" />
    <glyph glyph-name="Ucircumflex" unicode="&#xdb;" horiz-adv-x="660" 
d="M332 -7q-115 0 -186 61.5t-71 164.5v469h65v-459q0 -80 54 -127t141 -47q85 0 135 43.5t50 138.5v451h65v-467q0 -107 -73 -167.5t-180 -60.5zM237 716l-36 42l136 105l136 -105l-36 -42l-100 83z" />
    <glyph glyph-name="Udieresis" unicode="&#xdc;" horiz-adv-x="660" 
d="M257 735q-19 0 -32 13t-13 32t13 32t32 13t32 -13t13 -32t-13 -32t-32 -13zM414 735q-19 0 -32.5 13t-13.5 32t13.5 32t32.5 13t32 -13t13 -32t-13 -32t-32 -13zM332 -7q-115 0 -186 61.5t-71 164.5v469h65v-459q0 -80 54 -127t141 -47q85 0 135 43.5t50 138.5v451h65
v-467q0 -107 -73 -167.5t-180 -60.5z" />
    <glyph glyph-name="Yacute" unicode="&#xdd;" horiz-adv-x="520" 
d="M223 715l-28 35l142 125l42 -50zM228 0v328l-228 334l53 31l208 -300l207 300l52 -33l-228 -332v-328h-64z" />
    <glyph glyph-name="Thorn" unicode="&#xde;" horiz-adv-x="499" 
d="M90 0v688h64v-138h109q28 0 54 -4.5t52.5 -17t46 -31.5t31.5 -51t12 -73q0 -86 -61 -149.5t-169 -63.5h-75v-160h-64zM154 220h61q51 0 87.5 14t55 38t26.5 49t8 53q0 115 -147 115h-91v-269z" />
    <glyph glyph-name="germandbls" unicode="&#xdf;" horiz-adv-x="513" 
d="M310 -6q-65 0 -100 25l30 51q27 -20 70 -20q34 0 58.5 21.5t24.5 61.5q0 30 -18.5 51.5t-45 36t-53 31t-45 45.5t-18.5 70q0 35 12.5 61t30.5 40.5t35.5 28t30 32.5t12.5 45q0 45 -29.5 68t-67.5 23q-40 0 -68.5 -28t-28.5 -75v-562h-60v566q0 77 46 116t110 39
q85 0 124 -44.5t39 -100.5q0 -40 -19 -70t-42 -45t-42 -37.5t-19 -49.5q0 -23 13.5 -41.5t33.5 -31t44 -28.5t44 -32.5t33.5 -44t13.5 -62.5q0 -61 -44 -100.5t-105 -39.5z" />
    <glyph glyph-name="agrave" unicode="&#xe0;" horiz-adv-x="439" 
d="M368 -12l-67 62q-77 -56 -139 -56q-57 0 -88 32.5t-31 81.5q0 67 49.5 100t157.5 62l44 12v44q0 85 -85 85q-49 0 -111 -52l-35 43q1 1 11 9.5t17 13.5t21.5 14t27.5 14t31.5 9t37.5 4q64 0 104.5 -32t40.5 -97v-255l55 -49zM255 220q-151 -41 -151 -107q0 -68 67 -68
q44 0 123 57v129l-37 -10l-1 -1v1zM255 524l-145 123l45 47l132 -138z" />
    <glyph glyph-name="aacute" unicode="&#xe1;" horiz-adv-x="439" 
d="M368 -12l-67 62q-77 -56 -139 -56q-57 0 -88 32.5t-31 81.5q0 67 49.5 100t157.5 62l44 12v44q0 85 -85 85q-49 0 -111 -52l-35 43q1 1 11 9.5t17 13.5t21.5 14t27.5 14t31.5 9t37.5 4q64 0 104.5 -32t40.5 -97v-255l55 -49zM171 45q44 0 123 57v129l-37 -10l-1 -1v1
l-1 -1q-151 -41 -151 -107q0 -68 67 -68zM197 524l-32 32l131 138l46 -47z" />
    <glyph glyph-name="acircumflex" unicode="&#xe2;" horiz-adv-x="439" 
d="M368 -12l-67 62q-77 -56 -139 -56q-57 0 -88 32.5t-31 81.5q0 67 49.5 100t157.5 62l44 12v44q0 85 -85 85q-49 0 -111 -52l-35 43q1 1 11 9.5t17 13.5t21.5 14t27.5 14t31.5 9t37.5 4q64 0 104.5 -32t40.5 -97v-255l55 -49zM171 45q44 0 123 57v129l-37 -10l-1 -1v1
l-1 -1q-151 -41 -151 -107q0 -68 67 -68zM117 536l-36 43l136 105l136 -105l-36 -43l-100 84z" />
    <glyph glyph-name="atilde" unicode="&#xe3;" horiz-adv-x="439" 
d="M368 -12l-67 62q-77 -56 -139 -56q-57 0 -88 32.5t-31 81.5q0 67 49.5 100t157.5 62l44 12v44q0 85 -85 85q-49 0 -111 -52l-35 43q1 1 11 9.5t17 13.5t21.5 14t27.5 14t31.5 9t37.5 4q64 0 104.5 -32t40.5 -97v-255l55 -49zM171 45q44 0 123 57v129l-37 -10q-1 0 -2 -1
l1 1l-1 -1q-151 -41 -151 -107q0 -68 67 -68zM364 634q-10 -27 -35 -50t-58 -23q-22 0 -57.5 22.5t-49.5 22.5q-36 0 -56 -45l-38 21q10 31 35.5 53t55.5 22q23 0 58 -23t52 -23q19 0 30 10.5t24 32.5z" />
    <glyph glyph-name="adieresis" unicode="&#xe4;" horiz-adv-x="439" 
d="M368 -12l-67 62q-77 -56 -139 -56q-57 0 -88 32.5t-31 81.5q0 67 49.5 100t157.5 62l44 12v44q0 85 -85 85q-49 0 -111 -52l-35 43q1 1 11 9.5t17 13.5t21.5 14t27.5 14t31.5 9t37.5 4q64 0 104.5 -32t40.5 -97v-255l55 -49zM171 45q44 0 123 57v129l-37 -10q-1 0 -2 -1
q-151 -41 -151 -107q0 -68 67 -68zM289 565q-19 0 -32.5 13t-13.5 32t13.5 32t32.5 13t32 -13t13 -32t-13 -32t-32 -13zM132 565q-19 0 -32 13t-13 32t13 32t32 13t32 -13t13 -32t-13 -32t-32 -13z" />
    <glyph glyph-name="aring" unicode="&#xe5;" horiz-adv-x="439" 
d="M368 -12l-67 62q-77 -56 -139 -56q-57 0 -88 32.5t-31 81.5q0 67 49.5 100t157.5 62l44 12v44q0 85 -85 85q-49 0 -111 -52l-35 43q1 1 11 9.5t17 13.5t21.5 14t27.5 14t31.5 9t37.5 4q64 0 104.5 -32t40.5 -97v-255l55 -49zM214 521q-41 0 -68 25t-27 65t27 64.5
t68 24.5t68 -24.5t27 -64.5t-27 -65t-68 -25zM171 45q44 0 123 57v129l-37 -10q-1 0 -2 -1q-151 -41 -151 -107q0 -68 67 -68zM214 558q21 0 35 16t14 37t-14 36.5t-35 15.5t-35 -15.5t-14 -36.5t14 -37t35 -16z" />
    <glyph glyph-name="ae" unicode="&#xe6;" horiz-adv-x="685" 
d="M154 -6q-57 0 -88 32.5t-31 81.5q0 67 49.5 100t157.5 62l44 12v44q0 83 -85 83q-51 0 -111 -50l-35 43q1 1 11 9.5t17 13.5t21.5 14t27.5 14t31.5 9t37.5 4q103 0 134 -71q56 71 152 71q86 0 127 -55.5t41 -145.5v-36h-309q0 -77 38.5 -129t112.5 -52q58 0 115 38l7 -13
q7 -13 15 -26l7 -13q-67 -40 -147 -40q-110 0 -169 84q-28 -25 -46.5 -38.5t-54 -29.5t-70.5 -16zM249 221q-1 0 -2 -1q-151 -41 -151 -107q0 -65 67 -65q48 0 123 54v129l-38 -11zM351 283h241q0 53 -27.5 89.5t-78.5 36.5q-57 0 -92 -39.5t-43 -86.5zM248 220h-1h1z" />
    <glyph glyph-name="ccedilla" unicode="&#xe7;" horiz-adv-x="414" 
d="M205 -226l-23 42q32 15 43.5 27.5t11.5 31.5q0 29 -37 66l23 56q-82 12 -130 78t-48 155q0 108 64.5 172t151.5 64q75 0 134 -40q-29 -50 -29 -51q-47 34 -102 34q-69 0 -113 -50t-44 -133t45 -129.5t109 -46.5q58 0 113 38l30 -51q-62 -38 -129 -42l-16 -40
q38 -35 38 -82q0 -34 -26 -60t-66 -39z" />
    <glyph glyph-name="egrave" unicode="&#xe8;" horiz-adv-x="442" 
d="M262 524l-145 123l45 47l132 -138zM253 -6q-99 0 -155 66t-56 165q0 103 53.5 172t150.5 69q86 0 127 -55.5t41 -145.5v-36h-310q0 -76 39 -127t114 -51q64 0 114 35l7 -13q8 -13 15 -26l7 -13q-67 -40 -147 -40zM110 283h241q0 53 -27.5 89.5t-78.5 36.5
q-57 0 -92 -39.5t-43 -86.5z" />
    <glyph glyph-name="eacute" unicode="&#xe9;" horiz-adv-x="442" 
d="M198 524l-32 32l131 138l46 -47zM253 -6q-99 0 -155 66t-56 165q0 103 53.5 172t150.5 69q86 0 127 -55.5t41 -145.5v-36h-310q0 -76 39 -127t114 -51q64 0 114 35l7 -13q8 -13 15 -26l7 -13q-67 -40 -147 -40zM110 283h241q0 53 -27.5 89.5t-78.5 36.5q-57 0 -92 -39.5
t-43 -86.5z" />
    <glyph glyph-name="ecircumflex" unicode="&#xea;" horiz-adv-x="442" 
d="M145 536l-36 43l136 105l136 -105l-36 -43l-100 84zM253 -6q-99 0 -155 66t-56 165q0 103 53.5 172t150.5 69q86 0 127 -55.5t41 -145.5v-36h-310q0 -76 39 -127t114 -51q64 0 114 35l7 -13q8 -13 15 -26l7 -13q-67 -40 -147 -40zM110 283h241q0 53 -27.5 89.5
t-78.5 36.5q-57 0 -92 -39.5t-43 -86.5z" />
    <glyph glyph-name="edieresis" unicode="&#xeb;" horiz-adv-x="442" 
d="M167 565q-19 0 -32 13t-13 32t13 32t32 13t32 -13t13 -32t-13 -32t-32 -13zM324 565q-19 0 -32.5 13t-13.5 32t13.5 32t32.5 13t32 -13t13 -32t-13 -32t-32 -13zM253 -6q-99 0 -155 66t-56 165q0 103 53.5 172t150.5 69q86 0 127 -55.5t41 -145.5v-36h-310q0 -76 39 -127
t114 -51q64 0 114 35l7 -13q8 -13 15 -26l7 -13q-67 -40 -147 -40zM110 283h241q0 53 -27.5 89.5t-78.5 36.5q-57 0 -92 -39.5t-43 -86.5z" />
    <glyph glyph-name="igrave" unicode="&#xec;" horiz-adv-x="250" 
d="M95 0v460h60v-460h-60zM159 524l-145 123l45 47l132 -138z" />
    <glyph glyph-name="iacute" unicode="&#xed;" horiz-adv-x="250" 
d="M95 0v460h60v-460h-60zM93 524l-32 32l131 138l46 -47z" />
    <glyph glyph-name="icircumflex" unicode="&#xee;" horiz-adv-x="250" 
d="M95 0v460h60v-460h-60zM25 536l-36 43l136 105l136 -105l-36 -43l-100 84z" />
    <glyph glyph-name="idieresis" unicode="&#xef;" horiz-adv-x="250" 
d="M95 0v460h60v-460h-60zM47 565q-19 0 -32 13t-13 32t13 32t32 13t32 -13t13 -32t-13 -32t-32 -13zM204 565q-19 0 -32.5 13t-13.5 32t13.5 32t32.5 13t32 -13t13 -32t-13 -32t-32 -13z" />
    <glyph glyph-name="eth" unicode="&#xf0;" horiz-adv-x="516" 
d="M250 -6q-99 0 -154.5 69t-55.5 178q0 95 51.5 160t139.5 65q79 0 145 -62q-19 84 -76 162l-91 -56l-28 44l84 53q-13 15 -68 70l50 44q37 -31 77 -77l95 59l29 -44l-89 -56q100 -140 100 -323q0 -56 -11.5 -105t-34.5 -90.5t-65 -66t-98 -24.5zM247 50q41 0 71.5 20.5
t46.5 55t23.5 72t7.5 78.5q0 26 -3 49q-84 84 -159 84q-53 0 -92 -41t-39 -130t41.5 -138.5t102.5 -49.5z" />
    <glyph glyph-name="ntilde" unicode="&#xf1;" 
d="M403 634q-10 -27 -35 -50t-58 -23q-22 0 -57.5 22.5t-49.5 22.5q-36 0 -56 -45l-38 21q10 31 35.5 53t55.5 22q22 0 58 -23t52 -23q19 0 30 10.5t24 32.5zM80 0v460h60v-64q76 70 151 70q68 0 102 -34t34 -85v-347h-60v325q0 43 -22 63.5t-57 20.5q-44 0 -91 -32t-57 -48
v-329h-60z" />
    <glyph glyph-name="ograve" unicode="&#xf2;" horiz-adv-x="505" 
d="M282 524l-145 123l45 47l132 -138zM255 -6q-56 0 -100 22t-69 57t-38 75t-13 81q0 39 13.5 79.5t38.5 76.5t69 58.5t98 22.5q55 0 98 -22.5t68 -58.5t37.5 -75.5t12.5 -79.5q0 -54 -21 -106t-72 -91t-122 -39zM253 50q57 0 105.5 44.5t48.5 135.5q0 88 -47.5 133.5
t-104.5 45.5t-107 -44.5t-50 -135.5q0 -88 48.5 -133.5t106.5 -45.5z" />
    <glyph glyph-name="oacute" unicode="&#xf3;" horiz-adv-x="505" 
d="M222 524l-32 32l131 138l46 -47zM255 -6q-56 0 -100 22t-69 57t-38 75t-13 81q0 39 13.5 79.5t38.5 76.5t69 58.5t98 22.5q55 0 98 -22.5t68 -58.5t37.5 -75.5t12.5 -79.5q0 -54 -21 -106t-72 -91t-122 -39zM253 50q57 0 105.5 44.5t48.5 135.5q0 88 -47.5 133.5
t-104.5 45.5t-107 -44.5t-50 -135.5q0 -88 48.5 -133.5t106.5 -45.5z" />
    <glyph glyph-name="ocircumflex" unicode="&#xf4;" horiz-adv-x="505" 
d="M155 536l-36 43l136 105l136 -105l-36 -43l-100 84zM255 -6q-56 0 -100 22t-69 57t-38 75t-13 81q0 39 13.5 79.5t38.5 76.5t69 58.5t98 22.5q55 0 98 -22.5t68 -58.5t37.5 -75.5t12.5 -79.5q0 -54 -21 -106t-72 -91t-122 -39zM253 50q57 0 105.5 44.5t48.5 135.5
q0 88 -47.5 133.5t-104.5 45.5t-107 -44.5t-50 -135.5q0 -88 48.5 -133.5t106.5 -45.5z" />
    <glyph glyph-name="otilde" unicode="&#xf5;" horiz-adv-x="505" 
d="M399 634q-10 -27 -35 -50t-58 -23q-22 0 -57.5 22.5t-49.5 22.5q-36 0 -56 -45l-38 21q10 31 35.5 53t55.5 22q22 0 58 -23t52 -23q19 0 30 10.5t24 32.5zM255 -6q-56 0 -100 22t-69 57t-38 75t-13 81q0 39 13.5 79.5t38.5 76.5t69 58.5t98 22.5q55 0 98 -22.5t68 -58.5
t37.5 -75.5t12.5 -79.5q0 -54 -21 -106t-72 -91t-122 -39zM253 50q57 0 105.5 44.5t48.5 135.5q0 88 -47.5 133.5t-104.5 45.5t-107 -44.5t-50 -135.5q0 -88 48.5 -133.5t106.5 -45.5z" />
    <glyph glyph-name="odieresis" unicode="&#xf6;" horiz-adv-x="505" 
d="M176 565q-19 0 -32 13t-13 32t13 32t32 13t32 -13t13 -32t-13 -32t-32 -13zM333 565q-19 0 -32.5 13t-13.5 32t13.5 32t32.5 13t32 -13t13 -32t-13 -32t-32 -13zM255 -6q-56 0 -100 22t-69 57t-38 75t-13 81q0 39 13.5 79.5t38.5 76.5t69 58.5t98 22.5q55 0 98 -22.5
t68 -58.5t37.5 -75.5t12.5 -79.5q0 -54 -21 -106t-72 -91t-122 -39zM253 50q57 0 105.5 44.5t48.5 135.5q0 88 -47.5 133.5t-104.5 45.5t-107 -44.5t-50 -135.5q0 -88 48.5 -133.5t106.5 -45.5z" />
    <glyph glyph-name="divide" unicode="&#xf7;" horiz-adv-x="459" 
d="M229 112q-21 0 -35.5 14.5t-14.5 34.5q0 21 14.5 35.5t35.5 14.5t35.5 -14.5t14.5 -34.5q0 -21 -14.5 -35.5t-35.5 -14.5zM229 477q-21 0 -35.5 14.5t-14.5 35.5q0 20 14.5 35t35.5 15t35.5 -15t14.5 -35q0 -21 -14.5 -35.5t-35.5 -14.5zM20 313v60h419v-60h-419z" />
    <glyph glyph-name="oslash" unicode="&#xf8;" horiz-adv-x="505" 
d="M80 -7l-39 32l43 51q-49 65 -49 153q0 39 13.5 79.5t38.5 76.5t69 58.5t98 22.5q73 0 125 -39l46 55l38 -32l-48 -58q55 -68 55 -162q0 -54 -21 -106t-72 -91t-122 -39q-80 0 -137 45zM253 50q57 0 105.5 44.5t48.5 135.5q0 70 -32 115l-218 -259q43 -36 96 -36zM124 124
l216 257q-40 28 -85 28q-57 0 -107 -44.5t-50 -135.5q0 -61 26 -105z" />
    <glyph glyph-name="ugrave" unicode="&#xf9;" horiz-adv-x="492" 
d="M271 524l-145 123l45 47l132 -138zM207 -6q-69 0 -103 34t-34 85v347h60v-325q0 -84 80 -84q42 0 86 30.5t56 48.5v330h60v-460h-60v65q-80 -71 -145 -71z" />
    <glyph glyph-name="uacute" unicode="&#xfa;" horiz-adv-x="492" 
d="M222 524l-32 32l131 138l46 -47zM207 -6q-69 0 -103 34t-34 85v347h60v-325q0 -84 80 -84q42 0 86 30.5t56 48.5v330h60v-460h-60v65q-80 -71 -145 -71z" />
    <glyph glyph-name="ucircumflex" unicode="&#xfb;" horiz-adv-x="492" 
d="M140 536l-36 43l136 105l136 -105l-36 -43l-100 84zM207 -6q-69 0 -103 34t-34 85v347h60v-325q0 -84 80 -84q42 0 86 30.5t56 48.5v330h60v-460h-60v65q-80 -71 -145 -71z" />
    <glyph glyph-name="udieresis" unicode="&#xfc;" horiz-adv-x="492" 
d="M163 565q-19 0 -32 13t-13 32t13 32t32 13t32 -13t13 -32t-13 -32t-32 -13zM320 565q-19 0 -32.5 13t-13.5 32t13.5 32t32.5 13t32 -13t13 -32t-13 -32t-32 -13zM207 -6q-69 0 -103 34t-34 85v347h60v-325q0 -84 80 -84q42 0 86 30.5t56 48.5v330h60v-460h-60v65
q-80 -71 -145 -71z" />
    <glyph glyph-name="yacute" unicode="&#xfd;" horiz-adv-x="451" 
d="M37 -238q-15 0 -22 1v53q6 -1 18 -1q38 0 69 21t45 56l54 132l-184 419l56 23l159 -366l150 366l54 -20l-230 -563q-23 -56 -67 -88.5t-102 -32.5zM212 524l-32 32l131 138l46 -47z" />
    <glyph glyph-name="thorn" unicode="&#xfe;" horiz-adv-x="516" 
d="M80 -239v960h60v-316q2 1 14 10t24 16t29 16t37.5 14t41.5 5q66 0 110.5 -37t62 -88t17.5 -110q0 -91 -52 -164t-147 -73q-61 0 -137 57v-290h-60zM275 50q60 0 100.5 49.5t40.5 130.5q0 82 -35.5 130.5t-97.5 48.5q-70 0 -143 -69v-225q71 -65 135 -65z" />
    <glyph glyph-name="ydieresis" unicode="&#xff;" horiz-adv-x="451" 
d="M37 -238q-15 0 -22 1v53q6 -1 18 -1q38 0 69 21t45 56l54 132l-184 419l56 23l159 -366l150 366l54 -20l-230 -563q-23 -56 -67 -88.5t-102 -32.5zM154 565q-19 0 -32 13t-13 32t13 32t32 13t32 -13t13 -32t-13 -32t-32 -13zM311 565q-19 0 -32.5 13t-13.5 32t13.5 32
t32.5 13t32 -13t13 -32t-13 -32t-32 -13z" />
    <glyph glyph-name="Amacron" unicode="&#x100;" horiz-adv-x="618" 
d="M78 -8l-58 20l269 676h46l263 -674l-63 -20l-90 232h-274zM195 286h226l-113 290zM203 752v54h215v-54h-215z" />
    <glyph glyph-name="amacron" unicode="&#x101;" horiz-adv-x="439" 
d="M368 -12l-67 62q-77 -56 -139 -56q-57 0 -88 32.5t-31 81.5q0 67 49.5 100t157.5 62l44 12v44q0 85 -85 85q-49 0 -111 -52l-35 43q1 1 11 9.5t17 13.5t21.5 14t27.5 14t31.5 9t37.5 4q64 0 104.5 -32t40.5 -97v-255l55 -49zM171 45q44 0 123 57v129l-37 -10q-1 0 -2 -1
q-151 -41 -151 -107q0 -68 67 -68zM108 551v54h215v-54h-215z" />
    <glyph glyph-name="Abreve" unicode="&#x102;" horiz-adv-x="618" 
d="M78 -8l-58 20l269 676h46l263 -674l-63 -20l-90 232h-274zM195 286h226l-113 290zM311 725q-55 0 -91.5 31.5t-41.5 53.5l40 22q3 -6 10 -15.5t31 -25t52 -15.5t51.5 14t33.5 28l9 14l40 -22q-5 -22 -42 -53.5t-92 -31.5z" />
    <glyph glyph-name="abreve" unicode="&#x103;" horiz-adv-x="439" 
d="M368 -12l-67 62q-77 -56 -139 -56q-57 0 -88 32.5t-31 81.5q0 67 49.5 100t157.5 62l44 12v44q0 85 -85 85q-49 0 -111 -52l-35 43q1 1 11 9.5t17 13.5t21.5 14t27.5 14t31.5 9t37.5 4q64 0 104.5 -32t40.5 -97v-255l55 -49zM171 45q44 0 123 57v129l-37 -10q-1 0 -2 -1
l1 1l-1 -1q-151 -41 -151 -107q0 -68 67 -68zM210 555q-55 0 -91.5 31.5t-41.5 53.5l40 22q3 -6 10 -15.5t31 -25t52 -15.5t51.5 14t32.5 28l10 14l40 -22q-5 -22 -42 -53.5t-92 -31.5z" />
    <glyph glyph-name="Aogonek" unicode="&#x104;" horiz-adv-x="618" 
d="M552 -186q-49 0 -72.5 23t-23.5 60q0 60 72 113l-83 216h-274l-93 -234l-58 20l269 676h46l263 -675q-85 -55 -85 -115q0 -16 11.5 -26.5t31.5 -10.5q24 0 39 5l6 -45q-25 -7 -49 -7zM195 286h226l-113 290z" />
    <glyph glyph-name="aogonek" unicode="&#x105;" horiz-adv-x="439" 
d="M404 -179q-24 -7 -49 -7q-49 0 -72.5 23t-23.5 60q0 63 79 118l-37 35q-77 -56 -139 -56q-57 0 -88 32.5t-31 81.5q0 67 49.5 100t157.5 62l44 12v44q0 85 -85 85q-49 0 -111 -52l-35 43q1 1 11 9.5t17 13.5t21.5 14t27.5 14t31.5 9t37.5 4q64 0 104.5 -32t40.5 -97v-255
l63 -59q-101 -62 -101 -125q0 -16 11.5 -26.5t31.5 -10.5q24 0 39 5zM294 231l-52 -14q-138 -38 -138 -104q0 -68 67 -68q44 0 123 57v129z" />
    <glyph glyph-name="Cacute" unicode="&#x106;" horiz-adv-x="548" 
d="M373 -6q-60 0 -116.5 23t-103 65t-75 110.5t-28.5 151.5q0 156 100.5 253t233.5 97q95 0 149 -36l-28 -56q-54 31 -132 31q-40 0 -83.5 -18t-82.5 -52t-64.5 -91.5t-25.5 -127.5q0 -123 74.5 -206t181.5 -83q77 0 134 27l26 -54q-62 -34 -160 -34zM345 715l-28 35
l142 125l42 -50z" />
    <glyph glyph-name="cacute" unicode="&#x107;" horiz-adv-x="414" 
d="M258 -6q-96 0 -154.5 69t-58.5 167q0 108 64.5 172t151.5 64q75 0 134 -40q-29 -50 -29 -51q-47 34 -102 34q-69 0 -113 -50t-44 -133t45 -129.5t109 -46.5q58 0 113 38l30 -51q-72 -43 -146 -43zM216 524l-32 32l131 138l46 -47z" />
    <glyph glyph-name="Ccircumflex" unicode="&#x108;" horiz-adv-x="548" 
d="M373 -6q-60 0 -116.5 23t-103 65t-75 110.5t-28.5 151.5q0 156 100.5 253t233.5 97q95 0 149 -36l-28 -56q-54 31 -132 31q-40 0 -83.5 -18t-82.5 -52t-64.5 -91.5t-25.5 -127.5q0 -123 74.5 -206t181.5 -83q77 0 134 27l26 -54q-62 -34 -160 -34zM282 716l-36 42
l136 105l136 -105l-36 -42l-100 83z" />
    <glyph glyph-name="ccircumflex" unicode="&#x109;" horiz-adv-x="414" 
d="M258 -6q-96 0 -154.5 69t-58.5 167q0 108 64.5 172t151.5 64q75 0 134 -40q-29 -50 -29 -51q-47 34 -102 34q-69 0 -113 -50t-44 -133t45 -129.5t109 -46.5q58 0 113 38l30 -51q-72 -43 -146 -43zM162 536l-36 43l136 105l136 -105l-36 -43l-100 84z" />
    <glyph glyph-name="Cdotaccent" unicode="&#x10a;" horiz-adv-x="548" 
d="M373 -6q-60 0 -116.5 23t-103 65t-75 110.5t-28.5 151.5q0 156 100.5 253t233.5 97q95 0 149 -36l-28 -56q-54 31 -132 31q-40 0 -83.5 -18t-82.5 -52t-64.5 -91.5t-25.5 -127.5q0 -123 74.5 -206t181.5 -83q77 0 134 27l26 -54q-62 -34 -160 -34zM383 735
q-19 0 -32.5 13t-13.5 32t13.5 32t32.5 13t32 -13t13 -32t-13 -32t-32 -13z" />
    <glyph glyph-name="cdotaccent" unicode="&#x10b;" horiz-adv-x="414" 
d="M258 -6q-96 0 -154.5 69t-58.5 167q0 108 64.5 172t151.5 64q75 0 134 -40q-29 -50 -29 -51q-47 34 -102 34q-69 0 -113 -50t-44 -133t45 -129.5t109 -46.5q58 0 113 38l30 -51q-72 -43 -146 -43zM263 563q-19 0 -32 13.5t-13 32.5t13 32t32 13t32 -13t13 -32t-13 -32.5
t-32 -13.5z" />
    <glyph glyph-name="Ccaron" unicode="&#x10c;" horiz-adv-x="548" 
d="M373 -6q-60 0 -116.5 23t-103 65t-75 110.5t-28.5 151.5q0 156 100.5 253t233.5 97q95 0 149 -36l-28 -56q-54 31 -132 31q-40 0 -83.5 -18t-82.5 -52t-64.5 -91.5t-25.5 -127.5q0 -123 74.5 -206t181.5 -83q77 0 134 27l26 -54q-62 -34 -160 -34zM380 715l-136 105
l36 42l100 -83l100 83l36 -42z" />
    <glyph glyph-name="ccaron" unicode="&#x10d;" horiz-adv-x="414" 
d="M258 -6q-96 0 -154.5 69t-58.5 167q0 108 64.5 172t151.5 64q75 0 134 -40q-29 -50 -29 -51q-47 34 -102 34q-69 0 -113 -50t-44 -133t45 -129.5t109 -46.5q58 0 113 38l30 -51q-72 -43 -146 -43zM261 537l-136 105l36 42l100 -83l100 83l36 -42z" />
    <glyph glyph-name="Dcaron" unicode="&#x10e;" horiz-adv-x="692" 
d="M90 0v688h230q90 0 156 -30.5t100.5 -81.5t50 -106t15.5 -116q0 -152 -95.5 -253t-239.5 -101h-217zM154 60h133q35 0 70.5 8t75.5 29t70.5 53.5t50.5 86.5t20 123q0 53 -12.5 96t-31.5 70.5t-46.5 47.5t-52 30t-55 15.5t-47.5 6.5t-37 1h-138v-567zM314 715l-136 105
l36 42l100 -83l100 83l36 -42z" />
    <glyph glyph-name="dcaron" unicode="&#x10f;" horiz-adv-x="535" 
d="M483 561l29 160h68l-50 -160h-47zM239 -6q-49 0 -88 21.5t-62.5 57t-36 76t-12.5 82.5q0 94 47.5 164.5t142.5 70.5q25 0 52 -8.5t42 -17.5t33.5 -21.5t19.5 -13.5v316h59v-721h-59v55q-1 -1 -9 -7t-12 -8.5t-12.5 -8.5t-14.5 -9.5t-15.5 -8.5t-17.5 -7.5t-17.5 -5.5
t-19.5 -4.5t-20 -1.5zM241 50q11 0 23 2.5t21.5 5.5t20.5 9t18 10t17 12t14 11.5t12.5 11t9.5 8.5v220q-1 1 -8 7.5t-11.5 10t-14 11t-17 12t-19 10.5t-22.5 9.5t-24.5 6t-27.5 2.5q-62 0 -97 -48.5t-35 -130.5q0 -81 40 -130.5t100 -49.5z" />
    <glyph glyph-name="Dcroat" unicode="&#x110;" horiz-adv-x="692" 
d="M90 0v326h-79v54h79v308h230q90 0 156 -30.5t100.5 -81.5t50 -106t15.5 -116q0 -152 -95.5 -253t-239.5 -101h-217zM154 60h133q35 0 70.5 8t75.5 29t70.5 53.5t50.5 86.5t20 123q0 53 -12.5 96t-31.5 70.5t-46.5 47.5t-52 30t-55 15.5t-47.5 6.5t-37 1h-138v-247h129
v-54h-129v-266z" />
    <glyph glyph-name="dcroat" unicode="&#x111;" horiz-adv-x="516" 
d="M239 -6q-49 0 -88 21.5t-62.5 57t-36 76t-12.5 82.5q0 94 47.5 164.5t142.5 70.5q25 0 52 -8.5t42 -17.5t33.5 -21.5t19.5 -13.5v146h-123v54h123v116h59v-116h65v-54h-65v-551h-59v55q-1 -1 -9 -7t-12 -8.5t-12.5 -8.5t-14.5 -9.5t-15.5 -8.5t-17.5 -7.5t-17.5 -5.5
t-19.5 -4.5t-20 -1.5zM241 50q11 0 23 2.5t21.5 5.5t20.5 9t18 10t17 12t14 11.5t12.5 11t9.5 8.5v220q-1 1 -8 7.5t-11.5 10t-14 11t-17 12t-19 10.5t-22.5 9.5t-24.5 6t-27.5 2.5q-62 0 -97 -48.5t-35 -130.5q0 -81 40 -130.5t100 -49.5z" />
    <glyph glyph-name="Emacron" unicode="&#x112;" 
d="M90 0v688h360v-61h-296v-243h274v-60h-274v-264h296v-60h-360zM164 752v54h215v-54h-215z" />
    <glyph glyph-name="emacron" unicode="&#x113;" horiz-adv-x="442" 
d="M140 551v54h215v-54h-215zM253 -6q-99 0 -155 66t-56 165q0 103 53.5 172t150.5 69q86 0 127 -55.5t41 -145.5v-36h-310q0 -76 39 -127t114 -51q64 0 114 35l7 -13q8 -13 15 -26l7 -13q-67 -40 -147 -40zM110 283h241q0 53 -27.5 89.5t-78.5 36.5q-57 0 -92 -39.5
t-43 -86.5z" />
    <glyph glyph-name="Ebreve" unicode="&#x114;" 
d="M90 0v688h360v-61h-296v-243h274v-60h-274v-264h296v-60h-360zM276 725q-55 0 -91.5 31.5t-41.5 53.5l40 22q3 -6 10 -15.5t31 -25t52 -15.5t51.5 14t32.5 28l10 14l40 -22q-5 -22 -42 -53.5t-92 -31.5z" />
    <glyph glyph-name="ebreve" unicode="&#x115;" horiz-adv-x="442" 
d="M247 555q-55 0 -91.5 31.5t-41.5 53.5l40 22q3 -6 10 -15.5t31 -25t52 -15.5t51.5 14t33.5 28l9 14l40 -22q-5 -22 -42 -53.5t-92 -31.5zM253 -6q-99 0 -155 66t-56 165q0 103 53.5 172t150.5 69q86 0 127 -55.5t41 -145.5v-36h-310q0 -76 39 -127t114 -51q64 0 114 35
l7 -13q8 -13 15 -26l7 -13q-67 -40 -147 -40zM110 283h241q0 53 -27.5 89.5t-78.5 36.5q-57 0 -92 -39.5t-43 -86.5z" />
    <glyph glyph-name="Edotaccent" unicode="&#x116;" 
d="M90 0v688h360v-61h-296v-243h274v-60h-274v-264h296v-60h-360zM274 735q-19 0 -32.5 13t-13.5 32t13.5 32t32.5 13t32 -13t13 -32t-13 -32t-32 -13z" />
    <glyph glyph-name="edotaccent" unicode="&#x117;" horiz-adv-x="442" 
d="M247 563q-19 0 -32 13.5t-13 32.5t13 32t32 13t32 -13t13 -32t-13 -32.5t-32 -13.5zM253 -6q-99 0 -155 66t-56 165q0 103 53.5 172t150.5 69q86 0 127 -55.5t41 -145.5v-36h-310q0 -76 39 -127t114 -51q64 0 114 35l7 -13q8 -13 15 -26l7 -13q-67 -40 -147 -40zM110 283
h241q0 53 -27.5 89.5t-78.5 36.5q-57 0 -92 -39.5t-43 -86.5z" />
    <glyph glyph-name="Eogonek" unicode="&#x118;" 
d="M412 -186q-49 0 -72.5 23t-23.5 60q0 48 65 103h-291v688h360v-61h-296v-243h274v-60h-274v-264h296v-60q-77 -46 -77 -102q0 -16 11.5 -26.5t31.5 -10.5q24 0 39 5l6 -45q-25 -7 -49 -7z" />
    <glyph glyph-name="eogonek" unicode="&#x119;" horiz-adv-x="442" 
d="M365 -179q-25 -7 -49 -7q-49 0 -72.5 23t-23.5 60q0 50 53 98q-106 -9 -168.5 58.5t-62.5 171.5q0 103 53.5 172t150.5 69q86 0 127 -55.5t41 -145.5v-36h-310q0 -76 39 -127t114 -51q64 0 114 35l7 -13q8 -13 15 -26l7 -13q-17 -10 -30 -16q-93 -57 -93 -120
q0 -16 11.5 -26.5t31.5 -10.5q24 0 39 5zM110 283h241q0 53 -27.5 89.5t-78.5 36.5q-57 0 -92 -39.5t-43 -86.5z" />
    <glyph glyph-name="Ecaron" unicode="&#x11a;" 
d="M90 0v688h360v-61h-296v-243h274v-60h-274v-264h296v-60h-360zM279 715l-136 105l36 42l100 -83l100 83l36 -42z" />
    <glyph glyph-name="ecaron" unicode="&#x11b;" horiz-adv-x="442" 
d="M244 537l-136 105l36 42l100 -83l100 83l36 -42zM253 -6q-99 0 -155 66t-56 165q0 103 53.5 172t150.5 69q86 0 127 -55.5t41 -145.5v-36h-310q0 -76 39 -127t114 -51q64 0 114 35l7 -13q8 -13 15 -26l7 -13q-67 -40 -147 -40zM110 283h241q0 53 -27.5 89.5t-78.5 36.5
q-57 0 -92 -39.5t-43 -86.5z" />
    <glyph glyph-name="Gcircumflex" unicode="&#x11c;" horiz-adv-x="658" 
d="M377 -6q-142 0 -234.5 101t-92.5 242q0 145 99 251t243 106q110 0 187 -46l-32 -51q-59 36 -156 36q-120 0 -196.5 -87t-76.5 -208q0 -119 71.5 -201.5t189.5 -82.5q47 0 89.5 13t65.5 33v182h-181v60h245v-269q-40 -37 -102 -58t-119 -21zM300 716l-36 42l136 105
l136 -105l-36 -42l-100 83z" />
    <glyph glyph-name="gcircumflex" unicode="&#x11d;" horiz-adv-x="457" 
d="M214 -239q-83 0 -138.5 50t-55.5 114q0 34 14 63t34.5 47t44 30.5t42.5 17.5t31 5v67q-56 10 -95 53.5t-39 100.5q0 65 48 111t113 46q45 0 86 -26l148 25v-60h-107q34 -44 34 -96q0 -59 -39 -102t-97 -52v-67q18 0 44.5 -9t56.5 -26.5t51 -51t21 -76.5q0 -66 -57 -115
t-140 -49zM214 -189q54 0 94.5 34t40.5 81q0 48 -40 82t-94 34t-94 -34t-40 -82q0 -47 39.5 -81t93.5 -34zM213 206q42 0 71.5 30t29.5 73t-29.5 73.5t-71.5 30.5t-72 -30.5t-30 -73.5t30 -73t72 -30zM113 536l-36 43l136 105l136 -105l-36 -43l-100 84z" />
    <glyph glyph-name="Gbreve" unicode="&#x11e;" horiz-adv-x="658" 
d="M377 -6q-142 0 -234.5 101t-92.5 242q0 145 99 251t243 106q110 0 187 -46l-32 -51q-59 36 -156 36q-120 0 -196.5 -87t-76.5 -208q0 -119 71.5 -201.5t189.5 -82.5q47 0 89.5 13t65.5 33v182h-181v60h245v-269q-40 -37 -102 -58t-119 -21zM391 725q-55 0 -91.5 31.5
t-41.5 53.5l40 22q3 -6 10 -15.5t31 -25t52 -15.5t51.5 14t33.5 28l9 14l40 -22q-5 -22 -42 -53.5t-92 -31.5z" />
    <glyph glyph-name="gbreve" unicode="&#x11f;" horiz-adv-x="457" 
d="M214 -239q-83 0 -138.5 50t-55.5 114q0 34 14 63t34.5 47t44 30.5t42.5 17.5t31 5v67q-56 10 -95 53.5t-39 100.5q0 65 48 111t113 46q45 0 86 -26l148 25v-60h-107q34 -44 34 -96q0 -59 -39 -102t-97 -52v-67q18 0 44.5 -9t56.5 -26.5t51 -51t21 -76.5q0 -66 -57 -115
t-140 -49zM214 -189q54 0 94.5 34t40.5 81q0 48 -40 82t-94 34t-94 -34t-40 -82q0 -47 39.5 -81t93.5 -34zM213 206q42 0 71.5 30t29.5 73t-29.5 73.5t-71.5 30.5t-72 -30.5t-30 -73.5t30 -73t72 -30zM213 555q-55 0 -91.5 31.5t-41.5 53.5l40 22q3 -6 10 -15.5t31 -25
t52 -15.5t51.5 14t33.5 28l9 14l40 -22q-5 -22 -42 -53.5t-92 -31.5z" />
    <glyph glyph-name="Gdotaccent" unicode="&#x120;" horiz-adv-x="658" 
d="M377 -6q-142 0 -234.5 101t-92.5 242q0 145 99 251t243 106q110 0 187 -46l-32 -51q-59 36 -156 36q-120 0 -196.5 -87t-76.5 -208q0 -119 71.5 -201.5t189.5 -82.5q47 0 89.5 13t65.5 33v182h-181v60h245v-269q-40 -37 -102 -58t-119 -21zM394 735q-19 0 -32.5 13
t-13.5 32t13.5 32t32.5 13t32 -13t13 -32t-13 -32t-32 -13z" />
    <glyph glyph-name="gdotaccent" unicode="&#x121;" horiz-adv-x="457" 
d="M214 -239q-83 0 -138.5 50t-55.5 114q0 34 14 63t34.5 47t44 30.5t42.5 17.5t31 5v67q-56 10 -95 53.5t-39 100.5q0 65 48 111t113 46q45 0 86 -26l148 25v-60h-107q34 -44 34 -96q0 -59 -39 -102t-97 -52v-67q18 0 44.5 -9t56.5 -26.5t51 -51t21 -76.5q0 -66 -57 -115
t-140 -49zM214 -189q54 0 94.5 34t40.5 81q0 48 -40 82t-94 34t-94 -34t-40 -82q0 -47 39.5 -81t93.5 -34zM213 206q42 0 71.5 30t29.5 73t-29.5 73.5t-71.5 30.5t-72 -30.5t-30 -73.5t30 -73t72 -30zM212 563q-19 0 -32 13.5t-13 32.5t13 32t32 13t32 -13t13 -32t-13 -32.5
t-32 -13.5z" />
    <glyph glyph-name="Gcommaaccent" unicode="&#x122;" horiz-adv-x="658" 
d="M377 -6q-142 0 -234.5 101t-92.5 242q0 145 99 251t243 106q110 0 187 -46l-32 -51q-59 36 -156 36q-120 0 -196.5 -87t-76.5 -208q0 -119 71.5 -201.5t189.5 -82.5q47 0 89.5 13t65.5 33v182h-181v60h245v-269q-40 -37 -102 -58t-119 -21zM328 -191l29 160h68l-50 -160
h-47z" />
    <glyph glyph-name="gcommaaccent" unicode="&#x123;" horiz-adv-x="457" 
d="M214 -239q-83 0 -138.5 50t-55.5 114q0 34 14 63t34.5 47t44 30.5t42.5 17.5t31 5v67q-56 10 -95 53.5t-39 100.5q0 65 48 111t113 46q45 0 86 -26l148 25v-60h-107q34 -44 34 -96q0 -59 -39 -102t-97 -52v-67q18 0 44.5 -9t56.5 -26.5t51 -51t21 -76.5q0 -66 -57 -115
t-140 -49zM214 -189q54 0 94.5 34t40.5 81q0 48 -40 82t-94 34t-94 -34t-40 -82q0 -47 39.5 -81t93.5 -34zM213 206q42 0 71.5 30t29.5 73t-29.5 73.5t-71.5 30.5t-72 -30.5t-30 -73.5t30 -73t72 -30zM187 516l50 160h47l-29 -160h-68z" />
    <glyph glyph-name="Hcircumflex" unicode="&#x124;" horiz-adv-x="690" 
d="M90 0v688h65v-300h381v300h64v-688h-64v327h-381v-327h-65zM245 716l-36 42l136 105l136 -105l-36 -42l-100 83z" />
    <glyph glyph-name="hcircumflex" unicode="&#x125;" 
d="M80 0v721h60v-324q29 28 75 48.5t84 20.5q55 0 91.5 -32.5t36.5 -80.5v-353h-59v325q0 82 -80 82q-66 0 -148 -82v-325h-60zM9 716l-36 42l136 105l136 -105l-36 -42l-100 83z" />
    <glyph glyph-name="Hbar" unicode="&#x126;" horiz-adv-x="690" 
d="M90 0v492h-71v54h71v142h65v-142h381v142h64v-142h71v-54h-71v-492h-64v327h-381v-327h-65zM155 388h381v104h-381v-104z" />
    <glyph glyph-name="hbar" unicode="&#x127;" 
d="M80 0v551h-61v54h61v116h60v-116h106v-54h-106v-154q29 28 75 48.5t84 20.5q55 0 91.5 -32.5t36.5 -80.5v-353h-59v325q0 82 -80 82q-66 0 -148 -82v-325h-60z" />
    <glyph glyph-name="Itilde" unicode="&#x128;" horiz-adv-x="244" 
d="M90 0v688h64v-688h-64zM268 805q-11 -28 -33.5 -50.5t-54.5 -22.5q-22 0 -60 22.5t-52 22.5q-36 0 -56 -45l-38 21q12 31 37 52t55 21q17 0 57 -22t52 -22q19 0 30 10.5t24 32.5z" />
    <glyph glyph-name="itilde" unicode="&#x129;" horiz-adv-x="250" 
d="M95 0v460h60v-460h-60zM270 634q-10 -27 -35 -50t-58 -23q-22 0 -57.5 22.5t-49.5 22.5q-36 0 -56 -45l-38 21q10 31 35.5 53t55.5 22q23 0 58 -23t52 -23q19 0 30 10.5t24 32.5z" />
    <glyph glyph-name="Imacron" unicode="&#x12a;" horiz-adv-x="244" 
d="M90 0v688h64v-688h-64zM16 752v54h215v-54h-215z" />
    <glyph glyph-name="imacron" unicode="&#x12b;" horiz-adv-x="250" 
d="M95 0v460h60v-460h-60zM18 551v54h215v-54h-215z" />
    <glyph glyph-name="Ibreve" unicode="&#x12c;" horiz-adv-x="244" 
d="M121 725q-55 0 -91.5 31.5t-41.5 53.5l40 22q3 -6 10 -15.5t31 -25t52 -15.5t51.5 14t33.5 28l9 14l40 -22q-5 -22 -42 -53.5t-92 -31.5zM90 0v688h64v-688h-64z" />
    <glyph glyph-name="ibreve" unicode="&#x12d;" horiz-adv-x="250" 
d="M95 0v460h60v-460h-60zM124 555q-55 0 -91.5 31.5t-41.5 53.5l40 22q3 -6 10 -15.5t31 -25t52 -15.5t51.5 14t32.5 28l10 14l40 -22q-5 -22 -42 -53.5t-92 -31.5z" />
    <glyph glyph-name="Iogonek" unicode="&#x12e;" horiz-adv-x="244" 
d="M127 -186q-49 0 -72.5 23t-23.5 60q0 53 59 103v688h64v-688q-66 -51 -66 -102q0 -16 11.5 -26.5t31.5 -10.5q24 0 39 5l6 -45q-25 -7 -49 -7z" />
    <glyph glyph-name="iogonek" unicode="&#x12f;" horiz-adv-x="250" 
d="M128 -186q-49 0 -72.5 23t-23.5 60q0 56 62 103v460h61v-460q-66 -51 -66 -102q0 -16 11.5 -26.5t31.5 -10.5q24 0 39 5l6 -45q-25 -7 -49 -7zM125 563q-19 0 -32 13.5t-13 32.5t13 32t32 13t32 -13t13 -32t-13 -32.5t-32 -13.5z" />
    <glyph glyph-name="Idotaccent" unicode="&#x130;" horiz-adv-x="244" 
d="M90 0v688h64v-688h-64zM122 735q-19 0 -32.5 13t-13.5 32t13.5 32t32.5 13t32 -13t13 -32t-13 -32t-32 -13z" />
    <glyph glyph-name="dotlessi" unicode="&#x131;" horiz-adv-x="250" 
d="M95 0v460h60v-460h-60z" />
    <glyph glyph-name="IJ" unicode="&#x132;" horiz-adv-x="480" 
d="M90 0v688h64v-688h-64zM154 -212v58q73 0 122.5 46t49.5 150v646h64v-660q0 -115 -63 -177.5t-173 -62.5z" />
    <glyph glyph-name="ij" unicode="&#x133;" horiz-adv-x="474" 
d="M125 563q-19 0 -32 13.5t-13 32.5t13 32t32 13t32 -13t13 -32t-13 -32.5t-32 -13.5zM94 0v460h61v-460h-61zM348 563q-19 0 -32 13.5t-13 32.5t13 32t32 13t32.5 -13t13.5 -32t-13.5 -32.5t-32.5 -13.5zM246 -230l-34 42q106 72 106 207v441h60v-456q0 -148 -132 -234z
" />
    <glyph glyph-name="Jcircumflex" unicode="&#x134;" horiz-adv-x="244" 
d="M-82 -212v58q73 0 122.5 46t49.5 150v646h64v-660q0 -115 -63 -177.5t-173 -62.5zM20 716l-36 42l136 105l136 -105l-36 -42l-100 83z" />
    <glyph glyph-name="jcircumflex" unicode="&#x135;" horiz-adv-x="250" 
d="M24 536l-36 43l136 105l136 -105l-36 -43l-100 84zM22 -230l-34 42q106 72 106 207v441h60v-456q0 -148 -132 -234z" />
    <glyph glyph-name="Kcommaaccent" unicode="&#x136;" horiz-adv-x="574" 
d="M500 -6l-334 373l320 328l53 -36l-285 -288l300 -338zM90 0v688h65v-688h-65zM250 -191l29 160h68l-50 -160h-47z" />
    <glyph glyph-name="kcommaaccent" unicode="&#x137;" horiz-adv-x="445" 
d="M377 -7l-232 267l226 206l44 -38l-196 -170l209 -232zM80 0v721h60v-721h-60zM190 -191l29 160h68l-50 -160h-47z" />
    <glyph glyph-name="Lacute" unicode="&#x139;" horiz-adv-x="468" 
d="M90 0v688h64v-627h304v-61h-368zM92 715l-28 35l142 125l42 -50z" />
    <glyph glyph-name="lacute" unicode="&#x13a;" horiz-adv-x="220" 
d="M80 0v721h60v-721h-60zM82 738l-28 35l142 125l42 -50z" />
    <glyph glyph-name="Lcommaaccent" unicode="&#x13b;" horiz-adv-x="468" 
d="M90 0v688h64v-627h304v-61h-368zM228 -191l29 160h68l-50 -160h-47z" />
    <glyph glyph-name="lcommaaccent" unicode="&#x13c;" horiz-adv-x="220" 
d="M80 0v721h60v-721h-60zM51 -191l29 160h68l-50 -160h-47z" />
    <glyph glyph-name="Lcaron" unicode="&#x13d;" horiz-adv-x="468" 
d="M239 561l29 160h68l-50 -160h-47zM90 0v688h64v-627h304v-61h-368z" />
    <glyph glyph-name="lcaron" unicode="&#x13e;" horiz-adv-x="257" 
d="M198 561l29 160h68l-50 -160h-47zM80 0v721h60v-721h-60z" />
    <glyph glyph-name="Ldot" unicode="&#x13f;" horiz-adv-x="468" 
d="M90 0v688h64v-627h304v-61h-368zM349 311q-19 0 -33.5 14.5t-14.5 33.5q0 20 14 34t34 14t34 -14t14 -34t-14 -34t-34 -14z" />
    <glyph glyph-name="ldot" unicode="&#x140;" horiz-adv-x="330" 
d="M80 0v721h60v-721h-60zM272 301q-20 0 -34 14.5t-14 33.5q0 20 14 34t34 14t34 -14t14 -34t-14 -34t-34 -14z" />
    <glyph glyph-name="Lslash" unicode="&#x141;" horiz-adv-x="473" 
d="M95 0v324l-72 -39v58l72 39v306h64v-271l91 49v-59l-91 -49v-297h304v-61h-368z" />
    <glyph glyph-name="lslash" unicode="&#x142;" horiz-adv-x="231" 
d="M80 0v326l-76 -41v58l76 41v337h60v-304l91 49v-59l-91 -49v-358h-60z" />
    <glyph glyph-name="Nacute" unicode="&#x143;" horiz-adv-x="741" 
d="M90 0v688h78l418 -601v601h65v-688h-81l-415 598v-598h-65zM366 715l-28 35l142 125l42 -50z" />
    <glyph glyph-name="nacute" unicode="&#x144;" 
d="M80 0v460h60v-64q76 70 151 70q68 0 102 -34t34 -85v-347h-60v325q0 43 -22 63.5t-57 20.5q-44 0 -91 -32t-57 -48v-329h-60zM213 524l-32 32l131 138l46 -47z" />
    <glyph glyph-name="Ncommaaccent" unicode="&#x145;" horiz-adv-x="741" 
d="M90 0v688h78l418 -601v601h65v-688h-81l-415 598v-598h-65zM314 -191l29 160h68l-50 -160h-47z" />
    <glyph glyph-name="ncommaaccent" unicode="&#x146;" 
d="M80 0v460h60v-64q76 70 151 70q68 0 102 -34t34 -85v-347h-60v325q0 43 -22 63.5t-57 20.5q-44 0 -91 -32t-57 -48v-329h-60zM199 -191l29 160h68l-50 -160h-47z" />
    <glyph glyph-name="Ncaron" unicode="&#x147;" horiz-adv-x="741" 
d="M90 0v688h78l418 -601v601h65v-688h-81l-415 598v-598h-65zM375 715l-136 105l36 42l100 -83l100 83l36 -42z" />
    <glyph glyph-name="ncaron" unicode="&#x148;" 
d="M80 0v460h60v-64q76 70 151 70q68 0 102 -34t34 -85v-347h-60v325q0 43 -22 63.5t-57 20.5q-44 0 -91 -32t-57 -48v-329h-60zM258 537l-136 105l36 42l100 -83l100 83l36 -42z" />
    <glyph glyph-name="napostrophe" unicode="&#x149;" 
d="M80 0v460h60v-64q76 70 151 70q68 0 102 -34t34 -85v-347h-60v325q0 43 -22 63.5t-57 20.5q-44 0 -91 -32t-57 -48v-329h-60zM-31 524l72 197h64l-83 -197h-53z" />
    <glyph glyph-name="Eng" unicode="&#x14a;" horiz-adv-x="741" 
d="M415 -212v58q65 0 112 36.5t57 117.5h-14l-415 598v-598h-65v688h78l418 -601v601h65v-660q0 -115 -63 -177.5t-173 -62.5z" />
    <glyph glyph-name="eng" unicode="&#x14b;" 
d="M295 -230l-34 42q106 72 106 207v306q0 43 -22 63.5t-57 20.5q-44 0 -91 -32t-57 -48v-329h-60v460h60v-64q76 70 151 70q68 0 102 -34t34 -85v-343q0 -148 -132 -234z" />
    <glyph glyph-name="Omacron" unicode="&#x14c;" horiz-adv-x="770" 
d="M386 -6q-149 0 -242.5 98t-93.5 252q0 150 93 250t244 100q145 0 239 -102t94 -247q0 -156 -94 -253.5t-240 -97.5zM383 55q123 0 197.5 84t74.5 205q0 122 -73 205.5t-196 83.5t-196.5 -83.5t-73.5 -205.5q0 -115 73 -202t194 -87zM282 752v54h215v-54h-215z" />
    <glyph glyph-name="omacron" unicode="&#x14d;" horiz-adv-x="505" 
d="M146 551v54h215v-54h-215zM255 -6q-56 0 -100 22t-69 57t-38 75t-13 81q0 39 13.5 79.5t38.5 76.5t69 58.5t98 22.5q55 0 98 -22.5t68 -58.5t37.5 -75.5t12.5 -79.5q0 -54 -21 -106t-72 -91t-122 -39zM253 50q57 0 105.5 44.5t48.5 135.5q0 88 -47.5 133.5t-104.5 45.5
t-107 -44.5t-50 -135.5q0 -88 48.5 -133.5t106.5 -45.5z" />
    <glyph glyph-name="Obreve" unicode="&#x14e;" horiz-adv-x="770" 
d="M387 725q-55 0 -91.5 31.5t-41.5 53.5l40 22q3 -6 10 -15.5t31 -25t52 -15.5t51.5 14t33.5 28l9 14l40 -22q-5 -22 -42 -53.5t-92 -31.5zM386 -6q-149 0 -242.5 98t-93.5 252q0 150 93 250t244 100q145 0 239 -102t94 -247q0 -156 -94 -253.5t-240 -97.5zM383 55
q123 0 197.5 84t74.5 205q0 122 -73 205.5t-196 83.5t-196.5 -83.5t-73.5 -205.5q0 -115 73 -202t194 -87z" />
    <glyph glyph-name="obreve" unicode="&#x14f;" horiz-adv-x="505" 
d="M254 555q-55 0 -91.5 31.5t-41.5 53.5l40 22q3 -6 10 -15.5t31 -25t52 -15.5t51.5 14t32.5 28l10 14l40 -22q-5 -22 -42 -53.5t-92 -31.5zM255 -6q-56 0 -100 22t-69 57t-38 75t-13 81q0 39 13.5 79.5t38.5 76.5t69 58.5t98 22.5q55 0 98 -22.5t68 -58.5t37.5 -75.5
t12.5 -79.5q0 -54 -21 -106t-72 -91t-122 -39zM253 50q57 0 105.5 44.5t48.5 135.5q0 88 -47.5 133.5t-104.5 45.5t-107 -44.5t-50 -135.5q0 -88 48.5 -133.5t106.5 -45.5z" />
    <glyph glyph-name="Ohungarumlaut" unicode="&#x150;" horiz-adv-x="770" 
d="M282 715l-28 35l142 125l42 -50zM461 715l-28 35l142 125l42 -50zM386 -6q-149 0 -242.5 98t-93.5 252q0 150 93 250t244 100q145 0 239 -102t94 -247q0 -156 -94 -253.5t-240 -97.5zM383 55q123 0 197.5 84t74.5 205q0 122 -73 205.5t-196 83.5t-196.5 -83.5
t-73.5 -205.5q0 -115 73 -202t194 -87z" />
    <glyph glyph-name="ohungarumlaut" unicode="&#x151;" horiz-adv-x="505" 
d="M146 551l-32 32l131 137l46 -46zM320 551l-32 32l132 137l45 -46zM255 -6q-56 0 -100 22t-69 57t-38 75t-13 81q0 39 13.5 79.5t38.5 76.5t69 58.5t98 22.5q55 0 98 -22.5t68 -58.5t37.5 -75.5t12.5 -79.5q0 -54 -21 -106t-72 -91t-122 -39zM253 50q57 0 105.5 44.5
t48.5 135.5q0 88 -47.5 133.5t-104.5 45.5t-107 -44.5t-50 -135.5q0 -88 48.5 -133.5t106.5 -45.5z" />
    <glyph glyph-name="OE" unicode="&#x152;" horiz-adv-x="847" 
d="M386 -6q-149 0 -242.5 98t-93.5 252q0 150 93 250t244 100q34 0 64 -6h349v-61h-296v-243h274v-60h-274v-264h296v-60h-346q-33 -6 -68 -6zM383 55q27 0 57 5v568q-28 5 -54 5q-123 0 -196.5 -83.5t-73.5 -205.5q0 -115 73 -202t194 -87z" />
    <glyph glyph-name="oe" unicode="&#x153;" horiz-adv-x="805" 
d="M761 34q-69 -40 -148 -40q-126 0 -182 106q-59 -106 -181 -106q-56 0 -100 22t-69 57t-38 75t-13 81q0 39 13.5 79.5t38.5 76.5t69 58.5t98 22.5q124 0 183 -107q54 107 174 107q87 0 128 -55.5t41 -145.5v-36h-310q0 -77 38.5 -127.5t113.5 -50.5q64 0 114 35l7 -13
l16 -26zM248 50q57 0 105.5 44.5t48.5 135.5q0 88 -47.5 133.5t-104.5 45.5t-107 -44.5t-50 -135.5q0 -88 48.5 -133.5t106.5 -45.5zM471 283h241q0 52 -28 89t-79 37q-57 0 -92 -39.5t-42 -86.5z" />
    <glyph glyph-name="Racute" unicode="&#x154;" horiz-adv-x="512" 
d="M431 -9l-210 321h-66v-312h-65v688h168q199 0 199 -170q0 -79 -49 -131.5t-118 -67.5l202 -299zM155 373h56q178 0 178 146q0 29 -9.5 49.5t-23.5 32t-35.5 18t-39.5 8t-42 1.5h-84v-255zM183 715l-28 35l142 125l42 -50z" />
    <glyph glyph-name="racute" unicode="&#x155;" horiz-adv-x="332" 
d="M81 0v460h60v-65q10 12 24 25t42 29.5t52 16.5q37 0 74 -16l-25 -59q-28 14 -58 14q-28 0 -60 -24.5t-49 -52.5v-328h-60zM147 524l-32 32l131 138l46 -47z" />
    <glyph glyph-name="Rcommaaccent" unicode="&#x156;" horiz-adv-x="512" 
d="M431 -9l-210 321h-66v-312h-65v688h168q199 0 199 -170q0 -79 -49 -131.5t-118 -67.5l202 -299zM155 373h56q178 0 178 146q0 29 -9.5 49.5t-23.5 32t-35.5 18t-39.5 8t-42 1.5h-84v-255zM226 -191l29 160h68l-50 -160h-47z" />
    <glyph glyph-name="rcommaaccent" unicode="&#x157;" horiz-adv-x="332" 
d="M81 0v460h60v-65q10 12 24 25t42 29.5t52 16.5q37 0 74 -16l-25 -59q-28 14 -58 14q-28 0 -60 -24.5t-49 -52.5v-328h-60zM58 -191l29 160h68l-50 -160h-47z" />
    <glyph glyph-name="Rcaron" unicode="&#x158;" horiz-adv-x="512" 
d="M431 -9l-210 321h-66v-312h-65v688h168q199 0 199 -170q0 -79 -49 -131.5t-118 -67.5l202 -299zM155 373h56q178 0 178 146q0 29 -9.5 49.5t-23.5 32t-35.5 18t-39.5 8t-42 1.5h-84v-255zM237 715l-136 105l36 42l100 -83l100 83l36 -42z" />
    <glyph glyph-name="rcaron" unicode="&#x159;" horiz-adv-x="332" 
d="M81 0v460h60v-65q10 12 24 25t42 29.5t52 16.5q37 0 74 -16l-25 -59q-28 14 -58 14q-28 0 -60 -24.5t-49 -52.5v-328h-60zM184 537l-136 105l36 42l100 -83l100 83l36 -42z" />
    <glyph glyph-name="Sacute" unicode="&#x15a;" horiz-adv-x="473" 
d="M226 -6q-107 0 -176 69l40 46q29 -29 65.5 -42t65.5 -13q57 0 97 34t40 88q0 27 -8.5 49t-18 35.5t-32.5 28.5t-34.5 21t-42.5 20q-10 5 -15 7q-77 36 -111.5 75.5t-34.5 116.5q0 69 55.5 117t128.5 48q47 0 81.5 -9.5t85.5 -42.5l-36 -51q-32 21 -57 30.5t-36 10.5
t-40 1q-39 0 -78 -28t-39 -81q0 -23 7 -42t15.5 -31t26.5 -24.5t30 -19t36 -17.5q91 -42 120 -66q62 -52 62 -144q0 -78 -57.5 -132t-139.5 -54zM218 715l-28 35l142 125l42 -50z" />
    <glyph glyph-name="sacute" unicode="&#x15b;" horiz-adv-x="350" 
d="M168 -6q-74 0 -123 34l29 51q40 -29 92 -29q34 0 57 19.5t23 51.5q0 33 -24 54.5t-76 46.5q-52 26 -75 54t-23 75q0 53 41.5 84t90.5 31q68 0 114 -33l-28 -49q-33 25 -85 25q-30 0 -51 -15.5t-21 -41.5q0 -11 3.5 -21t6 -15.5t12.5 -13.5t13 -10t18.5 -11t17.5 -10
q3 -2 23.5 -12.5t26.5 -14.5t22.5 -15.5t23 -20.5t16 -22.5t13 -29.5t3.5 -35q0 -59 -43.5 -93t-96.5 -34zM130 524l-32 32l131 138l46 -47z" />
    <glyph glyph-name="Scircumflex" unicode="&#x15c;" horiz-adv-x="473" 
d="M226 -6q-107 0 -176 69l40 46q29 -29 65.5 -42t65.5 -13q57 0 97 34t40 88q0 27 -8.5 49t-18 35.5t-32.5 28.5t-34.5 21t-42.5 20q-10 5 -15 7q-77 36 -111.5 75.5t-34.5 116.5q0 69 55.5 117t128.5 48q47 0 81.5 -9.5t85.5 -42.5l-36 -51q-32 21 -57 30.5t-36 10.5
t-40 1q-39 0 -78 -28t-39 -81q0 -23 7 -42t15.5 -31t26.5 -24.5t30 -19t36 -17.5q91 -42 120 -66q62 -52 62 -144q0 -78 -57.5 -132t-139.5 -54zM156 716l-36 42l136 105l136 -105l-36 -42l-100 83z" />
    <glyph glyph-name="scircumflex" unicode="&#x15d;" horiz-adv-x="350" 
d="M168 -6q-74 0 -123 34l29 51q40 -29 92 -29q34 0 57 19.5t23 51.5q0 33 -24 54.5t-76 46.5q-52 26 -75 54t-23 75q0 53 41.5 84t90.5 31q68 0 114 -33l-28 -49q-33 25 -85 25q-30 0 -51 -15.5t-21 -41.5q0 -11 3.5 -21t6 -15.5t12.5 -13.5t13 -10t18.5 -11t17.5 -10
q3 -2 23.5 -12.5t26.5 -14.5t22.5 -15.5t23 -20.5t16 -22.5t13 -29.5t3.5 -35q0 -59 -43.5 -93t-96.5 -34zM75 536l-36 43l136 105l136 -105l-36 -43l-100 84z" />
    <glyph glyph-name="Scedilla" unicode="&#x15e;" horiz-adv-x="473" 
d="M193 -226l-23 42q32 15 43.5 27.5t11.5 31.5q0 29 -37 66l22 53q-95 4 -160 69l40 46q29 -29 65.5 -42t65.5 -13q57 0 97 34t40 88q0 27 -8.5 49t-18 35.5t-32.5 28.5t-34.5 21t-42.5 20q-10 5 -15 7q-77 36 -111.5 75.5t-34.5 116.5q0 69 55.5 117t128.5 48
q47 0 81.5 -9.5t85.5 -42.5l-36 -51q-32 21 -57 30.5t-36 10.5t-40 1q-39 0 -78 -28t-39 -81q0 -23 7 -42t15.5 -31t26.5 -24.5t30 -19t36 -17.5q91 -42 120 -66q62 -52 62 -144q0 -68 -45 -119t-113 -63l-18 -43q38 -35 38 -82q0 -34 -26 -60t-66 -39z" />
    <glyph glyph-name="scedilla" unicode="&#x15f;" horiz-adv-x="350" 
d="M122 -226l-23 42q32 15 43.5 27.5t11.5 31.5q0 29 -37 66l23 54q-56 6 -95 33l29 51q40 -29 92 -29q34 0 57 19.5t23 51.5q0 33 -24 54.5t-76 46.5q-52 26 -75 54t-23 75q0 53 41.5 84t90.5 31q68 0 114 -33l-28 -49q-33 25 -85 25q-30 0 -51 -15.5t-21 -41.5
q0 -11 3.5 -21t6 -15.5t12.5 -13.5t13 -10t18.5 -11t17.5 -10q3 -2 23.5 -12.5t26.5 -14.5t22.5 -15.5t23 -20.5t16 -22.5t13 -29.5t3.5 -35q0 -51 -34 -84.5t-81 -40.5l-17 -41q38 -35 38 -82q0 -34 -26 -60t-66 -39z" />
    <glyph glyph-name="Scaron" unicode="&#x160;" horiz-adv-x="473" 
d="M226 -6q-107 0 -176 69l40 46q29 -29 65.5 -42t65.5 -13q57 0 97 34t40 88q0 27 -8.5 49t-18 35.5t-32.5 28.5t-34.5 21t-42.5 20q-10 5 -15 7q-77 36 -111.5 75.5t-34.5 116.5q0 69 55.5 117t128.5 48q47 0 81.5 -9.5t85.5 -42.5l-36 -51q-32 21 -57 30.5t-36 10.5
t-40 1q-39 0 -78 -28t-39 -81q0 -23 7 -42t15.5 -31t26.5 -24.5t30 -19t36 -17.5q91 -42 120 -66q62 -52 62 -144q0 -78 -57.5 -132t-139.5 -54zM247 715l-136 105l36 42l100 -83l100 83l36 -42z" />
    <glyph glyph-name="scaron" unicode="&#x161;" horiz-adv-x="350" 
d="M173 537l-136 105l36 42l100 -83l100 83l36 -42zM168 -6q-74 0 -123 34l29 51q40 -29 92 -29q34 0 57 19.5t23 51.5q0 33 -24 54.5t-76 46.5q-52 26 -75 54t-23 75q0 53 41.5 84t90.5 31q68 0 114 -33l-28 -49q-33 25 -85 25q-30 0 -51 -15.5t-21 -41.5q0 -11 3.5 -21
t6 -15.5t12.5 -13.5t13 -10t18.5 -11t17.5 -10q3 -2 23.5 -12.5t26.5 -14.5t22.5 -15.5t23 -20.5t16 -22.5t13 -29.5t3.5 -35q0 -59 -43.5 -93t-96.5 -34z" />
    <glyph glyph-name="Tcommaaccent" unicode="&#x162;" 
d="M218 0v627h-223v61h507v-61h-219v-627h-65zM192 -191l29 160h68l-50 -160h-47z" />
    <glyph glyph-name="tcommaaccent" unicode="&#x163;" horiz-adv-x="311" 
d="M210 -6q-54 0 -79.5 29.5t-25.5 90.5v290h-80v56h79v86h60v-86h121v-56h-120v-280q0 -74 48 -74q17 0 33.5 4.5t23.5 9.5l8 4l23 -50q-34 -24 -91 -24zM156 -191l29 160h68l-50 -160h-47z" />
    <glyph glyph-name="Tcaron" unicode="&#x164;" 
d="M218 0v627h-223v61h507v-61h-219v-627h-65zM252 715l-136 105l36 42l100 -83l100 83l36 -42z" />
    <glyph glyph-name="tcaron" unicode="&#x165;" horiz-adv-x="311" 
d="M224 561l29 160h68l-50 -160h-47zM210 -6q-54 0 -79.5 29.5t-25.5 90.5v290h-80v56h79v86h60v-86h121v-56h-120v-280q0 -74 48 -74q17 0 33.5 4.5t23.5 9.5l8 4l23 -50q-34 -24 -91 -24z" />
    <glyph glyph-name="Tbar" unicode="&#x166;" 
d="M218 0v398h-153v54h153v175h-223v61h507v-61h-219v-175h153v-54h-153v-398h-65z" />
    <glyph glyph-name="tbar" unicode="&#x167;" horiz-adv-x="311" 
d="M210 -6q-54 0 -79.5 29.5t-25.5 90.5v168h-80v54h80v68h-80v56h79v86h60v-86h121v-56h-120v-68h81v-54h-81v-158q0 -74 48 -74q17 0 33.5 4.5t23.5 9.5l8 4l23 -50q-34 -24 -91 -24z" />
    <glyph glyph-name="Utilde" unicode="&#x168;" horiz-adv-x="660" 
d="M332 -7q-115 0 -186 61.5t-71 164.5v469h65v-459q0 -80 54 -127t141 -47q85 0 135 43.5t50 138.5v451h65v-467q0 -107 -73 -167.5t-180 -60.5zM488 805q-11 -28 -33.5 -50.5t-54.5 -22.5q-22 0 -60 22.5t-52 22.5q-36 0 -56 -45l-38 21q12 31 37 52t55 21q17 0 57 -22
t52 -22q19 0 30 10.5t24 32.5z" />
    <glyph glyph-name="utilde" unicode="&#x169;" horiz-adv-x="492" 
d="M207 -6q-69 0 -103 34t-34 85v347h60v-325q0 -84 80 -84q42 0 86 30.5t56 48.5v330h60v-460h-60v65q-80 -71 -145 -71zM391 634q-10 -27 -35 -50t-58 -23q-22 0 -57.5 22.5t-49.5 22.5q-36 0 -56 -45l-38 21q10 31 35.5 53t55.5 22q23 0 58.5 -23t51.5 -23q19 0 30 10.5
t24 32.5z" />
    <glyph glyph-name="Umacron" unicode="&#x16a;" horiz-adv-x="660" 
d="M332 -7q-115 0 -186 61.5t-71 164.5v469h65v-459q0 -80 54 -127t141 -47q85 0 135 43.5t50 138.5v451h65v-467q0 -107 -73 -167.5t-180 -60.5zM224 752v54h215v-54h-215z" />
    <glyph glyph-name="umacron" unicode="&#x16b;" horiz-adv-x="492" 
d="M207 -6q-69 0 -103 34t-34 85v347h60v-325q0 -84 80 -84q42 0 86 30.5t56 48.5v330h60v-460h-60v65q-80 -71 -145 -71zM136 551v54h215v-54h-215z" />
    <glyph glyph-name="Ubreve" unicode="&#x16c;" horiz-adv-x="660" 
d="M332 -7q-115 0 -186 61.5t-71 164.5v469h65v-459q0 -80 54 -127t141 -47q85 0 135 43.5t50 138.5v451h65v-467q0 -107 -73 -167.5t-180 -60.5zM333 725q-55 0 -91.5 31.5t-41.5 53.5l40 22q3 -6 10 -15.5t31 -25t52 -15.5t51.5 14t33.5 28l9 14l40 -22q-5 -22 -42 -53.5
t-92 -31.5z" />
    <glyph glyph-name="ubreve" unicode="&#x16d;" horiz-adv-x="492" 
d="M207 -6q-69 0 -103 34t-34 85v347h60v-325q0 -84 80 -84q42 0 86 30.5t56 48.5v330h60v-460h-60v65q-80 -71 -145 -71zM248 555q-55 0 -91.5 31.5t-41.5 53.5l40 22q3 -6 10 -15.5t31 -25t52 -15.5t51.5 14t32.5 28l10 14l40 -22q-5 -22 -42 -53.5t-92 -31.5z" />
    <glyph glyph-name="Uring" unicode="&#x16e;" horiz-adv-x="660" 
d="M332 -7q-115 0 -186 61.5t-71 164.5v469h65v-459q0 -80 54 -127t141 -47q85 0 135 43.5t50 138.5v451h65v-467q0 -107 -73 -167.5t-180 -60.5zM332 681q-41 0 -68 25t-27 65t27 64.5t68 24.5t68 -24.5t27 -64.5t-27 -65t-68 -25zM332 718q21 0 35 16t14 37t-14 36.5
t-35 15.5t-35 -15.5t-14 -36.5t14 -37t35 -16z" />
    <glyph glyph-name="uring" unicode="&#x16f;" horiz-adv-x="492" 
d="M207 -6q-69 0 -103 34t-34 85v347h60v-325q0 -84 80 -84q42 0 86 30.5t56 48.5v330h60v-460h-60v65q-80 -71 -145 -71zM245 521q-41 0 -68 25t-27 65t27 64.5t68 24.5t68 -24.5t27 -64.5t-27 -65t-68 -25zM245 558q21 0 35 16t14 37t-14 36.5t-35 15.5t-35 -15.5
t-14 -36.5t14 -37t35 -16z" />
    <glyph glyph-name="Uhungarumlaut" unicode="&#x170;" horiz-adv-x="660" 
d="M332 -7q-115 0 -186 61.5t-71 164.5v469h65v-459q0 -80 54 -127t141 -47q85 0 135 43.5t50 138.5v451h65v-467q0 -107 -73 -167.5t-180 -60.5zM227 715l-28 35l142 125l42 -50zM406 715l-28 35l142 125l42 -50z" />
    <glyph glyph-name="uhungarumlaut" unicode="&#x171;" horiz-adv-x="492" 
d="M207 -6q-69 0 -103 34t-34 85v347h60v-325q0 -84 80 -84q42 0 86 30.5t56 48.5v330h60v-460h-60v65q-80 -71 -145 -71zM156 551l-32 32l131 137l46 -46zM330 551l-32 32l132 137l45 -46z" />
    <glyph glyph-name="Uogonek" unicode="&#x172;" horiz-adv-x="660" 
d="M374 -186q-49 0 -72.5 23t-23.5 60q0 49 51 96q-113 1 -183.5 62.5t-70.5 163.5v469h65v-459q0 -80 54 -127t141 -47q85 0 135 43.5t50 138.5v451h65v-467q0 -89 -51 -146.5t-133 -74.5q-66 -50 -66 -102q0 -16 11.5 -26.5t31.5 -10.5q24 0 39 5l6 -45q-25 -7 -49 -7z
" />
    <glyph glyph-name="uogonek" unicode="&#x173;" horiz-adv-x="492" 
d="M386 -186q-49 0 -72.5 23t-23.5 60q0 56 62 103v65q-80 -71 -145 -71q-69 0 -103 34t-34 85v347h60v-325q0 -84 80 -84q42 0 86 30.5t56 48.5v330h60v-460q-65 -49 -65 -102q0 -16 11.5 -26.5t31.5 -10.5q24 0 39 5l6 -45q-25 -7 -49 -7z" />
    <glyph glyph-name="Wcircumflex" unicode="&#x174;" horiz-adv-x="889" 
d="M233 0l-213 676l64 17l174 -561l165 556h45l171 -562l171 568l59 -16l-209 -678h-46l-170 562l-165 -562h-46zM346 716l-36 42l136 105l136 -105l-36 -42l-100 83z" />
    <glyph glyph-name="wcircumflex" unicode="&#x175;" horiz-adv-x="711" 
d="M168 0l-153 446l55 19l129 -382l126 377h62l125 -377l130 382l54 -17l-153 -448h-62l-125 370l-127 -370h-61zM255 536l-36 43l136 105l136 -105l-36 -43l-100 84z" />
    <glyph glyph-name="Ycircumflex" unicode="&#x176;" horiz-adv-x="520" 
d="M228 0v328l-228 334l53 31l208 -300l207 300l52 -33l-228 -332v-328h-64zM162 716l-36 42l136 105l136 -105l-36 -42l-100 83z" />
    <glyph glyph-name="ycircumflex" unicode="&#x177;" horiz-adv-x="451" 
d="M37 -238q-15 0 -22 1v53q6 -1 18 -1q38 0 69 21t45 56l54 132l-184 419l56 23l159 -366l150 366l54 -20l-230 -563q-23 -56 -67 -88.5t-102 -32.5zM132 536l-36 43l136 105l136 -105l-36 -43l-100 84z" />
    <glyph glyph-name="Ydieresis" unicode="&#x178;" horiz-adv-x="520" 
d="M228 0v328l-228 334l53 31l208 -300l207 300l52 -33l-228 -332v-328h-64zM184 735q-19 0 -32 13t-13 32t13 32t32 13t32 -13t13 -32t-13 -32t-32 -13zM341 735q-19 0 -32.5 13t-13.5 32t13.5 32t32.5 13t32 -13t13 -32t-13 -32t-32 -13z" />
    <glyph glyph-name="Zacute" unicode="&#x179;" horiz-adv-x="566" 
d="M61 0l-26 51l407 571h-395v60h460l24 -45l-411 -577h404v-60h-463zM265 715l-28 35l142 125l42 -50z" />
    <glyph glyph-name="zacute" unicode="&#x17a;" horiz-adv-x="396" 
d="M49 0l-24 42l256 363h-241v55h302l17 -45l-254 -359h240v-56h-296zM157 524l-32 32l131 138l46 -47z" />
    <glyph glyph-name="Zdotaccent" unicode="&#x17b;" horiz-adv-x="566" 
d="M61 0l-26 51l407 571h-395v60h460l24 -45l-411 -577h404v-60h-463zM290 735q-19 0 -32.5 13t-13.5 32t13.5 32t32.5 13t32 -13t13 -32t-13 -32t-32 -13z" />
    <glyph glyph-name="zdotaccent" unicode="&#x17c;" horiz-adv-x="396" 
d="M49 0l-24 42l256 363h-241v55h302l17 -45l-254 -359h240v-56h-296zM197 563q-19 0 -32 13.5t-13 32.5t13 32t32 13t32 -13t13 -32t-13 -32.5t-32 -13.5z" />
    <glyph glyph-name="Zcaron" unicode="&#x17d;" horiz-adv-x="566" 
d="M283 715l-136 105l36 42l100 -83l100 83l36 -42zM61 0l-26 51l407 571h-395v60h460l24 -45l-411 -577h404v-60h-463z" />
    <glyph glyph-name="zcaron" unicode="&#x17e;" horiz-adv-x="396" 
d="M198 537l-136 105l36 42l100 -83l100 83l36 -42zM49 0l-24 42l256 363h-241v55h302l17 -45l-254 -359h240v-56h-296z" />
    <glyph glyph-name="florin" unicode="&#x192;" horiz-adv-x="340" 
d="M19 -6q-47 0 -79 16l20 56q21 -15 43 -15q42 0 63 17.5t26 55.5l9 99h-77v55h82l7 71q5 55 41.5 89.5t90.5 34.5q47 0 81 -16l-21 -56q-24 16 -63 16q-22 0 -43 -16t-26 -56l-7 -67h107v-55h-112l-8 -93q-6 -61 -40 -98.5t-94 -37.5z" />
    <glyph glyph-name="uni01D3" unicode="&#x1d3;" horiz-adv-x="660" 
d="M332 -7q-115 0 -186 61.5t-71 164.5v469h65v-459q0 -80 54 -127t141 -47q85 0 135 43.5t50 138.5v451h65v-467q0 -107 -73 -167.5t-180 -60.5zM337 715l-136 105l36 42l100 -83l100 83l36 -42z" />
    <glyph glyph-name="uni01D4" unicode="&#x1d4;" horiz-adv-x="492" 
d="M207 -6q-69 0 -103 34t-34 85v347h60v-325q0 -84 80 -84q42 0 86 30.5t56 48.5v330h60v-460h-60v65q-80 -71 -145 -71zM239 537l-136 105l36 42l100 -83l100 83l36 -42z" />
    <glyph glyph-name="AEmacron" unicode="&#x1e2;" horiz-adv-x="828" 
d="M56 -8l-56 20l421 676h360v-61h-296v-243h274v-60h-274v-264h295v-60h-359v226h-219zM239 286h182v290zM483 752v54h215v-54h-215z" />
    <glyph glyph-name="aemacron" unicode="&#x1e3;" horiz-adv-x="685" 
d="M154 -6q-57 0 -88 32.5t-31 81.5q0 67 49.5 100t157.5 62l44 12v44q0 83 -85 83q-51 0 -111 -50l-35 43q1 1 11 9.5t17 13.5t21.5 14t27.5 14t31.5 9t37.5 4q103 0 134 -71q56 71 152 71q86 0 127 -55.5t41 -145.5v-36h-309q0 -77 38.5 -129t112.5 -52q58 0 115 38l7 -13
q7 -13 15 -26l7 -13q-67 -40 -147 -40q-110 0 -169 84q-28 -25 -46.5 -38.5t-54 -29.5t-70.5 -16zM163 48q48 0 123 54v129l-37 -10l-1 -1v1l-1 -1q-151 -41 -151 -107q0 -65 67 -65zM351 283h241q0 53 -27.5 89.5t-78.5 36.5q-57 0 -92 -39.5t-43 -86.5zM235 551v54h215
v-54h-215z" />
    <glyph glyph-name="AEacute" unicode="&#x1fc;" horiz-adv-x="828" 
d="M56 -8l-56 20l421 676h360v-61h-296v-243h274v-60h-274v-264h295v-60h-359v226h-219zM239 286h182v290zM533 715l-28 35l142 125l42 -50z" />
    <glyph glyph-name="aeacute" unicode="&#x1fd;" horiz-adv-x="685" 
d="M154 -6q-57 0 -88 32.5t-31 81.5q0 67 49.5 100t157.5 62l44 12v44q0 83 -85 83q-51 0 -111 -50l-35 43q1 1 11 9.5t17 13.5t21.5 14t27.5 14t31.5 9t37.5 4q103 0 134 -71q56 71 152 71q86 0 127 -55.5t41 -145.5v-36h-309q0 -77 38.5 -129t112.5 -52q58 0 115 38l7 -13
q7 -13 15 -26l7 -13q-67 -40 -147 -40q-110 0 -169 84q-28 -25 -46.5 -38.5t-54 -29.5t-70.5 -16zM163 48q48 0 123 54v129l-37 -10l-1 -1v1l-1 -1q-151 -41 -151 -107q0 -65 67 -65zM351 283h241q0 53 -27.5 89.5t-78.5 36.5q-57 0 -92 -39.5t-43 -86.5zM310 524l-32 32
l131 138l46 -47z" />
    <glyph glyph-name="Oslashacute" unicode="&#x1fe;" horiz-adv-x="770" 
d="M386 -6q-131 0 -221 78l-73 -77l-44 39l76 81q-74 94 -74 229q0 150 93 250t244 100q123 0 213 -77l72 76l45 -40l-75 -79q78 -99 78 -229q0 -156 -94 -253.5t-240 -97.5zM383 55q123 0 197.5 84t74.5 205q0 106 -56 184l-389 -409q72 -64 173 -64zM171 164l387 409
q-71 60 -172 60q-123 0 -196.5 -83.5t-73.5 -205.5q0 -101 55 -180zM357 715l-28 35l142 125l42 -50z" />
    <glyph glyph-name="oslashacute" unicode="&#x1ff;" horiz-adv-x="505" 
d="M80 -7l-39 32l43 51q-49 65 -49 153q0 39 13.5 79.5t38.5 76.5t69 58.5t98 22.5q73 0 125 -39l46 55l38 -32l-48 -58q55 -68 55 -162q0 -54 -21 -106t-72 -91t-122 -39q-80 0 -137 45zM253 50q57 0 105.5 44.5t48.5 135.5q0 70 -32 115l-218 -259q43 -36 96 -36zM124 124
l216 257q-40 28 -85 28q-57 0 -107 -44.5t-50 -135.5q0 -61 26 -105zM214 524l-32 32l131 138l46 -47z" />
    <glyph glyph-name="Scommaaccent" unicode="&#x218;" horiz-adv-x="473" 
d="M226 -6q-107 0 -176 69l40 46q29 -29 65.5 -42t65.5 -13q57 0 97 34t40 88q0 27 -8.5 49t-18 35.5t-32.5 28.5t-34.5 21t-42.5 20q-10 5 -15 7q-77 36 -111.5 75.5t-34.5 116.5q0 69 55.5 117t128.5 48q47 0 81.5 -9.5t85.5 -42.5l-36 -51q-32 21 -57 30.5t-36 10.5
t-40 1q-39 0 -78 -28t-39 -81q0 -23 7 -42t15.5 -31t26.5 -24.5t30 -19t36 -17.5q91 -42 120 -66q62 -52 62 -144q0 -78 -57.5 -132t-139.5 -54zM170 -191l29 160h68l-50 -160h-47z" />
    <glyph glyph-name="scommaaccent" unicode="&#x219;" horiz-adv-x="350" 
d="M168 -6q-74 0 -123 34l29 51q40 -29 92 -29q34 0 57 19.5t23 51.5q0 33 -24 54.5t-76 46.5q-52 26 -75 54t-23 75q0 53 41.5 84t90.5 31q68 0 114 -33l-28 -49q-33 25 -85 25q-30 0 -51 -15.5t-21 -41.5q0 -11 3.5 -21t6 -15.5t12.5 -13.5t13 -10t18.5 -11t17.5 -10
q3 -2 23.5 -12.5t26.5 -14.5t22.5 -15.5t23 -20.5t16 -22.5t13 -29.5t3.5 -35q0 -59 -43.5 -93t-96.5 -34zM116 -191l29 160h68l-50 -160h-47z" />
    <glyph glyph-name="uni021A" unicode="&#x21a;" 
d="M218 0v627h-223v61h507v-61h-219v-627h-65zM197 -191l29 160h68l-50 -160h-47z" />
    <glyph glyph-name="uni021B" unicode="&#x21b;" horiz-adv-x="311" 
d="M210 -6q-54 0 -79.5 29.5t-25.5 90.5v290h-80v56h79v86h60v-86h121v-56h-120v-280q0 -74 48 -74q17 0 33.5 4.5t23.5 9.5l8 4l23 -50q-34 -24 -91 -24zM146 -191l29 160h68l-50 -160h-47z" />
    <glyph glyph-name="Ymacron" unicode="&#x232;" horiz-adv-x="520" 
d="M228 0v328l-228 334l53 31l208 -300l207 300l52 -33l-228 -332v-328h-64zM155 752v54h215v-54h-215z" />
    <glyph glyph-name="ymacron" unicode="&#x233;" horiz-adv-x="451" 
d="M37 -238q-15 0 -22 1v53q6 -1 18 -1q38 0 69 21t45 56l54 132l-184 419l56 23l159 -366l150 366l54 -20l-230 -563q-23 -56 -67 -88.5t-102 -32.5zM124 551v54h215v-54h-215z" />
    <glyph glyph-name="dotlessj" unicode="&#x237;" horiz-adv-x="250" 
d="M22 -230l-34 42q106 72 106 207v441h60v-456q0 -148 -132 -234z" />
    <glyph glyph-name="circumflex" unicode="&#x2c6;" horiz-adv-x="316" 
d="M58 536l-36 43l136 105l136 -105l-36 -43l-100 84z" />
    <glyph glyph-name="caron" unicode="&#x2c7;" horiz-adv-x="322" 
d="M158 537l-136 105l36 42l100 -83l100 83l36 -42z" />
    <glyph glyph-name="breve" unicode="&#x2d8;" horiz-adv-x="297" 
d="M150 555q-55 0 -91.5 31.5t-41.5 53.5l40 22q3 -6 10 -15.5t31 -25t52 -15.5t51.5 14t32.5 28l10 14l40 -22q-5 -22 -42 -53.5t-92 -31.5z" />
    <glyph glyph-name="dotaccent" unicode="&#x2d9;" horiz-adv-x="250" 
d="M125 563q-19 0 -32 13.5t-13 32.5t13 32t32 13t32 -13t13 -32t-13 -32.5t-32 -13.5z" />
    <glyph glyph-name="ring" unicode="&#x2da;" horiz-adv-x="244" 
d="M122 521q-41 0 -68 25t-27 65t27 64.5t68 24.5t68 -24.5t27 -64.5t-27 -65t-68 -25zM122 558q21 0 35 16t14 37t-14 36.5t-35 15.5t-35 -15.5t-14 -36.5t14 -37t35 -16z" />
    <glyph glyph-name="ogonek" unicode="&#x2db;" horiz-adv-x="229" 
d="M140 -186q-49 0 -72.5 23t-23.5 60q0 81 126 147l24 -26q-93 -57 -93 -120q0 -16 11.5 -26.5t31.5 -10.5q24 0 39 5l6 -45q-25 -7 -49 -7z" />
    <glyph glyph-name="tilde" unicode="&#x2dc;" horiz-adv-x="339" 
d="M314 634q-10 -27 -35 -50t-58 -23q-22 0 -57.5 22.5t-49.5 22.5q-36 0 -56 -45l-38 21q10 31 35.5 53t55.5 22q23 0 58 -23t52 -23q19 0 30 10.5t24 32.5z" />
    <glyph glyph-name="hungarumlaut" unicode="&#x2dd;" horiz-adv-x="431" 
d="M72 551l-32 32l131 137l46 -46zM246 551l-32 32l132 137l45 -46z" />
    <glyph glyph-name="Omega" unicode="&#x3a9;" horiz-adv-x="749" 
d="M61 0v60h125q-58 42 -97 114.5t-39 169.5q0 150 92 249.5t243 99.5t242 -99.5t91 -250.5q0 -95 -37.5 -167.5t-92.5 -114.5h120v-61h-236v69q6 0 24 8.5t45 29.5t52 50.5t42.5 78.5t17.5 107q0 122 -72.5 206t-195.5 84t-196 -83.5t-73 -205.5q0 -58 17.5 -107t42 -78.5
t51.5 -51t45.5 -30t24.5 -8.5v-69h-236z" />
    <glyph glyph-name="Omega" unicode="&#x2126;" horiz-adv-x="749" 
d="M61 0v60h125q-58 42 -97 114.5t-39 169.5q0 150 92 249.5t243 99.5t242 -99.5t91 -250.5q0 -95 -37.5 -167.5t-92.5 -114.5h120v-61h-236v69q6 0 24 8.5t45 29.5t52 50.5t42.5 78.5t17.5 107q0 122 -72.5 206t-195.5 84t-196 -83.5t-73 -205.5q0 -58 17.5 -107t42 -78.5
t51.5 -51t45.5 -30t24.5 -8.5v-69h-236z" />
    <glyph glyph-name="pi" unicode="&#x3c0;" horiz-adv-x="651" 
d="M525 -6q-43 0 -77 30t-34 96v285h-205v-405h-60v405h-79v55h483v-55h-80v-285q0 -28 15 -47.5t42 -19.5q26 0 47 9l14 -55q-20 -13 -66 -13z" />
    <glyph glyph-name="uni1E46" unicode="&#x1e46;" horiz-adv-x="741" 
d="M90 0v688h78l418 -601v601h65v-688h-81l-415 598v-598h-65zM379 -186q-19 0 -32 13.5t-13 32.5t13 32t32 13t32 -13t13 -32t-13 -32.5t-32 -13.5z" />
    <glyph glyph-name="uni1E47" unicode="&#x1e47;" 
d="M80 0v460h60v-64q76 70 151 70q68 0 102 -34t34 -85v-347h-60v325q0 43 -22 63.5t-57 20.5q-44 0 -91 -32t-57 -48v-329h-60zM260 -189q-19 0 -32 13.5t-13 32.5t13 32t32 13t32 -13t13 -32t-13 -32.5t-32 -13.5z" />
    <glyph glyph-name="uni1E62" unicode="&#x1e62;" horiz-adv-x="473" 
d="M226 -6q-107 0 -176 69l40 46q29 -29 65.5 -42t65.5 -13q57 0 97 34t40 88q0 27 -8.5 49t-18 35.5t-32.5 28.5t-34.5 21t-42.5 20q-10 5 -15 7q-77 36 -111.5 75.5t-34.5 116.5q0 69 55.5 117t128.5 48q47 0 81.5 -9.5t85.5 -42.5l-36 -51q-32 21 -57 30.5t-36 10.5
t-40 1q-39 0 -78 -28t-39 -81q0 -23 7 -42t15.5 -31t26.5 -24.5t30 -19t36 -17.5q91 -42 120 -66q62 -52 62 -144q0 -78 -57.5 -132t-139.5 -54zM232 -188q-19 0 -32 13.5t-13 32.5t13 32t32 13t32 -13t13 -32t-13 -32.5t-32 -13.5z" />
    <glyph glyph-name="uni1E63" unicode="&#x1e63;" horiz-adv-x="350" 
d="M168 -6q-74 0 -123 34l29 51q40 -29 92 -29q34 0 57 19.5t23 51.5q0 33 -24 54.5t-76 46.5q-52 26 -75 54t-23 75q0 53 41.5 84t90.5 31q68 0 114 -33l-28 -49q-33 25 -85 25q-30 0 -51 -15.5t-21 -41.5q0 -11 3.5 -21t6 -15.5t12.5 -13.5t13 -10t18.5 -11t17.5 -10
q3 -2 23.5 -12.5t26.5 -14.5t22.5 -15.5t23 -20.5t16 -22.5t13 -29.5t3.5 -35q0 -59 -43.5 -93t-96.5 -34zM162 -186q-19 0 -32 13.5t-13 32.5t13 32t32 13t32 -13t13 -32t-13 -32.5t-32 -13.5z" />
    <glyph glyph-name="Wgrave" unicode="&#x1e80;" horiz-adv-x="889" 
d="M233 0l-213 676l64 17l174 -561l165 556h45l171 -562l171 568l59 -16l-209 -678h-46l-170 562l-165 -562h-46zM473 715l-156 110l42 50l142 -125z" />
    <glyph glyph-name="wgrave" unicode="&#x1e81;" horiz-adv-x="711" 
d="M168 0l-153 446l55 19l129 -382l126 377h62l125 -377l130 382l54 -17l-153 -448h-62l-125 370l-127 -370h-61zM399 524l-145 123l45 47l132 -138z" />
    <glyph glyph-name="Wacute" unicode="&#x1e82;" horiz-adv-x="889" 
d="M233 0l-213 676l64 17l174 -561l165 556h45l171 -562l171 568l59 -16l-209 -678h-46l-170 562l-165 -562h-46zM420 715l-28 35l142 125l42 -50z" />
    <glyph glyph-name="wacute" unicode="&#x1e83;" horiz-adv-x="711" 
d="M168 0l-153 446l55 19l129 -382l126 377h62l125 -377l130 382l54 -17l-153 -448h-62l-125 370l-127 -370h-61zM329 524l-32 32l131 138l46 -47z" />
    <glyph glyph-name="Wdieresis" unicode="&#x1e84;" horiz-adv-x="889" 
d="M233 0l-213 676l64 17l174 -561l165 556h45l171 -562l171 568l59 -16l-209 -678h-46l-170 562l-165 -562h-46zM366 735q-19 0 -32 13t-13 32t13 32t32 13t32 -13t13 -32t-13 -32t-32 -13zM523 735q-19 0 -32.5 13t-13.5 32t13.5 32t32.5 13t32 -13t13 -32t-13 -32
t-32 -13z" />
    <glyph glyph-name="wdieresis" unicode="&#x1e85;" horiz-adv-x="711" 
d="M168 0l-153 446l55 19l129 -382l126 377h62l125 -377l130 382l54 -17l-153 -448h-62l-125 370l-127 -370h-61zM277 565q-19 0 -32 13t-13 32t13 32t32 13t32 -13t13 -32t-13 -32t-32 -13zM434 565q-19 0 -32.5 13t-13.5 32t13.5 32t32.5 13t32 -13t13 -32t-13 -32
t-32 -13z" />
    <glyph glyph-name="uni1EBC" unicode="&#x1ebc;" 
d="M90 0v688h360v-61h-296v-243h274v-60h-274v-264h296v-60h-360zM414 805q-11 -28 -33.5 -50.5t-54.5 -22.5q-22 0 -60 22.5t-52 22.5q-36 0 -56 -45l-38 21q12 31 37 52t55 21q17 0 57 -22t52 -22q19 0 30 10.5t24 32.5z" />
    <glyph glyph-name="uni1EBD" unicode="&#x1ebd;" horiz-adv-x="442" 
d="M385 634q-10 -27 -35 -50t-58 -23q-22 0 -57.5 22.5t-49.5 22.5q-36 0 -56 -45l-38 21q10 31 35.5 53t55.5 22q22 0 58 -23t52 -23q19 0 30 10.5t24 32.5zM253 -6q-99 0 -155 66t-56 165q0 103 53.5 172t150.5 69q86 0 127 -55.5t41 -145.5v-36h-310q0 -76 39 -127
t114 -51q64 0 114 35l7 -13q8 -13 15 -26l7 -13q-67 -40 -147 -40zM110 283h241q0 53 -27.5 89.5t-78.5 36.5q-57 0 -92 -39.5t-43 -86.5z" />
    <glyph glyph-name="Ygrave" unicode="&#x1ef2;" horiz-adv-x="520" 
d="M228 0v328l-228 334l53 31l208 -300l207 300l52 -33l-228 -332v-328h-64zM303 715l-156 110l42 50l142 -125z" />
    <glyph glyph-name="ygrave" unicode="&#x1ef3;" horiz-adv-x="451" 
d="M37 -238q-15 0 -22 1v53q6 -1 18 -1q38 0 69 21t45 56l54 132l-184 419l56 23l159 -366l150 366l54 -20l-230 -563q-23 -56 -67 -88.5t-102 -32.5zM253 524l-145 123l45 47l132 -138z" />
    <glyph glyph-name="uni2012" unicode="&#x2012;" horiz-adv-x="520" 
d="M-10 317v53h540v-53h-540z" />
    <glyph glyph-name="endash" unicode="&#x2013;" horiz-adv-x="500" 
d="M30 203v53h440v-53h-440z" />
    <glyph glyph-name="emdash" unicode="&#x2014;" horiz-adv-x="750" 
d="M30 203v53h690v-53h-690z" />
    <glyph glyph-name="quoteleft" unicode="&#x2018;" horiz-adv-x="206" 
d="M35 525l83 197h53l-72 -197h-64z" />
    <glyph glyph-name="quoteright" unicode="&#x2019;" horiz-adv-x="206" 
d="M40 524l72 197h64l-83 -197h-53z" />
    <glyph glyph-name="quotesinglbase" unicode="&#x201a;" horiz-adv-x="187" 
d="M15 -119l72 197h64l-83 -197h-53z" />
    <glyph glyph-name="quotedblleft" unicode="&#x201c;" horiz-adv-x="332" 
d="M45 525l83 197h53l-72 -197h-64zM166 525l83 197h53l-72 -197h-64z" />
    <glyph glyph-name="quotedblright" unicode="&#x201d;" horiz-adv-x="332" 
d="M46 526l72 197h64l-83 -197h-53zM167 526l72 197h64l-83 -197h-53z" />
    <glyph glyph-name="quotedblbase" unicode="&#x201e;" horiz-adv-x="351" 
d="M30 -119l72 197h64l-83 -197h-53zM151 -119l72 197h64l-83 -197h-53z" />
    <glyph glyph-name="dagger" unicode="&#x2020;" horiz-adv-x="510" 
d="M219 -114v518h-186v55h185v235h66v-234h192v-55h-192v-519h-65z" />
    <glyph glyph-name="daggerdbl" unicode="&#x2021;" horiz-adv-x="510" 
d="M219 -114v293h-186v55h186v170h-186v55h185v235h66v-234h192v-55h-192v-171h192v-55h-192v-293h-65z" />
    <glyph glyph-name="bullet" unicode="&#x2022;" horiz-adv-x="486" 
d="M243 149q-61 0 -104 43t-43 103q0 61 43 104t104 43t104 -43t43 -104q0 -60 -43 -103t-104 -43z" />
    <glyph glyph-name="ellipsis" unicode="&#x2026;" horiz-adv-x="672" 
d="M118 -6q-20 0 -34 14t-14 34t14 34t34 14q19 0 33 -14t14 -34t-14 -34t-33 -14zM336 -6q-20 0 -34 14t-14 34q0 19 14 33t34 14t33.5 -13.5t13.5 -33.5t-14 -34t-33 -14zM554 -6q-19 0 -33 14t-14 34t14 34t33 14q20 0 34 -14t14 -34t-14 -34t-34 -14z" />
    <glyph glyph-name="perthousand" unicode="&#x2030;" horiz-adv-x="1066" 
d="M180 344q-65 0 -107.5 48t-42.5 127t42 127t108 48q65 0 106 -47.5t41 -127.5q0 -79 -41.5 -127t-105.5 -48zM179 396q36 0 60.5 34t24.5 90q0 57 -24 90t-60 33q-37 0 -61.5 -33t-24.5 -90q0 -54 24.5 -89t60.5 -35zM556 -6q-65 0 -107.5 48t-42.5 127t42 127t109 48
q64 0 105.5 -48t41.5 -128q0 -79 -42 -126.5t-106 -47.5zM555 45q36 0 60.5 34t24.5 90q0 57 -23.5 90t-60.5 33t-61.5 -33t-24.5 -90q0 -54 24.5 -89t60.5 -35zM889 -6q-65 0 -107.5 48t-42.5 127t42 127t108 48q64 0 105.5 -48t41.5 -128q0 -79 -41.5 -126.5t-105.5 -47.5
zM888 45q36 0 60 34t24 90q0 57 -23.5 90t-59.5 33q-37 0 -61.5 -33t-24.5 -90q0 -54 24.5 -89t60.5 -35zM217 -30l-50 24l339 727l51 -23z" />
    <glyph glyph-name="guilsinglleft" unicode="&#x2039;" horiz-adv-x="330" 
d="M202 43l-122 171l122 171l48 -31l-102 -140l102 -139z" />
    <glyph glyph-name="guilsinglright" unicode="&#x203a;" horiz-adv-x="330" 
d="M128 43l-48 32l102 139l-102 140l48 31l122 -171z" />
    <glyph glyph-name="fraction" unicode="&#x2044;" horiz-adv-x="136" 
d="M-62 -30l-50 24l339 727l51 -23z" />
    <glyph glyph-name="zerosuperior" unicode="&#x2070;" horiz-adv-x="308" 
d="M154 332q-53 0 -86 47t-33 132q0 86 32 133t88 47q53 0 84.5 -47t31.5 -133t-31.5 -132.5t-85.5 -46.5zM153 379q64 0 64 132q0 133 -63 133q-64 0 -64 -133q0 -132 63 -132z" />
    <glyph glyph-name="foursuperior" unicode="&#x2074;" horiz-adv-x="270" 
d="M151 335v103h-128l-22 33l135 210h68v-196h41v-47h-41v-103h-53zM65 485h86l1 145z" />
    <glyph glyph-name="fivesuperior" unicode="&#x2075;" horiz-adv-x="282" 
d="M124 332q-43 0 -95 28l25 45q43 -26 69 -26q32 0 53 17.5t21 48.5q0 65 -75 65q-23 0 -47 -3l-24 24l18 157h162v-49h-116l-9 -82l21 1q54 0 88.5 -26t34.5 -84q0 -44 -34 -80t-92 -36z" />
    <glyph glyph-name="sixsuperior" unicode="&#x2076;" horiz-adv-x="273" 
d="M132 331q-58 0 -85 36.5t-27 96.5q0 77 50 139t130 94l20 -44q-92 -35 -131 -111q23 8 51 8q44 0 72 -26.5t28 -78.5q0 -51 -29.5 -82.5t-78.5 -31.5zM132 375q26 0 40 19.5t14 47.5q0 32 -15.5 49t-40.5 17t-52 -8q-4 -19 -4 -42q0 -33 15 -58t43 -25z" />
    <glyph glyph-name="sevensuperior" unicode="&#x2077;" horiz-adv-x="247" 
d="M104 329l-50 16l122 289h-146v51h193l18 -30z" />
    <glyph glyph-name="eightsuperior" unicode="&#x2078;" horiz-adv-x="289" 
d="M144 332q-46 0 -77.5 27t-31.5 73q0 56 53 88q-44 28 -44 75q0 36 25.5 65t75.5 29q47 0 73 -25.5t26 -65.5q0 -45 -44 -78q52 -28 52 -86q0 -44 -30.5 -73t-77.5 -29zM144 378q24 0 40 15t16 39q0 45 -60 69q-22 -8 -37.5 -25.5t-15.5 -40.5q0 -21 16.5 -39t40.5 -18z
M149 539q42 15 42 56q0 25 -14.5 38t-32.5 13t-33 -12.5t-15 -35.5q0 -40 53 -59z" />
    <glyph glyph-name="ninesuperior" unicode="&#x2079;" horiz-adv-x="273" 
d="M72 325l-19 46q93 34 133 110q-29 -8 -51 -8q-47 0 -75 28.5t-28 76.5q0 51 29.5 82t78.5 31q58 0 85 -36t27 -96q0 -77 -50 -139t-130 -95zM142 520q33 0 53 6q3 14 3 39q0 32 -15 56t-43 24q-25 0 -39.5 -18.5t-14.5 -45.5q0 -25 16 -43t40 -18z" />
    <glyph glyph-name="plussuperior" unicode="&#x207a;" horiz-adv-x="245" 
d="M99 402v83h-80v46h80v79h47v-79h80v-46h-80v-83h-47z" />
    <glyph glyph-name="minussuperior" unicode="&#x207b;" horiz-adv-x="230" 
d="M13 484v46h205v-46h-205z" />
    <glyph glyph-name="equalsuperior" unicode="&#x207c;" horiz-adv-x="279" 
d="M37 443v45h205v-45h-205zM37 523v44h205v-44h-205z" />
    <glyph glyph-name="parenleftsuperior" unicode="&#x207d;" horiz-adv-x="185" 
d="M137 284q-44 34 -71.5 98.5t-27.5 127.5q0 66 30 131t70 93l30 -30q-82 -82 -82 -194q0 -46 23.5 -106t57.5 -85z" />
    <glyph glyph-name="parenrightsuperior" unicode="&#x207e;" horiz-adv-x="185" 
d="M48 284l-30 35q34 25 57.5 85t23.5 106q0 112 -82 194l30 30q40 -28 70 -93t30 -131q0 -63 -27.5 -127.5t-71.5 -98.5z" />
    <glyph glyph-name="zeroinferior" unicode="&#x2080;" horiz-adv-x="308" 
d="M154 -3q-53 0 -86 47t-33 132q0 86 32 133t88 47q53 0 84.5 -47t31.5 -133t-31.5 -132.5t-85.5 -46.5zM153 44q64 0 64 132q0 133 -63 133q-64 0 -64 -133q0 -132 63 -132z" />
    <glyph glyph-name="oneinferior" unicode="&#x2081;" horiz-adv-x="189" 
d="M83 0v292q-11 -5 -30.5 -16t-28.5 -15l-24 41l97 51h38v-353h-52z" />
    <glyph glyph-name="twoinferior" unicode="&#x2082;" horiz-adv-x="306" 
d="M50 0l-13 36q1 1 16 14.5t24 22.5l27 27t30.5 31.5t27.5 32t24 33t15.5 30.5t6.5 28q0 19 -16 36.5t-42 17.5q-46 0 -71 -36l-34 30q34 53 108 53q49 0 79 -26t30 -73q0 -78 -146 -208h144v-49h-210z" />
    <glyph glyph-name="threeinferior" unicode="&#x2083;" horiz-adv-x="278" 
d="M126 -4q-56 0 -91 27l21 44q36 -22 74 -22q25 0 39.5 15t14.5 44q0 30 -22.5 44.5t-53.5 14.5h-25v47h25q26 0 47 14t21 41q0 18 -12.5 31.5t-30.5 13.5q-38 0 -68 -17l-21 38q40 25 89 25q47 0 74 -24t27 -64q0 -49 -46 -78q54 -26 54 -89q0 -43 -32 -74t-84 -31z" />
    <glyph glyph-name="fourinferior" unicode="&#x2084;" horiz-adv-x="270" 
d="M151 0v103h-128l-22 33l135 210h68v-196h41v-47h-41v-103h-53zM65 150h86l1 145z" />
    <glyph glyph-name="fiveinferior" unicode="&#x2085;" horiz-adv-x="282" 
d="M124 -3q-43 0 -95 28l25 45q43 -26 69 -26q32 0 53 17.5t21 48.5q0 65 -75 65q-23 0 -47 -3l-24 24l18 157h162v-49h-116l-9 -82l21 1q54 0 88.5 -26t34.5 -84q0 -44 -34 -80t-92 -36z" />
    <glyph glyph-name="sixinferior" unicode="&#x2086;" horiz-adv-x="273" 
d="M132 -4q-58 0 -85 36.5t-27 96.5q0 77 50 139t130 94l20 -44q-92 -35 -131 -111q23 8 51 8q44 0 72 -26.5t28 -78.5q0 -51 -29.5 -82.5t-78.5 -31.5zM132 40q26 0 40 19.5t14 47.5q0 32 -15.5 49t-40.5 17t-52 -8q-4 -19 -4 -42q0 -33 15 -58t43 -25z" />
    <glyph glyph-name="seveninferior" unicode="&#x2087;" horiz-adv-x="247" 
d="M104 -6l-50 16l122 289h-146v51h193l18 -30z" />
    <glyph glyph-name="eightinferior" unicode="&#x2088;" horiz-adv-x="289" 
d="M144 -3q-46 0 -77.5 27t-31.5 73q0 56 53 88q-44 28 -44 75q0 36 25.5 65t75.5 29q47 0 73 -26t26 -65q0 -45 -44 -78q52 -28 52 -86q0 -44 -30.5 -73t-77.5 -29zM144 43q24 0 40 15t16 39q0 45 -60 69q-22 -8 -37.5 -25.5t-15.5 -40.5q0 -21 16.5 -39t40.5 -18zM149 204
q42 15 42 56q0 25 -14.5 38t-32.5 13t-33 -12.5t-15 -35.5q0 -40 53 -59z" />
    <glyph glyph-name="nineinferior" unicode="&#x2089;" horiz-adv-x="273" 
d="M72 -10l-19 46q93 34 133 110q-29 -8 -51 -8q-47 0 -75 28.5t-28 76.5q0 51 29.5 82t78.5 31q58 0 85 -36t27 -96q0 -77 -50 -139t-130 -95zM142 185q33 0 53 6q3 14 3 39q0 32 -15 56t-43 24q-25 0 -39.5 -18.5t-14.5 -45.5q0 -24 16 -42.5t40 -18.5z" />
    <glyph glyph-name="parenleft.inferior" unicode="&#x208d;" horiz-adv-x="185" 
d="M137 -51q-44 34 -71.5 98.5t-27.5 127.5q0 66 30 131t70 93l30 -30q-82 -82 -82 -194q0 -46 23.5 -106t57.5 -85z" />
    <glyph glyph-name="parenright.inferior" unicode="&#x208e;" horiz-adv-x="185" 
d="M48 -51l-30 35q34 25 57.5 85t23.5 106q0 112 -82 194l30 30q40 -28 70 -93t30 -131q0 -63 -27.5 -127.5t-71.5 -98.5z" />
    <glyph glyph-name="colonsign" unicode="&#x20a1;" horiz-adv-x="548" 
d="M143 4l-50 24l37 79q-80 93 -80 237q0 156 100.5 253t233.5 97q13 0 19 -1l29 62l51 -23l-22 -46q35 -8 62 -22l21 45l51 -23l-290 -621q30 -10 68 -10q77 0 134 27l26 -54q-62 -34 -160 -34q-47 0 -95 14l-23 -50l-50 24l22 47q-29 14 -55 36zM117 344q0 -95 45 -168
l213 457h-2q-40 0 -83.5 -18t-82.5 -52t-64.5 -91.5t-25.5 -127.5zM201 128q26 -26 52 -41l243 519q-26 13 -62 21z" />
    <glyph glyph-name="cruzeiro" unicode="&#x20a2;" horiz-adv-x="548" 
d="M373 -6q-60 0 -116.5 23t-103 65t-75 110.5t-28.5 151.5q0 156 100.5 253t233.5 97q95 0 149 -36l-28 -56q-54 31 -132 31q-40 0 -83.5 -18t-82.5 -52t-64.5 -91.5t-25.5 -127.5q0 -97 48.5 -172t126.5 -103v351h60v-65q10 12 24 25t42 29.5t52 16.5q37 0 74 -16l-25 -59
q-28 14 -58 14q-28 0 -60 -24.5t-49 -52.5v-232q7 -1 21 -1q77 0 134 27l26 -54q-62 -34 -160 -34z" />
    <glyph glyph-name="franc" unicode="&#x20a3;" horiz-adv-x="552" 
d="M90 0v688h360v-61h-296v-259h147v76h60v-65q10 12 24 25t42 29.5t52 16.5q37 0 74 -16l-25 -59q-28 14 -58 14q-28 0 -60 -24.5t-49 -52.5v-312h-60v308h-147v-308h-64z" />
    <glyph glyph-name="lira" unicode="&#x20a4;" horiz-adv-x="470" 
d="M62 0v50q46 23 74.5 73t28.5 108q0 4 -0.5 13.5t-0.5 15.5h-104v53h99l-9 67h-90v53h83q-6 54 -6 61q0 90 52.5 144.5t133.5 54.5q67 0 107 -24l-24 -60q-40 22 -81 22q-54 0 -86.5 -39.5t-32.5 -92.5q0 -34 4 -66h157v-53h-149q6 -42 8 -67h141v-53h-136q2 -42 -4 -70
q-18 -85 -66 -129h289v-61h-388z" />
    <glyph glyph-name="mill" unicode="&#x20a5;" horiz-adv-x="754" 
d="M215 -132l-50 24l188 403v49q0 35 -20 49.5t-44 14.5q-44 0 -91.5 -32t-57.5 -48v-328h-60v460h60v-63q39 35 81 52t73 17q82 0 109 -62l101 215l51 -23l-69 -148q37 17 78 17q60 0 90 -32t30 -76v-357h-60v344q0 35 -20 49.5t-45 14.5q-53 0 -116 -52l-29 -62v-294h-61
v163z" />
    <glyph glyph-name="naira" unicode="&#x20a6;" horiz-adv-x="741" 
d="M17 393v53h73v242h78l168 -242h250v242h65v-242h69v-53h-69v-98h69v-53h-69v-242h-81l-168 242h-247v-242h-65v242h-73v53h73v98h-73zM373 393l68 -98h145v98h-213zM155 393v-98h210l-68 98h-142zM478 242l108 -155v155h-108zM155 598v-152h105z" />
    <glyph glyph-name="pesetas" unicode="&#x20a7;" horiz-adv-x="1066" 
d="M90 0v688h173q28 0 54 -4.5t52.5 -17t46 -31.5t31.5 -51t12 -73q0 -86 -61 -149.5t-169 -63.5h-75v-298h-64zM154 358h61q51 0 87.5 14t55 38t26.5 49t8 53q0 115 -147 115h-91v-269zM651 -6q-54 0 -79.5 29.5t-25.5 90.5v290h-80v56h79v86h60v-86h121v-56h-120v-280
q0 -74 48 -74q17 0 33.5 4.5t24.5 9.5l7 4l23 -50q-34 -24 -91 -24zM884 -6q-74 0 -123 34l29 51q40 -29 92 -29q34 0 57 19.5t23 51.5q0 33 -24 54.5t-76 46.5q-52 26 -75 54t-23 75q0 53 41.5 84t90.5 31q68 0 114 -33l-28 -49q-33 25 -85 25q-30 0 -51 -15.5t-21 -41.5
q0 -11 3.5 -21t6 -15.5t12.5 -13.5t13 -10t18.5 -11t17.5 -10q3 -2 23.5 -12.5t26.5 -14.5t22.5 -15.5t23 -20.5t16 -22.5t13 -29.5t3.5 -35q0 -59 -43.5 -93t-96.5 -34z" />
    <glyph glyph-name="rupee" unicode="&#x20a8;" horiz-adv-x="768" 
d="M586 -6q-53 0 -92 19t-102.5 87t-170.5 212h-66v-312h-65v688h168q199 0 199 -170q0 -79 -49 -131.5t-118 -67.5q128 -165 185.5 -217t108.5 -52q34 0 57 19.5t23 51.5q0 33 -24 54.5t-76 46.5q-52 26 -75 54t-23 75q0 53 41.5 84t90.5 31q68 0 114 -33l-28 -49
q-33 25 -85 25q-30 0 -51 -15.5t-21 -41.5q0 -11 3.5 -21t6 -15.5t12.5 -13.5t13 -10t18.5 -11t17.5 -10q3 -2 23.5 -12.5t26.5 -14.5t22.5 -15.5t23 -20.5t16 -22.5t13 -29.5t3.5 -35q0 -59 -43.5 -93t-96.5 -34zM155 373h56q178 0 178 146q0 29 -9.5 49.5t-23.5 32
t-35.5 18t-39.5 8t-42 1.5h-84v-255z" />
    <glyph glyph-name="won" unicode="&#x20a9;" horiz-adv-x="889" 
d="M17 413v53h69l-66 210l64 17l70 -227h203l66 222h45l67 -222h206l69 228l59 -16l-66 -212h72v-53h-88l-30 -98h118v-53h-135l-80 -262h-46l-80 262h-178l-77 -262h-46l-83 262h-133v53h116l-31 98h-85zM551 413l30 -98h115l29 98h-174zM171 413l30 -98h111l29 98h-170z
M400 413l-29 -98h147l-29 98h-89zM597 262l42 -136l41 136h-83zM218 262l40 -130l38 130h-78zM444 562l-28 -96h57z" />
    <glyph glyph-name="sheqel" unicode="&#x20aa;" horiz-adv-x="824" 
d="M90 0v688h187q159 0 214 -63.5t55 -225.5v-158h-65v152q0 43 -2 71t-8.5 56.5t-20 45.5t-35 31t-53.5 19.5t-77 5.5h-130v-622h-65zM278 0v460h65v-394h130q45 0 77 5.5t53.5 19.5t35 31t20 45.5t8.5 56.5t2 71v393h65v-399q0 -162 -55 -225.5t-214 -63.5h-187z" />
    <glyph glyph-name="dong" unicode="&#x20ab;" horiz-adv-x="516" 
d="M239 88q-95 0 -147 68t-52 157q0 86 51 145.5t139 59.5q25 0 52 -8.5t42 -17.5t33.5 -21.5t19.5 -13.5v134h-123v54h123v76h59v-76h65v-54h-65v-497h-59v55q-1 -1 -9 -7t-12 -8.5t-12.5 -8.5t-14.5 -9.5t-15.5 -8.5t-17.5 -7.5t-17.5 -5.5t-19.5 -4.5t-20 -1.5zM241 144
q11 0 23 2.5t21.5 5.5t20.5 9t18 10t17 12t14 11.5t12.5 11t9.5 8.5v178q-1 1 -8 7.5t-11.5 10t-14 11t-17 12t-19 10.5t-22.5 9.5t-24.5 6t-27.5 2.5q-132 0 -132 -149q0 -80 39.5 -124t100.5 -44zM38 0v53h463v-53h-463z" />
    <glyph glyph-name="Euro" unicode="&#x20ac;" horiz-adv-x="473" 
d="M281 -6q-109 0 -167 58t-58 168q0 116 66.5 181.5t175.5 65.5q83 0 142 -41l-28 -56q-62 36 -125 36q-51 0 -91 -25t-59 -74h226v-50h-238q-2 -12 -2 -37q0 -15 1 -22h239v-50h-229q33 -94 147 -94q74 0 136 39l26 -54q-82 -45 -162 -45z" />
    <glyph glyph-name="uni20AD" unicode="&#x20ad;" horiz-adv-x="574" 
d="M-1 342v53h91v293h65v-293h38l293 300l53 -36l-262 -264h225v-53h-223l275 -309l-54 -39l-312 348h-33v-342h-65v342h-91z" />
    <glyph glyph-name="uni20AE" unicode="&#x20ae;" 
d="M39 237l-29 48l208 127v215h-223v61h507v-61h-219v-175l114 70l29 -47l-143 -88v-77l182 111l29 -47l-211 -129v-245h-65v205l-111 -67l-29 47l140 85v77z" />
    <glyph glyph-name="uni20B1" unicode="&#x20b1;" horiz-adv-x="519" 
d="M17 523v53h73v112h173q64 0 116 -26t71 -86h69v-53h-60v-12q0 -21 -5 -46h65v-53h-84q-27 -52 -79.5 -83t-126.5 -31h-75v-298h-64v412h-73v53h73v58h-73zM392 512q0 2 -0.5 5.5t-0.5 5.5h-237v-58h232q6 24 6 47zM154 627v-51h222q-31 51 -131 51h-91zM154 358h61
q99 0 144 54h-205v-54z" />
    <glyph glyph-name="afii61289" unicode="&#x2113;" horiz-adv-x="420" 
d="M232 -12q-59 0 -85.5 39t-26.5 121v93q-8 -7 -56 -41l-27 35q49 37 83 67v185q0 130 31.5 186.5t101.5 56.5q46 0 73 -35.5t27 -102.5q0 -69 -44 -151.5t-130 -161.5v-108q0 -74 13 -101.5t47 -27.5q42 0 71 37l35 -27q-37 -64 -113 -64zM179 348q111 126 111 232
q0 99 -49 99q-62 0 -62 -159v-172z" />
    <glyph glyph-name="afii61352" unicode="&#x2116;" horiz-adv-x="930" 
d="M728 193q-69 0 -103 42.5t-34 98.5q0 55 35 99.5t102 44.5t100.5 -44t33.5 -99t-33.5 -98.5t-100.5 -43.5zM727 247q32 0 55 19.5t23 68.5q0 47 -23 67t-54 20t-55 -20t-24 -68q0 -47 23 -67t55 -20zM90 0v460h78l268 -373v373h65v-460h-81l-265 370v-370h-65zM593 113
v53h277v-53h-277z" />
    <glyph glyph-name="uni2117" unicode="&#x2117;" horiz-adv-x="796" 
d="M415 -29q-150 0 -256 106t-106 255q0 150 106 256t256 106q149 0 255 -106t106 -256q0 -149 -106 -255t-255 -106zM415 25q124 0 212 90t88 217t-88 217.5t-212 90.5q-125 0 -213 -90.5t-88 -217.5t88.5 -217t212.5 -90zM323 136v399h106q56 0 90.5 -28t34.5 -85
q0 -62 -42.5 -97.5t-108.5 -35.5h-24v-153h-56zM379 340h28q30 0 49.5 8.5t27.5 23.5t10 25.5t2 25.5q0 32 -22 47t-55 15h-40v-145z" />
    <glyph glyph-name="servicemark" unicode="&#x2120;" horiz-adv-x="841" 
d="M139 278q-69 0 -114 48l34 39q39 -36 77 -36q31 0 52 18t21 46q0 17 -5.5 30t-20 24t-24 16.5t-30.5 15.5q-23 12 -35.5 19.5t-29 22t-24 34.5t-7.5 46q0 44 35.5 74.5t81.5 30.5q65 0 111 -36l-30 -44q-28 19 -43.5 23.5t-38.5 4.5q-20 0 -40.5 -14.5t-20.5 -41.5
q0 -26 18 -41.5t55 -33.5q24 -12 37 -20t31 -23.5t26 -36t8 -47.5q0 -50 -36.5 -84t-87.5 -34zM348 288l25 400h61l130 -302l143 302h55l18 -400l-55 -3l-13 296l-123 -265h-52l-116 265l-17 -296z" />
    <glyph glyph-name="trademark" unicode="&#x2122;" horiz-adv-x="841" 
d="M348 288l25 400h61l130 -302l143 302h55l18 -400l-55 -3l-13 296l-123 -265h-52l-116 265l-17 -296zM140 289v346h-130v53h314v-53h-127v-346h-57z" />
    <glyph glyph-name="estimated" unicode="&#x212e;" horiz-adv-x="519" 
d="M267 -6q-101 0 -166.5 61t-65.5 167q0 107 65.5 177.5t172.5 70.5q94 0 152.5 -54t58.5 -149v-41h-373v-56q0 -47 48 -91t114 -44q53 0 90.5 20.5t69.5 62.5l30 -23q-68 -101 -196 -101zM111 264h297v25q0 67 -34.5 106.5t-100.5 39.5q-71 0 -116.5 -39.5t-45.5 -106.5
v-25z" />
    <glyph glyph-name="onethird" unicode="&#x2153;" horiz-adv-x="759" 
d="M151 335v292q-11 -5 -30.5 -16t-28.5 -15l-24 41l97 51h38v-353h-52zM224 -30l-50 24l339 727l51 -23zM574 -4q-56 0 -91 27l21 44q36 -22 74 -22q25 0 39.5 15t14.5 44q0 30 -22.5 44.5t-53.5 14.5h-25v47h25q26 0 47 14t21 41q0 18 -12.5 31.5t-30.5 13.5
q-38 0 -68 -17l-21 38q40 25 89 25q47 0 74 -24t27 -64q0 -49 -46 -78q54 -26 54 -89q0 -43 -32 -74t-84 -31z" />
    <glyph glyph-name="twothirds" unicode="&#x2154;" horiz-adv-x="759" 
d="M44 335l-13 36q1 1 16 14.5t24 22.5l27 27t30.5 31.5t27.5 32t24 33t15.5 30.5t6.5 28q0 19 -16 36.5t-42 17.5q-46 0 -71 -36l-34 30q34 53 108 53q49 0 79 -26t30 -73q0 -78 -146 -208h144v-49h-210zM224 -30l-50 24l339 727l51 -23zM574 -4q-56 0 -91 27l21 44
q36 -22 74 -22q25 0 39.5 15t14.5 44q0 30 -22.5 44.5t-53.5 14.5h-25v47h25q26 0 47 14t21 41q0 18 -12.5 31.5t-30.5 13.5q-38 0 -68 -17l-21 38q40 25 89 25q47 0 74 -24t27 -64q0 -49 -46 -78q54 -26 54 -89q0 -43 -32 -74t-84 -31z" />
    <glyph glyph-name="uni215B" unicode="&#x215b;" horiz-adv-x="759" 
d="M151 335v292q-11 -5 -30.5 -16t-28.5 -15l-24 41l97 51h38v-353h-52zM224 -30l-50 24l339 727l51 -23zM592 -3q-46 0 -77.5 27t-31.5 73q0 56 53 88q-44 28 -44 75q0 36 25.5 65t75.5 29q47 0 73 -26t26 -65q0 -45 -44 -78q52 -28 52 -86q0 -44 -30.5 -73t-77.5 -29z
M592 43q24 0 40 15t16 39q0 45 -60 69q-22 -8 -37.5 -25.5t-15.5 -40.5q0 -21 16.5 -39t40.5 -18zM597 204q42 15 42 56q0 25 -14.5 38t-32.5 13t-33 -12.5t-15 -35.5q0 -40 53 -59z" />
    <glyph glyph-name="arrowleft" unicode="&#x2190;" horiz-adv-x="663" 
d="M231 123l-221 221l221 221l38 -38l-157 -157h541v-53h-540l156 -156z" />
    <glyph glyph-name="arrowup" unicode="&#x2191;" horiz-adv-x="663" 
d="M305 23v540l-156 -156l-38 38l221 221l221 -221l-38 -38l-157 157v-541h-53z" />
    <glyph glyph-name="arrowright" unicode="&#x2192;" horiz-adv-x="663" 
d="M432 122l-38 38l157 157h-541v53h540l-156 156l38 38l221 -221z" />
    <glyph glyph-name="arrowdown" unicode="&#x2193;" horiz-adv-x="663" 
d="M332 24l-221 221l38 38l157 -157v541h53v-540l156 156l38 -38z" />
    <glyph glyph-name="uni2196" unicode="&#x2196;" horiz-adv-x="663" 
d="M528 106l-382 380l-1 -220l-54 -1l1 313h313v-52h-222l381 -383z" />
    <glyph glyph-name="uni2197" unicode="&#x2197;" horiz-adv-x="663" 
d="M123 97l-38 37l382 382h-221v54h313v-313h-54v222z" />
    <glyph glyph-name="uni2198" unicode="&#x2198;" horiz-adv-x="663" 
d="M246 116v54h222l-382 382l37 38l382 -382v221h54v-313h-313z" />
    <glyph glyph-name="uni2199" unicode="&#x2199;" horiz-adv-x="663" 
d="M408 113l-313 1v313h53v-222l382 381l38 -36l-381 -382h220z" />
    <glyph glyph-name="partialdiff" unicode="&#x2202;" horiz-adv-x="603" 
d="M259 -6q-87 0 -142.5 55t-55.5 150q0 100 59 155t137 55q50 0 78.5 -9t81.5 -40q-24 112 -71.5 182.5t-127.5 123.5l36 51q120 -79 175 -187t55 -205q0 -88 -21 -159.5t-73.5 -121.5t-130.5 -50zM256 56q51 0 88.5 37t54 89.5t16.5 110.5q-2 1 -16.5 9.5t-27.5 15t-31 14
t-37.5 12t-38.5 4.5q-70 0 -104.5 -44t-34.5 -103q0 -47 15 -79t39.5 -44.5t42 -17t34.5 -4.5z" />
    <glyph glyph-name="Delta" unicode="&#x2206;" horiz-adv-x="664" 
d="M32 0l272 688h65l262 -688h-599zM126 61h409l-203 543z" />
    <glyph glyph-name="product" unicode="&#x220f;" horiz-adv-x="690" 
d="M90 0v688h510v-688h-64v628h-381v-628h-65z" />
    <glyph glyph-name="minus" unicode="&#x2212;" horiz-adv-x="459" 
d="M20 313v60h419v-60h-419z" />
    <glyph glyph-name="radical" unicode="&#x221a;" horiz-adv-x="555" 
d="M255 0l-134 349h-106v56h154l113 -297l193 652l60 -16l-230 -744h-50z" />
    <glyph glyph-name="infinity" unicode="&#x221e;" horiz-adv-x="809" 
d="M202 174q-72 0 -122 46.5t-50 117.5t50 118.5t122 47.5q45 0 84.5 -19t61.5 -40.5t56 -60.5q35 40 57 61t62 40t85 19q71 0 121 -47.5t50 -118.5t-50 -117.5t-122 -46.5q-45 0 -84.5 19.5t-61 40t-56.5 61.5q-35 -40 -56.5 -61t-61.5 -40.5t-85 -19.5zM200 235q20 0 39 5
t31.5 11t28.5 19.5t23 20.5t24 25.5t22 24.5q-5 5 -19 20.5t-20.5 21.5l-19.5 18t-23 17.5t-24.5 12.5t-30 9.5t-32.5 2.5q-45 0 -74 -28.5t-29 -75.5q0 -48 28 -76t76 -28zM609 235q47 0 75.5 28.5t28.5 75.5q0 49 -28.5 76.5t-74.5 27.5q-20 0 -39 -5t-31 -10t-29.5 -20
t-23 -20.5t-24.5 -25.5t-22 -24q5 -5 22 -23.5t24 -25t23.5 -20t28.5 -19t31 -10.5t39 -5z" />
    <glyph glyph-name="approxequal" unicode="&#x2248;" horiz-adv-x="545" 
d="M365 202q-39 0 -99.5 34t-96.5 34q-25 0 -57.5 -19.5t-50.5 -41.5l-41 35q64 89 152 89q39 0 99 -34t95 -34q32 0 62 17t48 43l49 -32q-67 -91 -160 -91zM365 350q-39 0 -99.5 34t-96.5 34q-25 0 -57.5 -19.5t-50.5 -41.5l-41 35q64 89 152 89q39 0 99 -33.5t95 -33.5
q32 0 62 17t48 43l49 -33q-67 -91 -160 -91z" />
    <glyph glyph-name="notequal" unicode="&#x2260;" horiz-adv-x="558" 
d="M149 74l-50 28l76 130h-105v57h138l59 102h-197v57h230l92 156l49 -29l-74 -127h121v-57h-154l-60 -102h214v-57h-247z" />
    <glyph glyph-name="lessequal" unicode="&#x2264;" horiz-adv-x="462" 
d="M347 163l-277 239l276 238l41 -47l-230 -191l231 -191zM76 0v54h321v-54h-321z" />
    <glyph glyph-name="greaterequal" unicode="&#x2265;" horiz-adv-x="462" 
d="M115 163l-41 48l231 191l-229 191l40 47l276 -238zM65 0v54h321v-54h-321z" />
    <glyph glyph-name="uni25A0" unicode="&#x25a0;" horiz-adv-x="617" 
d="M80 0v458h457v-458h-457z" />
    <glyph glyph-name="uni25A1" unicode="&#x25a1;" horiz-adv-x="617" 
d="M80 0v458h457v-458h-457zM140 55h339v347h-339v-347z" />
    <glyph glyph-name="lozenge" unicode="&#x25ca;" horiz-adv-x="645" 
d="M287 0l-237 343l236 345h74l235 -345l-237 -343h-71zM325 58l188 287l-191 285l-189 -289z" />
    <glyph glyph-name="apple" unicode="&#xf8ff;" horiz-adv-x="1241" 
d="M390 318v11h10v18h-10v41h11v-40h19v40h11v-41h-10v-9h-10v-10h-10v-10h-11zM350 338v9h-10v30h-10v11h10v10h11v-10h20v-11h-20v-29h20v-10h-21zM590 338v9h-10v30h-10v11h10v10h11v-10h20v-11h-20v-29h20v-10h-21zM700 338v9h-10v31h10v10h21v-10h10v-21h-30v-9h30v-10
h-31zM880 338v9h-10v31h10v10h21v-10h10v-21h-30v-9h30v-10h-31zM110 347v10h-10v11h10v10h11v-10h10v-11h-10v-10h-11zM180 347v10h-10v11h10v10h11v-10h10v-11h-10v-10h-11zM270 347v10h-10v11h10v10h11v-10h10v-11h-10v-10h-11zM520 338v9h-10v31h10v10h21v-10h10v-31
h-10v-9h-21zM630 338v70h11v-20h20v-10h10v-40h-11v39h-19v-39h-11zM960 347v10h-10v11h10v10h11v-10h10v-11h-10v-10h-11zM1050 347v10h-10v11h10v10h11v-10h10v-11h-10v-10h-11zM1120 347v10h-10v11h10v10h11v-10h10v-11h-10v-10h-11zM450 318v70h31v-10h10v-31h-10v-9
h-20v-20h-11zM780 318v20h-20v9h-10v31h10v10h31v-70h-11zM820 338v9h-10v41h11v-40h19v40h11v-50h-31zM240 328v10h10v10h11v-10h-10v-10h-11zM250 377v10h-10v11h11v-10h10v-11h-11zM300 328v10h-10v10h11v-10h10v-10h-11zM290 377v11h10v10h11v-11h-10v-10h-11zM930 328
v10h10v10h11v-10h-10v-10h-11zM940 377v10h-10v11h11v-10h10v-11h-11zM990 328v10h-10v10h11v-10h10v-10h-11zM980 377v11h10v10h11v-11h-10v-10h-11zM160 338v10h11v-10h-11zM160 377v11h11v-11h-11zM200 338v10h11v-10h-11zM200 377v11h11v-11h-11zM461 348h19v29h-19v-29
zM521 348h19v29h-19v-29zM701 368h19v9h-19v-9zM761 348h19v29h-19v-29zM881 368h19v9h-19v-9zM1030 338v10h11v-10h-11zM1030 377v11h11v-11h-11zM1070 338v10h11v-10h-11zM1070 377v11h11v-11h-11z" />
    <glyph glyph-name="fl" unicode="&#xfb02;" horiz-adv-x="501" 
d="M111 0v404h-80v56h80v144q0 55 32 89.5t86 34.5q25 0 48 -5t33 -11l11 -5l-24 -52q-26 17 -65 17q-22 0 -42 -17t-20 -57v-138h111v-55h-110v-405h-60zM361 0v721h60v-721h-60z" />
    <glyph glyph-name="uni0045030A" 
d="M90 0v688h360v-61h-296v-243h274v-60h-274v-264h296v-60h-360zM280 710q-41 0 -68 25t-27 65t27 64.5t68 24.5t68 -24.5t27 -64.5t-27 -65t-68 -25zM280 747q21 0 35 16t14 37t-14 36.5t-35 15.5t-35 -15.5t-14 -36.5t14 -37t35 -16z" />
    <glyph glyph-name="uni00460304" horiz-adv-x="480" 
d="M90 0v688h360v-61h-296v-243h274v-60h-274v-324h-64zM163 752v54h215v-54h-215z" />
    <glyph glyph-name="uni004A0301" horiz-adv-x="244" 
d="M-82 -212v58q73 0 122.5 46t49.5 150v646h64v-660q0 -115 -63 -177.5t-173 -62.5zM97 715l-28 35l142 125l42 -50z" />
    <glyph glyph-name="uni004E0304" horiz-adv-x="741" 
d="M90 0v688h78l418 -601v601h65v-688h-81l-415 598v-598h-65zM263 752v54h215v-54h-215z" />
    <glyph glyph-name="uni00500304" horiz-adv-x="499" 
d="M90 0v688h173q28 0 54 -4.5t52.5 -17t46 -31.5t31.5 -51t12 -73q0 -86 -61 -149.5t-169 -63.5h-75v-298h-64zM154 358h61q51 0 87.5 14t55 38t26.5 49t8 53q0 115 -147 115h-91v-269zM134 752v54h215v-54h-215z" />
    <glyph glyph-name="uni00520300" horiz-adv-x="512" 
d="M431 -9l-210 321h-66v-312h-65v688h168q199 0 199 -170q0 -79 -49 -131.5t-118 -67.5l202 -299zM155 373h56q178 0 178 146q0 29 -9.5 49.5t-23.5 32t-35.5 18t-39.5 8t-42 1.5h-84v-255zM270 715l-156 110l42 50l142 -125z" />
    <glyph glyph-name="uni00530306" horiz-adv-x="473" 
d="M226 -6q-107 0 -176 69l40 46q29 -29 65.5 -42t65.5 -13q57 0 97 34t40 88q0 27 -8.5 49t-18 35.5t-32.5 28.5t-34.5 21t-42.5 20q-10 5 -15 7q-77 36 -111.5 75.5t-34.5 116.5q0 69 55.5 117t128.5 48q47 0 81.5 -9.5t85.5 -42.5l-36 -51q-32 21 -57 30.5t-36 10.5
t-40 1q-39 0 -78 -28t-39 -81q0 -23 7 -42t15.5 -31t26.5 -24.5t30 -19t36 -17.5q91 -42 120 -66q62 -52 62 -144q0 -78 -57.5 -132t-139.5 -54zM235 721q-55 0 -91.5 31.5t-41.5 53.5l40 22q3 -6 10 -15.5t31 -25t52 -15.5t51.5 14t33.5 28l9 14l40 -22q-5 -22 -42 -53.5
t-92 -31.5z" />
    <glyph glyph-name="uni00560304" horiz-adv-x="618" 
d="M282 0l-262 674l63 20l226 -580l231 582l58 -20l-266 -676h-50zM203 752v54h215v-54h-215z" />
    <glyph glyph-name="uni00580304" horiz-adv-x="557" 
d="M73 -6l-53 29l220 321l-219 319l56 31l202 -294l202 294l51 -31l-217 -316l222 -322l-57 -31l-203 296zM171 752v54h215v-54h-215z" />
    <glyph glyph-name="Iacute_Jacute" horiz-adv-x="480" 
d="M90 0v688h64v-688h-64zM154 -212v58q73 0 122.5 46t49.5 150v646h64v-660q0 -115 -63 -177.5t-173 -62.5zM92 715l-28 35l142 125l42 -50zM324 715l-28 35l142 125l42 -50z" />
    <glyph glyph-name="uni0065030A" horiz-adv-x="442" 
d="M227 521q-41 0 -68 25t-27 65t27 64.5t68 24.5t68 -24.5t27 -64.5t-27 -65t-68 -25zM227 558q21 0 35 16t14 37t-14 36.5t-35 15.5t-35 -15.5t-14 -36.5t14 -37t35 -16zM253 -6q-99 0 -155 66t-56 165q0 103 53.5 172t150.5 69q86 0 127 -55.5t41 -145.5v-36h-310
q0 -76 39 -127t114 -51q64 0 114 35l7 -13q8 -13 15 -26l7 -13q-67 -40 -147 -40zM110 283h241q0 53 -27.5 89.5t-78.5 36.5q-57 0 -92 -39.5t-43 -86.5z" />
    <glyph glyph-name="uni00660304" horiz-adv-x="281" 
d="M111 0v404h-80v56h80v144q0 55 32 89.5t86 34.5q25 0 48 -5t33 -11l11 -5l-24 -52q-26 17 -65 17q-22 0 -42 -17t-20 -57v-138h111v-55h-110v-405h-60zM109 773v54h215v-54h-215z" />
    <glyph glyph-name="uni006A0301" horiz-adv-x="250" 
d="M98 524l-32 32l131 138l46 -47zM22 -230l-34 42q106 72 106 207v441h60v-456q0 -148 -132 -234z" />
    <glyph glyph-name="uni006E0304" 
d="M80 0v460h60v-64q76 70 151 70q68 0 102 -34t34 -85v-347h-60v325q0 43 -22 63.5t-57 20.5q-44 0 -91 -32t-57 -48v-329h-60zM141 551v54h215v-54h-215z" />
    <glyph glyph-name="uni007000AF" horiz-adv-x="516" 
d="M80 -239v699h60v-55q2 1 14 10t24 16t29 16t37.5 14t41.5 5q66 0 110.5 -37t62 -88t17.5 -110q0 -91 -52 -164t-147 -73q-61 0 -137 57v-290h-60zM275 50q60 0 100.5 49.5t40.5 130.5q0 82 -35.5 130.5t-97.5 48.5q-70 0 -143 -69v-225q71 -65 135 -65zM156 551v54h215
v-54h-215z" />
    <glyph glyph-name="uni00720300" horiz-adv-x="332" 
d="M81 0v460h60v-65q10 12 24 25t42 29.5t52 16.5q37 0 74 -16l-25 -59q-28 14 -58 14q-28 0 -60 -24.5t-49 -52.5v-328h-60zM224 524l-145 123l45 47l132 -138z" />
    <glyph glyph-name="uni00730306" horiz-adv-x="350" 
d="M168 -6q-74 0 -123 34l29 51q40 -29 92 -29q34 0 57 19.5t23 51.5q0 33 -24 54.5t-76 46.5q-52 26 -75 54t-23 75q0 53 41.5 84t90.5 31q68 0 114 -33l-28 -49q-33 25 -85 25q-30 0 -51 -15.5t-21 -41.5q0 -11 3.5 -21t6 -15.5t12.5 -13.5t13 -10t18.5 -11t17.5 -10
q3 -2 23.5 -12.5t26.5 -14.5t22.5 -15.5t23 -20.5t16 -22.5t13 -29.5t3.5 -35q0 -59 -43.5 -93t-96.5 -34zM168 555q-55 0 -91.5 31.5t-41.5 53.5l40 22q3 -6 10 -15.5t31 -25t52 -15.5t51.5 14t32.5 28l10 14l40 -22q-5 -22 -42 -53.5t-92 -31.5z" />
    <glyph glyph-name="uni00760304" horiz-adv-x="430" 
d="M183 0l-168 445l55 21l147 -387l146 386l52 -20l-169 -445h-63zM110 551v54h215v-54h-215z" />
    <glyph glyph-name="uni00780304" horiz-adv-x="440" 
d="M425 22l-51 -28l-157 201l-153 -201l-49 29l169 214l-159 203l54 25l146 -185l140 186l53 -26l-160 -204zM115 551v54h215v-54h-215z" />
    <glyph glyph-name="iacute_jacute" horiz-adv-x="474" 
d="M246 -230l-34 42q106 72 106 207v441h60v-456q0 -148 -132 -234zM94 0v460h61v-460h-61zM102 524l-32 32l131 138l46 -47zM324 524l-32 32l131 138l46 -47z" />
    <glyph glyph-name="questiondown.cap" horiz-adv-x="399" 
d="M284 -5q-102 2 -163 53.5t-61 152.5q0 48 16 85t37 56t46.5 30.5t40.5 14.5t23 3v138h61v-187q-72 0 -114 -35.5t-42 -104.5q0 -72 42.5 -108.5t113.5 -36.5v-61zM254 603q-19 0 -32.5 13.5t-13.5 32.5t13.5 32t32.5 13t32 -13t13 -32t-13 -32.5t-32 -13.5z" />
    <glyph glyph-name="exclamdown.cap" horiz-adv-x="290" 
d="M145 604q-19 0 -32 13t-13 32t13 32t32 13t32 -13t13 -32t-13 -32t-32 -13zM114 0v528h64v-528h-64z" />
    <glyph glyph-name="hyphen.cap" horiz-adv-x="300" 
d="M20 313v60h260v-60h-260z" />
    <glyph glyph-name="endash.cap" horiz-adv-x="500" 
d="M30 317v53h440v-53h-440z" />
    <glyph glyph-name="emdash.cap" horiz-adv-x="750" 
d="M30 318v53h690v-53h-690z" />
    <glyph glyph-name="parenleft.cap" horiz-adv-x="369" 
d="M271 -80q-80 61 -130 184.5t-50 244.5q0 128 55 251t127 176l39 -38q-157 -157 -157 -389q0 -94 45 -214.5t112 -168.5z" />
    <glyph glyph-name="parenright.cap" horiz-adv-x="369" 
d="M98 -80l-41 46q67 48 112 168.5t45 214.5q0 232 -157 389l39 38q72 -53 127 -176t55 -251q0 -121 -50 -244.5t-130 -184.5z" />
    <glyph glyph-name="bracketleft.cap" horiz-adv-x="272" 
d="M70 -64v825h182v-54h-121v-717h121v-54h-182z" />
    <glyph glyph-name="bracketright.cap" horiz-adv-x="272" 
d="M20 -64v54h120v717h-120v54h182v-825h-182z" />
    <glyph glyph-name="braceleft.cap" horiz-adv-x="310" 
d="M280 -6v-58h-28q-69 0 -99 30t-30 95v147q0 60 -18.5 87t-75.5 28v50q57 1 75.5 32.5t18.5 95.5v134q0 125 129 125h28v-58h-25q-25 0 -40.5 -7t-22 -23t-8 -30t-1.5 -39v-115q0 -59 -16 -92.5t-65 -48.5q49 -9 65 -40t16 -86v-129q0 -47 14 -72.5t58 -25.5h25z" />
    <glyph glyph-name="braceright.cap" horiz-adv-x="310" 
d="M32 -64v58h25q44 0 58 25.5t14 72.5v129q0 55 16 86t65 40q-49 15 -65 48.5t-16 92.5v115q0 25 -1.5 39t-8 30t-22 23t-40.5 7h-25v58h28q129 0 129 -125v-134q0 -64 18.5 -95.5t75.5 -32.5v-50q-57 -1 -75.5 -28t-18.5 -87v-147q0 -65 -30 -95t-99 -30h-28z" />
    <glyph glyph-name="guilsinglright.cap" horiz-adv-x="330" 
d="M202 171l-122 171l122 171l48 -31l-102 -140l102 -139z" />
    <glyph glyph-name="guilsinglleft.cap" horiz-adv-x="330" 
d="M128 172l-48 32l102 139l-102 140l48 31l122 -171z" />
    <glyph glyph-name="guillemotleft.cap" horiz-adv-x="494" 
d="M202 171l-122 171l122 171l48 -31l-102 -140l102 -139zM366 171l-122 171l122 171l48 -31l-102 -140l102 -139z" />
    <glyph glyph-name="guillemotright.cap" horiz-adv-x="494" 
d="M128 172l-48 32l102 139l-102 140l48 31l122 -171zM293 172l-49 32l102 139l-102 140l49 31l121 -171z" />
    <glyph glyph-name="Acute" horiz-adv-x="593" 
d="M223 715l-28 35l142 125l42 -50z" />
    <glyph glyph-name="Caron" horiz-adv-x="506" 
d="M253 715l-136 105l36 42l100 -83l100 83l36 -42z" />
    <glyph glyph-name="Circumflex" horiz-adv-x="506" 
d="M153 716l-36 42l136 105l136 -105l-36 -42l-100 83z" />
    <glyph glyph-name="Dotaccent" horiz-adv-x="250" 
d="M130 735q-19 0 -32.5 13t-13.5 32t13.5 32t32.5 13t32 -13t13 -32t-13 -32t-32 -13z" />
    <glyph glyph-name="Hungarumlaut" horiz-adv-x="541" 
d="M117 715l-28 35l142 125l42 -50zM296 715l-28 35l142 125l42 -50z" />
    <glyph glyph-name="Grave" horiz-adv-x="595" 
d="M351 715l-156 110l42 50l142 -125z" />
    <glyph glyph-name="Macron" horiz-adv-x="275" 
d="M30 752v54h215v-54h-215z" />
    <glyph glyph-name="Tilde" horiz-adv-x="514" 
d="M404 805q-11 -28 -33.5 -50.5t-54.5 -22.5q-22 0 -60 22.5t-52 22.5q-36 0 -56 -45l-38 21q12 31 37 52t55 21q17 0 57 -22t52 -22q19 0 30 10.5t24 32.5z" />
    <glyph glyph-name="commaaccent" horiz-adv-x="179" 
d="M46 -191l29 160h68l-50 -160h-47z" />
    <glyph glyph-name="zero.tnum_lnum_zero" horiz-adv-x="500" 
d="M252 -6q-101 0 -161.5 91.5t-60.5 258.5q0 166 59.5 258t163.5 92q100 0 158.5 -91.5t58.5 -259.5q0 -167 -59.5 -258t-158.5 -91zM250 54q54 0 89.5 41t50 104t14.5 145q0 157 -49 231l-172 -500q29 -21 67 -21zM143 120l169 497q-27 16 -60 16q-80 0 -117.5 -78.5
t-37.5 -210.5q0 -147 46 -224z" />
    <glyph glyph-name="zero.pnum_lnum" horiz-adv-x="540" 
d="M272 -6q-101 0 -161.5 91.5t-60.5 258.5q0 166 59.5 258t163.5 92q100 0 158.5 -91.5t58.5 -259.5q0 -167 -59.5 -258t-158.5 -91zM270 54q54 0 89.5 41t50 104t14.5 145q0 129 -36.5 209t-115.5 80q-80 0 -117.5 -78.5t-37.5 -210.5q0 -59 8.5 -109.5t26 -92t47.5 -65
t71 -23.5z" />
    <glyph glyph-name="one.pnum_lnum" horiz-adv-x="328" 
d="M174 0v613l-135 -70l-29 52l178 93h50v-688h-64z" />
    <glyph glyph-name="two.pnum_lnum" horiz-adv-x="446" 
d="M50 0l-20 50q37 35 78 78.5t101.5 120.5t92.5 139q35 67 35 118q0 50 -27.5 89t-92.5 39q-75 0 -124 -66l-41 37q69 89 171 89q85 0 133.5 -52t48.5 -132q0 -70 -50 -158q-18 -31 -39.5 -62.5t-52.5 -68.5t-45 -54t-53.5 -59.5t-40.5 -44.5h277v-63h-351z" />
    <glyph glyph-name="three.pnum_lnum" horiz-adv-x="445" 
d="M183 -7q-91 0 -158 50l28 56q70 -44 138 -44q62 0 97 36t35 105q0 71 -52.5 104.5t-125.5 33.5h-27v60h28q62 0 111.5 34t49.5 97q0 46 -31 78t-79 32q-63 0 -124 -36l-24 47q76 48 148 48q84 0 132.5 -44.5t48.5 -117.5q0 -59 -33.5 -103.5t-88.5 -58.5q57 -14 98 -57
t41 -123q0 -82 -57.5 -139.5t-154.5 -57.5z" />
    <glyph glyph-name="four.pnum_lnum" horiz-adv-x="481" 
d="M305 0v211h-271l-34 49l307 428h63v-416h84v-61h-84v-211h-65zM83 272h222v314z" />
    <glyph glyph-name="five.pnum_lnum" horiz-adv-x="444" 
d="M187 -6q-89 0 -167 45l31 59q77 -45 134 -45q74 0 113 39.5t39 114.5q0 86 -40.5 119.5t-113.5 33.5q-29 0 -87 -9l-36 39l34 298h291v-64h-237l-22 -210q45 7 67 7q211 0 211 -208q0 -86 -55 -152.5t-162 -66.5z" />
    <glyph glyph-name="six.pnum_lnum" horiz-adv-x="487" 
d="M247 -7q-106 0 -156.5 69t-50.5 184q0 154 93.5 274t242.5 179l23 -58q-97 -37 -159 -95t-108 -153q74 16 112 16q89 0 146 -56.5t57 -145.5q0 -97 -54 -155.5t-146 -58.5zM248 51q63 0 97 43t34 108q0 59 -37.5 103t-95.5 44q-68 0 -129 -22q-9 -41 -9 -94
q0 -73 35.5 -127.5t104.5 -54.5z" />
    <glyph glyph-name="seven.pnum_lnum" horiz-adv-x="397" 
d="M128 -6l-63 20l253 600h-308v67h360l27 -46z" />
    <glyph glyph-name="eight.pnum_lnum" horiz-adv-x="482" 
d="M241 -5q-82 0 -141.5 53.5t-59.5 131.5q0 126 128 182q-111 55 -111 154q0 68 48 123t138 55q85 0 134 -53t49 -119q0 -58 -32.5 -100t-81.5 -64q54 -19 92 -61.5t38 -111.5q0 -80 -57 -135t-144 -55zM241 52q59 0 98 35.5t39 92.5q0 33 -11.5 58t-34.5 42.5t-44 28
t-53 22.5q-56 -19 -93.5 -55.5t-37.5 -88.5q0 -49 39.5 -92t97.5 -43zM252 386q108 40 108 130q0 60 -36 90.5t-82 30.5t-83 -30t-37 -85q0 -89 130 -136z" />
    <glyph glyph-name="nine.pnum_lnum" horiz-adv-x="488" 
d="M111 -13l-23 59q97 37 159 95t108 153q-74 -16 -112 -16q-89 0 -146 56.5t-57 145.5q0 97 54 155t146 58q106 0 157 -68.5t51 -183.5q0 -154 -93.5 -274.5t-243.5 -179.5zM242 338q67 0 128 22q9 41 9 94q0 73 -35.5 127t-104.5 54q-62 0 -96.5 -42.5t-34.5 -107.5
q0 -59 38 -103t96 -44z" />
    <glyph glyph-name="zero.tnum_lnum" horiz-adv-x="500" 
d="M252 -6q-101 0 -161.5 91.5t-60.5 258.5q0 166 59.5 258t163.5 92q100 0 158.5 -91.5t58.5 -259.5q0 -167 -59.5 -258t-158.5 -91zM250 54q54 0 89.5 41t50 104t14.5 145q0 129 -36.5 209t-115.5 80q-80 0 -117.5 -78.5t-37.5 -210.5q0 -59 8.5 -109.5t26 -92t47.5 -65
t71 -23.5z" />
    <glyph glyph-name="one.tnum_lnum" horiz-adv-x="500" 
d="M287 0v613l-204 -106l-29 52l247 129h50v-688h-64z" />
    <glyph glyph-name="two.tnum_lnum" horiz-adv-x="500" 
d="M48 0l-20 50q61 55 96 88t89 89.5t83.5 97.5t52.5 90.5t23 90.5q0 47 -34.5 87.5t-100.5 40.5q-44 0 -81.5 -21.5t-53.5 -42.5l-45 45q82 79 186 79q87 0 142.5 -53t55.5 -136q0 -40 -16.5 -84t-39 -79t-60.5 -79.5t-65.5 -71.5t-71 -69t-60.5 -59h308v-63h-388z" />
    <glyph glyph-name="three.tnum_lnum" horiz-adv-x="500" 
d="M224 -7q-91 0 -158 50l28 56q70 -44 138 -44q62 0 97 36t35 105q0 71 -52.5 104.5t-125.5 33.5h-27v60h28q62 0 111.5 34t49.5 97q0 46 -31 78t-79 32q-63 0 -124 -36l-24 47q76 48 148 48q84 0 132.5 -44.5t48.5 -117.5q0 -59 -33.5 -103.5t-88.5 -58.5q57 -14 98 -57
t41 -123q0 -82 -57.5 -139.5t-154.5 -57.5z" />
    <glyph glyph-name="four.tnum_lnum" horiz-adv-x="500" 
d="M324 0v211h-271l-34 49l307 428h63v-416h84v-61h-84v-211h-65zM102 272h222v314z" />
    <glyph glyph-name="five.tnum_lnum" horiz-adv-x="500" 
d="M216 -6q-99 0 -177 45l31 59q78 -45 144 -45q75 0 118.5 40t43.5 114q0 153 -164 153q-39 0 -97 -9l-36 39l44 298h291v-64h-237l-32 -210q46 7 77 7q99 0 160 -49t61 -159q0 -84 -59.5 -151.5t-167.5 -67.5z" />
    <glyph glyph-name="six.tnum_lnum" horiz-adv-x="500" 
d="M251 -7q-106 0 -156.5 69t-50.5 184q0 154 93.5 274t242.5 179l23 -58q-97 -37 -159 -95t-108 -153q74 16 112 16q89 0 146 -56.5t57 -145.5q0 -97 -54 -155.5t-146 -58.5zM252 51q63 0 97 43t34 108q0 59 -37.5 103t-95.5 44q-68 0 -129 -22q-9 -41 -9 -94
q0 -73 35.5 -127.5t104.5 -54.5z" />
    <glyph glyph-name="seven.tnum_lnum" horiz-adv-x="500" 
d="M173 -6l-63 20l273 600h-318v67h370l30 -51z" />
    <glyph glyph-name="eight.tnum_lnum" horiz-adv-x="500" 
d="M250 -5q-82 0 -141.5 53.5t-59.5 131.5q0 126 128 182q-111 55 -111 154q0 68 48 123t138 55q85 0 134 -53t49 -119q0 -58 -32.5 -100t-81.5 -64q54 -19 92 -61.5t38 -111.5q0 -80 -57 -135t-144 -55zM250 52q59 0 98 35.5t39 92.5q0 33 -11.5 58t-34.5 42.5t-44 28
t-53 22.5q-56 -19 -93.5 -55.5t-37.5 -88.5q0 -49 39.5 -92t97.5 -43zM261 386q108 40 108 130q0 60 -36 90.5t-82 30.5t-83 -30t-37 -85q0 -89 130 -136z" />
    <glyph glyph-name="nine.tnum_lnum" horiz-adv-x="500" 
d="M119 -13l-23 59q97 37 159 95t108 153q-74 -16 -112 -16q-89 0 -146 56.5t-57 145.5q0 97 54 155t146 58q106 0 157 -68.5t51 -183.5q0 -154 -93.5 -274.5t-243.5 -179.5zM250 338q67 0 128 22q9 41 9 94q0 73 -35.5 127t-104.5 54q-62 0 -96.5 -42.5t-34.5 -107.5
q0 -59 38 -103t96 -44z" />
    <glyph glyph-name="zero.zero" horiz-adv-x="500" 
d="M253 -6q-56 0 -98.5 21.5t-66 57.5t-34.5 75t-11 81q0 40 12 79.5t35.5 76t65.5 59t96 22.5q55 0 96.5 -22.5t64.5 -58.5t34 -75.5t11 -79.5t-11 -79.5t-34 -75.5t-64.5 -58.5t-95.5 -22.5zM251 50q55 0 99.5 44t44.5 136q0 66 -29 114l-202 -262q38 -32 87 -32zM130 124
l201 258q-36 27 -78 27q-56 0 -101.5 -44.5t-45.5 -135.5q0 -63 24 -105z" />
    <glyph glyph-name="zero.tnum_onum" horiz-adv-x="500" 
d="M253 -6q-56 0 -98.5 21.5t-66 57.5t-34.5 75t-11 81q0 40 12 79.5t35.5 76t65.5 59t96 22.5q55 0 96.5 -22.5t64.5 -58.5t34 -75.5t11 -79.5t-11 -79.5t-34 -75.5t-64.5 -58.5t-95.5 -22.5zM251 50q55 0 99.5 44t44.5 136q0 89 -43 134t-99 45t-101.5 -44.5t-45.5 -135.5
q0 -89 44.5 -134t100.5 -45z" />
    <glyph glyph-name="one.tnum_onum" horiz-adv-x="500" 
d="M273 0v385l-154 -74l-29 52l197 97h50v-460h-64z" />
    <glyph glyph-name="two.tnum_onum" horiz-adv-x="500" 
d="M90 0l-20 50q20 12 56 35t53.5 34t47 30.5t44 30.5t35.5 27t31 27.5t21 25.5t15 26.5t4 25.5q0 42 -35 71t-83 29q-35 0 -76 -13.5t-64 -36.5l-32 43q30 31 81.5 48t97.5 17q74 0 126.5 -43.5t52.5 -110.5q0 -60 -70.5 -122t-198.5 -131h265v-63h-351z" />
    <glyph glyph-name="three.tnum_onum" horiz-adv-x="500" 
d="M219 -235q-91 0 -158 50l28 56q70 -44 138 -44q62 0 97 36t35 105q0 71 -52.5 104.5t-125.5 33.5h-27v60h28q62 0 111.5 34t49.5 97q0 45 -31 77.5t-79 32.5q-63 0 -124 -36l-24 47q76 48 148 48q84 0 132.5 -44.5t48.5 -117.5q0 -59 -33.5 -103.5t-88.5 -58.5
q57 -14 98 -57t41 -123q0 -82 -57.5 -139.5t-154.5 -57.5z" />
    <glyph glyph-name="four.tnum_onum" horiz-adv-x="500" 
d="M318 -202v211h-271l-34 49l290 402h80v-390h84v-61h-84v-211h-65zM96 70h222v314z" />
    <glyph glyph-name="five.tnum_onum" horiz-adv-x="500" 
d="M221 -234q-99 0 -177 45l31 59q77 -45 144 -45q75 0 118.5 40t43.5 114q0 153 -164 153q-39 0 -97 -9l-36 39l44 298h291v-64h-237l-32 -210q45 7 77 7q99 0 160 -49t61 -159q0 -84 -59.5 -151.5t-167.5 -67.5z" />
    <glyph glyph-name="six.tnum_onum" horiz-adv-x="500" 
d="M253 -7q-106 0 -156.5 69t-50.5 184q0 154 93.5 274t242.5 179l23 -58q-97 -37 -159 -95t-108 -153q74 16 112 16q89 0 146 -56.5t57 -145.5q0 -97 -54 -155.5t-146 -58.5zM254 51q63 0 97 43t34 108q0 59 -37.5 103t-95.5 44q-68 0 -129 -22q-9 -41 -9 -94
q0 -73 35.5 -127.5t104.5 -54.5z" />
    <glyph glyph-name="seven.tnum_onum" horiz-adv-x="500" 
d="M173 -227l-63 20l273 600h-318v67h370l30 -51z" />
    <glyph glyph-name="eight.tnum_onum" horiz-adv-x="500" 
d="M250 -5q-82 0 -141.5 53.5t-59.5 131.5q0 126 128 182q-111 55 -111 154q0 68 48 123t138 55q85 0 134 -53t49 -119q0 -58 -32.5 -100t-81.5 -64q54 -19 92 -61.5t38 -111.5q0 -80 -57 -135t-144 -55zM250 52q59 0 98 35.5t39 92.5q0 33 -11.5 58t-34.5 42.5t-44 28
t-53 22.5q-56 -19 -93.5 -55.5t-37.5 -88.5q0 -49 39.5 -92t97.5 -43zM261 386q108 40 108 130q0 60 -36 90.5t-82 30.5t-83 -30t-37 -85q0 -89 130 -136z" />
    <glyph glyph-name="nine.tnum_onum" horiz-adv-x="500" 
d="M117 -240l-23 59q97 37 159 95t108 153q-74 -16 -112 -16q-89 0 -146 56.5t-57 145.5q0 97 54 155t146 58q106 0 157 -68.5t51 -183.5q0 -154 -93.5 -274.5t-243.5 -179.5zM248 111q67 0 128 22q9 41 9 94q0 73 -35.5 127t-104.5 54q-62 0 -96.5 -42.5t-34.5 -107.5
q0 -59 38 -103t96 -44z" />
    <glyph glyph-name="registered.pnum_lnum" horiz-adv-x="796" 
d="M513 129l-124 180h-24v-173h-56v399h106q125 0 125 -103q0 -44 -26 -74t-65 -42l116 -164zM415 -29q-150 0 -256 106t-106 255q0 150 106 256t256 106q149 0 255 -106t106 -256q0 -149 -106 -255t-255 -106zM415 25q124 0 212 90t88 217t-88 217.5t-212 90.5
q-125 0 -213 -90.5t-88 -217.5t88.5 -217t212.5 -90zM365 360h28q30 0 49.5 7t27.5 19.5t10 22.5t2 24q0 31 -20.5 41.5t-56.5 10.5h-40v-125z" />
    <glyph glyph-name="Euro.pnum_lnum" horiz-adv-x="473" 
d="M293 -6q-124 0 -183.5 87.5t-59.5 262.5q0 160 65.5 255t188.5 95q71 0 130 -41l-28 -56l-12 7q-12 8 -18.5 11t-20 8t-29 7.5t-33.5 2.5q-67 0 -112 -50.5t-59 -151.5h244v-50h-248q-1 -12 -1 -37q0 -30 1 -44h248v-50h-243q27 -196 170 -196q14 0 28.5 2.5t25 5.5t23 8
t19 8.5t16.5 8.5l12 6l26 -54q-1 0 -15 -8.5t-19 -11t-20.5 -9t-27.5 -9t-30.5 -5t-37.5 -2.5z" />
    <glyph glyph-name="dollar.pnum_lnum" horiz-adv-x="473" 
d="M212 -67v61q-97 4 -162 69l40 46q51 -51 122 -55v281q-81 38 -116 76.5t-35 117.5q0 60 44 105.5t107 56.5v61h49v-58q39 -1 72 -11.5t79 -40.5l-36 -51q-64 42 -115 42v-252q42 -20 64.5 -33t48.5 -36.5t37.5 -55.5t11.5 -76q0 -69 -46 -120.5t-116 -62.5v-64h-49z
M261 59q43 11 70 42t27 75q0 52 -25 81.5t-72 54.5v-253zM212 404v224q-35 -10 -60.5 -36t-25.5 -68q0 -45 22 -71.5t64 -48.5z" />
    <glyph glyph-name="sterling.pnum_lnum" horiz-adv-x="470" 
d="M62 0v50q46 23 74.5 73t28.5 108q0 54 -5 89h-100v61h90q-1 15 -7 53t-6 60q0 90 52.5 144.5t133.5 54.5q67 0 107 -24l-24 -60q-40 22 -81 22q-54 0 -86.5 -39.5t-32.5 -92.5q0 -19 2 -38t6 -43t6 -37h147v-61h-138q6 -96 -2 -130q-24 -90 -66 -129h289v-61h-388z" />
    <glyph glyph-name="florin.pnum_lnum" horiz-adv-x="340" 
d="M19 -6q-47 0 -79 16l20 56q21 -15 43 -15q42 0 63 17.5t26 55.5l27 250h-79v55h85l14 140q5 55 41.5 89.5t90.5 34.5q47 0 81 -16l-21 -56q-24 16 -63 16q-22 0 -43 -16t-26 -56l-14 -136h104v-55h-110l-26 -244q-6 -61 -40 -98.5t-94 -37.5z" />
    <glyph glyph-name="yen.pnum_lnum" horiz-adv-x="540" 
d="M248 0v213h-192v53h192v74h-192v52h147l-183 270l53 31l208 -300l207 300l52 -33l-184 -268h141v-52h-185v-74h185v-53h-185v-213h-64z" />
    <glyph glyph-name="threesup_fraction_eightinf" horiz-adv-x="759" 
d="M139 331q-56 0 -91 27l21 44q36 -22 74 -22q25 0 39.5 15t14.5 44q0 30 -22.5 44.5t-53.5 14.5h-25v47h25q26 0 47 14t21 41q0 18 -12.5 31.5t-30.5 13.5q-38 0 -68 -17l-21 38q40 25 89 25q47 0 74 -24t27 -64q0 -49 -46 -78q54 -26 54 -89q0 -43 -32 -74t-84 -31z
M224 -30l-50 24l339 727l51 -23zM592 -3q-46 0 -77.5 27t-31.5 73q0 56 53 88q-44 28 -44 75q0 36 25.5 65t75.5 29q47 0 73 -26t26 -65q0 -45 -44 -78q52 -28 52 -86q0 -44 -30.5 -73t-77.5 -29zM592 43q24 0 40 15t16 39q0 45 -60 69q-22 -8 -37.5 -25.5t-15.5 -40.5
q0 -21 16.5 -39t40.5 -18zM597 204q42 15 42 56q0 25 -14.5 38t-32.5 13t-33 -12.5t-15 -35.5q0 -40 53 -59z" />
    <glyph glyph-name="fivesup_fraction_eightinf" horiz-adv-x="759" 
d="M139 332q-43 0 -95 28l25 45q43 -26 69 -26q32 0 53 17.5t21 48.5q0 65 -75 65q-23 0 -47 -3l-24 24l18 157h162v-49h-116l-9 -82l21 1q54 0 88.5 -26t34.5 -84q0 -44 -34 -80t-92 -36zM224 -30l-50 24l339 727l51 -23zM592 -3q-46 0 -77.5 27t-31.5 73q0 56 53 88
q-44 28 -44 75q0 36 25.5 65t75.5 29q47 0 73 -26t26 -65q0 -45 -44 -78q52 -28 52 -86q0 -44 -30.5 -73t-77.5 -29zM592 43q24 0 40 15t16 39q0 45 -60 69q-22 -8 -37.5 -25.5t-15.5 -40.5q0 -21 16.5 -39t40.5 -18zM597 204q42 15 42 56q0 25 -14.5 38t-32.5 13t-33 -12.5
t-15 -35.5q0 -40 53 -59z" />
    <glyph glyph-name="sevensup_fraction_eightinf" horiz-adv-x="759" 
d="M159 329l-50 16l122 289h-146v51h193l18 -30zM224 -30l-50 24l339 727l51 -23zM592 -3q-46 0 -77.5 27t-31.5 73q0 56 53 88q-44 28 -44 75q0 36 25.5 65t75.5 29q47 0 73 -26t26 -65q0 -45 -44 -78q52 -28 52 -86q0 -44 -30.5 -73t-77.5 -29zM592 43q24 0 40 15t16 39
q0 45 -60 69q-22 -8 -37.5 -25.5t-15.5 -40.5q0 -21 16.5 -39t40.5 -18zM597 204q42 15 42 56q0 25 -14.5 38t-32.5 13t-33 -12.5t-15 -35.5q0 -40 53 -59z" />
    <glyph glyph-name="afii61352.pnum_lnum" horiz-adv-x="1099" 
d="M722 239v53h317v-53h-317zM90 0v688h78l418 -601v601h65v-688h-81l-415 598v-598h-65zM882 340q-80 0 -120 54t-40 121q0 40 15 78.5t53 68.5t92 30q78 0 117.5 -55t39.5 -121t-39.5 -121t-117.5 -55zM881 398q36 0 65.5 28.5t29.5 89.5q0 58 -28.5 87.5t-65.5 29.5
q-36 0 -66.5 -29t-30.5 -89q0 -59 29.5 -88t66.5 -29z" />
    <glyph glyph-name="period.superior" horiz-adv-x="100" 
d="M50 324q-13 0 -22.5 9.5t-9.5 22.5t9.5 22.5t22.5 9.5t22.5 -9.5t9.5 -22.5t-9.5 -22.5t-22.5 -9.5z" />
    <glyph glyph-name="comma.superior" horiz-adv-x="100" 
d="M6 282l30 103h57l-49 -103h-38z" />
    <glyph glyph-name="dollar.superior" horiz-adv-x="237" 
d="M98 293v31q-48 6 -84 42l31 36q27 -27 53 -31v127q-40 19 -57.5 40t-17.5 62q0 33 21 57t54 31v31h41v-29q34 -2 78 -32l-27 -38q-34 23 -51 24v-113q41 -19 61 -41t20 -65q0 -35 -23 -62t-58 -36v-34h-41zM139 377q32 13 32 46q0 35 -32 55v-101zM98 551v87
q-27 -15 -27 -41q0 -30 27 -46z" />
    <glyph glyph-name="cent.superior" horiz-adv-x="207" 
d="M104 293v34q-40 9 -64.5 43.5t-24.5 79.5q0 49 25.5 80.5t63.5 41.5v33h40v-29q31 -4 65 -26l-24 -38q-19 16 -41 19v-161q21 4 45 21l23 -38q-29 -25 -68 -29v-31h-40zM104 374v152q-42 -17 -42 -78q0 -56 42 -74z" />
    <glyph glyph-name="equal.inferior" horiz-adv-x="279" 
d="M37 108v45h205v-45h-205zM37 188v44h205v-44h-205z" />
    <glyph glyph-name="minus.inferior" horiz-adv-x="230" 
d="M13 149v46h205v-46h-205z" />
    <glyph glyph-name="plus.inferior" horiz-adv-x="245" 
d="M99 67v83h-80v46h80v79h47v-79h80v-46h-80v-83h-47z" />
    <glyph glyph-name="period.inferior" horiz-adv-x="100" 
d="M50 -11q-13 0 -22.5 9.5t-9.5 22.5t9.5 22.5t22.5 9.5t22.5 -9.5t9.5 -22.5t-9.5 -22.5t-22.5 -9.5z" />
    <glyph glyph-name="comma.inferior" horiz-adv-x="100" 
d="M6 -53l30 103h57l-49 -103h-38z" />
    <glyph glyph-name="dollar.inferior" horiz-adv-x="237" 
d="M98 -42v31q-48 6 -84 42l31 36q27 -27 53 -31v127q-40 19 -57.5 40t-17.5 62q0 33 21 57t54 31v31h41v-29q34 -2 78 -32l-27 -38q-34 23 -51 24v-113q41 -19 61 -41t20 -65q0 -35 -23 -62t-58 -36v-34h-41zM139 42q32 13 32 46q0 35 -32 55v-101zM98 216v87
q-27 -15 -27 -41q0 -30 27 -46z" />
    <glyph glyph-name="cent.inferior" horiz-adv-x="207" 
d="M104 -42v34q-40 9 -64.5 43.5t-24.5 79.5q0 49 25.5 80.5t63.5 41.5v33h40v-29q31 -4 65 -26l-24 -38q-19 16 -41 19v-161q21 4 45 21l23 -38q-29 -25 -68 -29v-31h-40zM104 39v152q-42 -17 -42 -78q0 -57 42 -74z" />
    </font>
</defs>
</svg>
