<?xml version="1.0" standalone="no"?>
<!DOCTYPE svg PUBLIC "-//W3C//DTD SVG 1.1//EN" "http://www.w3.org/Graphics/SVG/1.1/DTD/svg11.dtd" >
<svg xmlns="http://www.w3.org/2000/svg" xmlns:xlink="http://www.w3.org/1999/xlink" version="1.1">
<metadata>
Created by FontForge 20170731 at Mon Sep  1 22:00:19 2008
 By Aleksey,,,
Copyright (c) 1999-2008 Typotheque.com All rights reserved.
</metadata>
<defs>
<font id="JigsawMedium" horiz-adv-x="518" >
  <font-face 
    font-family="Jigsaw Medium"
    font-weight="500"
    font-stretch="normal"
    units-per-em="1000"
    panose-1="0 0 0 0 0 0 0 0 0 0"
    ascent="710"
    descent="-290"
    x-height="461"
    cap-height="688"
    bbox="-122 -249 1170 932"
    underline-thickness="50"
    underline-position="-200"
    unicode-range="U+0020-FB03"
  />
<missing-glyph horiz-adv-x="680" 
 />
    <glyph glyph-name="fi" unicode="fi" horiz-adv-x="582" 
d="M104 0v375h-86v86h86v125q0 61 36 101t105 40q60 0 115 -24l-31 -77q-35 14 -66 14q-23 0 -41 -13.5t-18 -46.5v-119h288v-461h-100v375h-187v-375h-101zM441 550q-26 0 -45 18.5t-19 44.5q0 27 19 46t45 19q27 0 46 -19t19 -46q0 -26 -19 -44.5t-46 -18.5z" />
    <glyph glyph-name="f_f_i" unicode="ffi" horiz-adv-x="871" 
d="M104 0v374h-86v86h86v126q0 61 36 101t105 40t119 -25l-31 -76q-39 14 -70 14q-23 0 -41 -13.5t-18 -46.5v-119h189v125q0 61 36 101t105 40q57 0 115 -24l-31 -77q-36 14 -67 14q-23 0 -40.5 -13.5t-17.5 -46.5v-119h288v-461h-100v375h-188v-375h-100v375h-188v-375
h-101zM730 550q-26 0 -45 18.5t-19 44.5q0 27 19 46t45 19q27 0 45.5 -19t18.5 -46q0 -26 -18.5 -44.5t-45.5 -18.5z" />
    <glyph glyph-name="f_f_j" unicode="ffj" horiz-adv-x="871" 
d="M627 -249l-59 70q64 35 88 82t24 112v360h-187v-375h-100v375h-188v-375h-101v374h-86v86h86v126q0 61 36 101t105 40t119 -25l-31 -76q-39 14 -70 14q-23 0 -41 -13.5t-18 -46.5v-119h189v125q0 61 36 101t105 40q57 0 115 -24l-31 -77q-36 14 -67 14q-23 0 -40.5 -13.5
t-17.5 -46.5v-119h288v-454q0 -82 -38 -149t-116 -107zM730 550q-26 0 -45 18.5t-19 44.5q0 27 19 46t45 19q27 0 45.5 -19t18.5 -46q0 -26 -18.5 -44.5t-45.5 -18.5z" />
    <glyph glyph-name=".notdef" horiz-adv-x="680" 
 />
    <glyph glyph-name=".null" horiz-adv-x="0" 
 />
    <glyph glyph-name="nonmarkingreturn" horiz-adv-x="333" 
 />
    <glyph glyph-name="space" unicode=" " horiz-adv-x="204" 
 />
    <glyph glyph-name="exclam" unicode="!" horiz-adv-x="325" 
d="M163 -6q-28 0 -47.5 19.5t-19.5 46.5q0 28 19.5 47t47.5 19q27 0 46 -19t19 -47q0 -27 -19 -46.5t-46 -19.5zM111 193v495h103v-495h-103z" />
    <glyph glyph-name="quotedbl" unicode="&#x22;" horiz-adv-x="347" 
d="M57 528l-11 193h98l-15 -193h-72zM214 528l-11 193h98l-16 -193h-71z" />
    <glyph glyph-name="numbersign" unicode="#" horiz-adv-x="684" 
d="M121 0l26 182h-81v87h94l22 156h-90v87h103l25 176h99l-26 -176h144l25 176h100l-26 -176h82v-87h-94l-23 -156h93v-87h-106l-26 -182h-100l26 182h-142l-27 -182h-98zM259 269h143l22 156h-144z" />
    <glyph glyph-name="dollar" unicode="$" horiz-adv-x="520" 
d="M235 -67v63q-117 7 -188 70l63 70q56 -45 125 -54v110q-34 10 -59 20.5t-51 26.5t-39.5 38.5t-13.5 51.5q0 54 47.5 92t115.5 46v68h70v-66q87 -6 161 -53l-51 -76q-47 31 -110 38v-105q37 -11 61.5 -20.5t52.5 -25t42 -36.5t14 -48q0 -62 -48 -100.5t-122 -46.5v-63h-70
zM235 293v84q-55 -8 -55 -46q0 -21 55 -38zM305 81q60 8 60 47q0 23 -60 44v-91z" />
    <glyph glyph-name="percent" unicode="%" horiz-adv-x="809" 
d="M193 340q-71 0 -117 48t-46 129q0 80 48 128t122 48q72 0 117 -47t45 -129q0 -81 -48.5 -129t-120.5 -48zM195 423q29 0 49 24.5t20 70.5q0 47 -20 70.5t-47 23.5q-28 0 -48 -24t-20 -70t19 -70.5t47 -24.5zM607 -7q-72 0 -117.5 48t-45.5 130q0 80 48 128t122 48
q72 0 117.5 -47.5t45.5 -129.5q0 -81 -49 -129t-121 -48zM609 77q29 0 49 24t20 70q0 47 -19.5 70.5t-47.5 23.5t-48 -24t-20 -70q0 -45 19 -69.5t47 -24.5zM273 -35l-75 34l335 725l75 -35z" />
    <glyph glyph-name="ampersand" unicode="&#x26;" horiz-adv-x="677" 
d="M272 -7q-99 0 -162.5 53t-63.5 151q0 99 99 166q-86 54 -86 159q0 79 58.5 125.5t146.5 46.5q93 0 164 -50l-48 -77q-50 31 -111 31q-41 0 -70 -21t-29 -59q0 -55 38 -79t87 -24h356v-93h-105v-322h-110v44q-71 -51 -164 -51zM283 90q13 0 25 1.5t23.5 4t21 5.5t19.5 8
t16.5 7.5t15.5 8.5t12.5 8t11 8t8.5 6v175h-192q-40 -20 -63 -46.5t-23 -72.5q0 -52 37.5 -82.5t87.5 -30.5z" />
    <glyph glyph-name="quotesingle" unicode="'" horiz-adv-x="220" 
d="M72 528l-11 193h98l-15 -193h-72z" />
    <glyph glyph-name="parenleft" unicode="(" horiz-adv-x="376" 
d="M275 -243q-88 81 -140.5 205.5t-52.5 274.5q0 152 61.5 290.5t140.5 200.5l62 -64q-67 -53 -116 -175t-49 -252q0 -115 44.5 -232.5t112.5 -179.5z" />
    <glyph glyph-name="parenright" unicode=")" horiz-adv-x="376" 
d="M100 -243l-63 68q67 62 112 182t45 236q0 130 -49 249t-116 172l62 64q79 -62 140.5 -197.5t61.5 -287.5q0 -150 -53 -278t-140 -208z" />
    <glyph glyph-name="asterisk" unicode="*" horiz-adv-x="418" 
d="M170 349l-85 48l64 83l-103 -15v97l103 -13l-64 81l85 49l39 -96l39 96l85 -48l-65 -82l104 13v-97l-103 15l64 -83l-85 -48l-40 96zM207 470q18 0 31 13t13 31t-13 31t-31 13t-31 -13t-13 -31t13 -31t31 -13z" />
    <glyph glyph-name="plus" unicode="+" horiz-adv-x="502" 
d="M199 117v182h-180v90h180v178h103v-178h181v-90h-181v-182h-103z" />
    <glyph glyph-name="comma" unicode="," horiz-adv-x="261" 
d="M37 -89l67 194h120l-107 -194h-80z" />
    <glyph glyph-name="hyphen" unicode="-" horiz-adv-x="298" 
d="M16 210v96h265v-96h-265z" />
    <glyph glyph-name="period" unicode="." horiz-adv-x="261" 
d="M131 -6q-28 0 -47.5 20t-19.5 48t19.5 47t47.5 19t47.5 -19t19.5 -47t-19.5 -48t-47.5 -20z" />
    <glyph glyph-name="slash" unicode="/" horiz-adv-x="340" 
d="M82 -22l-89 33l263 702l90 -32z" />
    <glyph glyph-name="zero" unicode="0" horiz-adv-x="551" 
d="M278 -6q-64 0 -112 20.5t-74.5 55.5t-39 75.5t-12.5 86.5q0 96 63 165.5t175 69.5q110 0 171.5 -66.5t61.5 -168.5t-60.5 -170t-172.5 -68zM275 87q55 0 91 38.5t36 106.5q0 65 -36 102.5t-88 37.5q-55 0 -92 -36.5t-37 -103.5q0 -69 37.5 -107t88.5 -38z" />
    <glyph glyph-name="one" unicode="1" horiz-adv-x="344" 
d="M165 0v339l-103 -58l-46 81l160 99h97v-461h-108z" />
    <glyph glyph-name="two" unicode="2" horiz-adv-x="457" 
d="M63 0l-32 85q148 86 208.5 135t60.5 92q0 29 -21 45.5t-62 16.5q-65 0 -123 -53l-57 71q79 77 186 77q91 0 142.5 -41t51.5 -113q0 -112 -227 -218h231v-97h-358z" />
    <glyph glyph-name="three" unicode="3" horiz-adv-x="443" 
d="M178 -233q-91 0 -176 58l44 83q74 -45 132 -45q52 0 84.5 30.5t32.5 85.5q0 63 -39.5 86t-105.5 23l-36 -1v89h37q50 0 89 28t39 80q0 38 -25 63.5t-67 25.5q-56 0 -117 -34l-41 81q76 48 161 48q88 0 143.5 -45.5t55.5 -126.5q0 -110 -96 -158q54 -20 85.5 -57.5
t31.5 -105.5q0 -93 -65.5 -150.5t-166.5 -57.5z" />
    <glyph glyph-name="four" unicode="4" horiz-adv-x="516" 
d="M298 -202v206h-255l-37 76l271 380h130v-360h80v-96h-80v-206h-109zM127 100h171v248z" />
    <glyph glyph-name="five" unicode="5" horiz-adv-x="477" 
d="M199 -234q-99 0 -179 54l49 87q79 -47 135 -47q122 0 122 128q0 117 -121 117q-35 0 -107 -12l-39 51l40 317h320v-97h-234l-19 -169q40 5 57 5q104 0 162 -51t58 -159q0 -101 -66.5 -162.5t-177.5 -61.5z" />
    <glyph glyph-name="six" unicode="6" horiz-adv-x="515" 
d="M262 -6q-111 0 -169.5 65t-58.5 188q0 154 93 271.5t239 177.5l49 -81q-168 -76 -235 -206q50 12 90 12q95 0 153 -53t58 -153q0 -99 -61.5 -160t-157.5 -61zM261 85q53 0 81.5 34t28.5 91q0 50 -31 84.5t-79 34.5q-44 0 -110 -15q-8 -31 -8 -75q0 -68 29.5 -111
t88.5 -43z" />
    <glyph glyph-name="seven" unicode="7" horiz-adv-x="446" 
d="M155 -232l-102 31l258 563h-301v99h389l41 -65z" />
    <glyph glyph-name="eight" unicode="8" horiz-adv-x="526" 
d="M262 -6q-92 0 -157 52.5t-65 138.5q0 120 123 176q-106 51 -106 148q0 70 53.5 127.5t154.5 57.5q96 0 150.5 -53.5t54.5 -125.5q0 -103 -103 -155q119 -55 119 -170q0 -86 -63.5 -141t-160.5 -55zM263 85q51 0 83 27.5t32 72.5q0 48 -30.5 76t-88.5 54
q-111 -45 -111 -123q0 -41 33.5 -74t81.5 -33zM272 401q88 36 88 105q0 47 -29 70t-67 23q-39 0 -68.5 -22.5t-29.5 -64.5q0 -40 28 -66t78 -45z" />
    <glyph glyph-name="nine" unicode="9" horiz-adv-x="515" 
d="M149 -236l-49 81q168 77 235 207q-50 -12 -90 -12q-95 0 -153 53t-58 153q0 98 61 159.5t158 61.5q111 0 170 -65.5t59 -187.5q0 -154 -93 -271.5t-240 -178.5zM255 132q48 0 109 14q8 31 8 76q0 67 -29.5 110.5t-88.5 43.5q-52 0 -81 -34t-29 -91q0 -50 31 -84.5
t80 -34.5z" />
    <glyph glyph-name="colon" unicode=":" horiz-adv-x="261" 
d="M131 -6q-28 0 -48.5 20t-20.5 48t20 48t49 20q28 0 48 -20t20 -48t-20 -48t-48 -20zM131 327q-29 0 -49 20.5t-20 48.5t20.5 48t48.5 20t48 -20t20 -48q0 -29 -20 -49t-48 -20z" />
    <glyph glyph-name="semicolon" unicode=";" horiz-adv-x="261" 
d="M139 330q-28 0 -47.5 20t-19.5 48q0 29 19.5 49t47.5 20q29 0 49 -20.5t20 -48.5t-20.5 -48t-48.5 -20zM15 -89l67 194h121l-108 -194h-80z" />
    <glyph glyph-name="less" unicode="&#x3c;" horiz-adv-x="505" 
d="M372 89l-306 248l306 255l64 -71l-223 -183l226 -177z" />
    <glyph glyph-name="equal" unicode="=" horiz-adv-x="589" 
d="M70 206v90h449v-90h-449zM70 388v91h449v-91h-449z" />
    <glyph glyph-name="greater" unicode="&#x3e;" horiz-adv-x="505" 
d="M132 89l-66 72l226 176l-223 183l64 72l306 -254z" />
    <glyph glyph-name="question" unicode="?" horiz-adv-x="422" 
d="M108 193v172q64 0 107 28.5t43 88.5q0 58 -43.5 87t-106.5 29v96q52 0 97.5 -12t82.5 -36.5t59 -66.5t22 -97q0 -68 -46 -124t-111 -65v-100h-104zM162 -6q-28 0 -47.5 19.5t-19.5 46.5q0 28 19.5 47t47.5 19q27 0 46 -19t19 -47q0 -27 -19 -46.5t-46 -19.5z" />
    <glyph glyph-name="at" unicode="@" horiz-adv-x="803" 
d="M401 -119q-156 0 -250.5 93t-94.5 270q0 160 102 258t251 98q148 0 243.5 -86.5t95.5 -237.5q0 -126 -50 -186t-129 -60q-29 0 -60 11.5t-46 32.5q-57 -45 -109 -45q-53 0 -85 28.5t-32 78.5q0 57 41 86.5t119 47.5l56 11v29q0 29 -14.5 41t-43.5 12q-49 0 -106 -39
l-35 57q75 55 146 55q132 0 132 -117v-207q17 -15 45 -15q45 0 71.5 49.5t26.5 129.5q0 115 -73 186.5t-190 71.5q-124 0 -203 -80.5t-79 -205.5q0 -129 68 -213.5t202 -84.5q47 0 101 20l25 -62q-64 -27 -125 -27zM364 101q33 0 88 35v84l-46 -11q-89 -19 -89 -65
q0 -43 47 -43z" />
    <glyph glyph-name="A" unicode="A" horiz-adv-x="664" 
d="M113 -5l-108 13l279 680h104l271 -679l-114 -13l-78 203h-273zM230 291h201l-99 267z" />
    <glyph glyph-name="B" unicode="B" horiz-adv-x="566" 
d="M78 0v688h200q40 0 75 -8.5t68 -27t52.5 -55t19.5 -86.5q0 -96 -81 -148q42 -13 74.5 -57t32.5 -106q0 -101 -71.5 -150.5t-174.5 -49.5h-195zM186 95l81 1q65 1 102.5 24.5t37.5 87.5q0 49 -36 75t-93 26h-92v-214zM186 403h80q55 0 85.5 27.5t30.5 74.5
q0 44 -31.5 65.5t-78.5 21.5h-86v-189z" />
    <glyph glyph-name="C" unicode="C" horiz-adv-x="573" 
d="M384 -6q-152 0 -247.5 95t-95.5 256q0 155 99 252t245 97q106 0 171 -43l-47 -83q-48 30 -132 30q-92 0 -159 -71t-67 -182q0 -109 65.5 -182t167.5 -73q83 0 137 27l43 -80q-68 -43 -180 -43z" />
    <glyph glyph-name="D" unicode="D" horiz-adv-x="713" 
d="M78 0v688h252q165 0 253.5 -93t88.5 -242q0 -154 -99 -253.5t-250 -99.5h-245zM186 95h117q50 0 95.5 15.5t82.5 46.5t59 83t22 119q0 233 -260 233h-116v-497z" />
    <glyph glyph-name="E" unicode="E" horiz-adv-x="524" 
d="M78 0v688h404v-96h-296v-193h274v-94h-274v-209h296v-96h-404z" />
    <glyph glyph-name="F" unicode="F" horiz-adv-x="500" 
d="M78 0v688h398v-96h-290v-193h268v-95h-268v-304h-108z" />
    <glyph glyph-name="G" unicode="G" horiz-adv-x="673" 
d="M378 -6q-148 0 -242.5 98.5t-94.5 246.5q0 155 101 254.5t254 99.5q123 0 201 -48l-48 -80q-61 33 -149 33q-113 0 -181 -72t-68 -187q0 -106 62.5 -177.5t167.5 -71.5q84 0 133 30v162h-157v87h262v-291q-90 -84 -241 -84z" />
    <glyph glyph-name="H" unicode="H" horiz-adv-x="705" 
d="M78 0v688h109v-287h332v287h108v-688h-108v306h-332v-306h-109z" />
    <glyph glyph-name="I" unicode="I" horiz-adv-x="264" 
d="M78 0v688h108v-688h-108z" />
    <glyph glyph-name="J" unicode="J" horiz-adv-x="264" 
d="M-93 -212v95q172 0 172 168v637h108v-640q0 -131 -74.5 -195.5t-205.5 -64.5z" />
    <glyph glyph-name="K" unicode="K" horiz-adv-x="620" 
d="M496 -7l-307 370l290 332l117 -26l-274 -300l290 -343zM78 0v688h109v-688h-109z" />
    <glyph glyph-name="L" unicode="L" horiz-adv-x="496" 
d="M78 0v688h108v-592h304v-96h-412z" />
    <glyph glyph-name="M" unicode="M" horiz-adv-x="877" 
d="M163 -5l-107 5l57 688h134l191 -512l204 512h127l53 -687l-109 -5l-33 537l-191 -473h-114l-177 477z" />
    <glyph glyph-name="N" unicode="N" horiz-adv-x="756" 
d="M78 0v688h119l372 -509v509h109v-688h-113l-378 512v-512h-109z" />
    <glyph glyph-name="O" unicode="O" horiz-adv-x="772" 
d="M387 -6q-154 0 -250 97t-96 253q0 149 94.5 249t252.5 100q153 0 248 -101.5t95 -246.5q0 -156 -94.5 -253.5t-249.5 -97.5zM384 90q109 0 173 72.5t64 181.5t-62 181.5t-172 72.5t-173 -72.5t-63 -181.5q0 -103 62.5 -178.5t170.5 -75.5z" />
    <glyph glyph-name="P" unicode="P" horiz-adv-x="537" 
d="M78 0v688h190q103 0 171 -48t68 -149q0 -106 -71 -166t-181 -60h-69v-265h-108zM186 357h59q70 0 110.5 36t40.5 96q0 103 -138 103h-72v-235z" />
    <glyph glyph-name="Q" unicode="Q" horiz-adv-x="780" 
d="M766 -7l-283 9q-60 -8 -95 -8q-154 0 -250.5 98t-96.5 252q0 149 94.5 249.5t252.5 100.5q152 0 247.5 -102t95.5 -247q0 -167 -104 -259l139 1v-94zM385 90q109 0 173 72t64 182q0 109 -62 181.5t-172 72.5q-109 0 -173.5 -72t-64.5 -182q0 -105 64 -179.5t171 -74.5z
" />
    <glyph glyph-name="R" unicode="R" horiz-adv-x="563" 
d="M435 -7l-175 285h-74v-278h-108v688h189q43 0 81.5 -8.5t75.5 -28.5t59 -59.5t22 -94.5q0 -140 -138 -199l187 -286zM186 374h57q72 0 111.5 31t39.5 86q0 101 -142 101h-66v-218z" />
    <glyph glyph-name="S" unicode="S" horiz-adv-x="492" 
d="M240 -6q-62 0 -112 16t-96 60l65 76q64 -56 138 -56q46 0 80 26t34 70q0 27 -9 47.5t-31.5 36.5t-37.5 23.5t-49 22.5q-41 18 -64 30.5t-50 36t-39.5 57t-12.5 79.5q0 76 62 125.5t141 49.5q56 0 98.5 -11t92.5 -42l-51 -82q-59 39 -136 39q-40 0 -70.5 -20.5
t-30.5 -63.5q0 -10 2 -19t5 -16.5t9 -14.5t10.5 -12.5t14 -11.5t15 -9.5t17.5 -9.5t17.5 -8.5t19.5 -8.5t20 -9q40 -18 63.5 -31.5t50.5 -37.5t40 -57.5t13 -78.5q0 -85 -66 -140.5t-153 -55.5z" />
    <glyph glyph-name="T" unicode="T" horiz-adv-x="510" 
d="M203 0v592h-205v96h514v-96h-200v-592h-109z" />
    <glyph glyph-name="U" unicode="U" horiz-adv-x="687" 
d="M345 -6q-118 0 -197 61t-79 172v461h109v-452q0 -69 48.5 -107.5t121.5 -38.5q75 0 118 37.5t43 115.5v445h109v-460q0 -111 -79 -172.5t-194 -61.5z" />
    <glyph glyph-name="V" unicode="V" horiz-adv-x="662" 
d="M266 0l-261 675l113 18l212 -563l217 565l110 -17l-275 -678h-116z" />
    <glyph glyph-name="W" unicode="W" horiz-adv-x="924" 
d="M198 0l-191 680l116 15l139 -557l145 550h118l141 -552l145 558l106 -12l-197 -682h-115l-141 543l-149 -543h-117z" />
    <glyph glyph-name="X" unicode="X" horiz-adv-x="620" 
d="M119 -6l-115 21l241 333l-236 325l123 22l181 -261l181 261l111 -25l-230 -319l241 -335l-120 -22l-189 270z" />
    <glyph glyph-name="Y" unicode="Y" horiz-adv-x="581" 
d="M235 0v296l-237 373l114 24l181 -298l182 298l109 -25l-241 -372v-296h-108z" />
    <glyph glyph-name="Z" unicode="Z" horiz-adv-x="571" 
d="M60 0l-37 75l372 515h-347v96h455l39 -76l-374 -515h358v-95h-466z" />
    <glyph glyph-name="bracketleft" unicode="[" horiz-adv-x="304" 
d="M66 -240v961h222v-91h-121v-779h121v-91h-222z" />
    <glyph glyph-name="backslash" unicode="\" horiz-adv-x="339" 
d="M257 -22l-264 703l89 32l264 -702z" />
    <glyph glyph-name="bracketright" unicode="]" horiz-adv-x="304" 
d="M16 -240v91h121v779h-121v91h222v-961h-222z" />
    <glyph glyph-name="asciicircum" unicode="^" horiz-adv-x="609" 
d="M38 263l217 414h108l207 -414h-110l-156 320l-158 -320h-108z" />
    <glyph glyph-name="underscore" unicode="_" horiz-adv-x="500" 
d="M0 -171v99h500v-99h-500z" />
    <glyph glyph-name="grave" unicode="`" horiz-adv-x="302" 
d="M204 509l-169 126l63 71l157 -143z" />
    <glyph glyph-name="a" unicode="a" horiz-adv-x="462" 
d="M370 -14l-62 57q-76 -50 -138 -50q-58 0 -96.5 33.5t-38.5 93.5q0 66 50 100t135 52l70 12v33q0 64 -72 64q-46 0 -122 -43l-42 69q83 60 171 60q69 0 117.5 -33.5t48.5 -107.5v-229l47 -46zM186 73q19 0 52 12t52 25v106l-61 -12q-96 -23 -96 -78q0 -26 15.5 -39.5
t37.5 -13.5z" />
    <glyph glyph-name="b" unicode="b" horiz-adv-x="532" 
d="M293 -7q-66 0 -126 53v-46h-99v721h100v-303q79 49 131 49q96 0 148 -67.5t52 -167.5q0 -95 -55 -167t-151 -72zM287 84q51 0 81 43t30 104q0 62 -28 104t-81 42q-63 0 -121 -48v-191q20 -17 34 -26.5t37 -18.5t48 -9z" />
    <glyph glyph-name="c" unicode="c" horiz-adv-x="421" 
d="M263 -6q-103 0 -165 64t-62 167q0 108 63.5 175t162.5 67q77 0 140 -39l-47 -78q-43 27 -88 27q-59 0 -94.5 -41.5t-35.5 -106.5q0 -66 37 -105.5t96 -39.5q47 0 92 26l46 -75q-64 -41 -145 -41z" />
    <glyph glyph-name="d" unicode="d" horiz-adv-x="533" 
d="M239 -7q-97 0 -151 67.5t-54 165.5t52.5 169.5t146.5 71.5q62 0 132 -46v300h100v-721h-100v42q-62 -49 -126 -49zM247 84q25 0 48.5 9.5t36.5 18.5t33 26v192q-64 47 -120 47q-53 0 -81.5 -41.5t-28.5 -104.5q0 -62 30 -104.5t82 -42.5z" />
    <glyph glyph-name="e" unicode="e" horiz-adv-x="459" 
d="M257 -7q-106 0 -164 63.5t-58 169.5q0 104 57.5 172.5t157.5 68.5q89 0 135.5 -59.5t46.5 -151.5v-54h-294q4 -52 37.5 -86t85.5 -34q56 0 115 24l8 -19q9 -19 18 -39l8 -19q-72 -36 -153 -36zM139 275h194q0 46 -22.5 78t-66.5 32q-46 0 -72.5 -33.5t-32.5 -76.5z" />
    <glyph glyph-name="f" unicode="f" horiz-adv-x="336" 
d="M104 0v374h-86v86h86v126q0 61 36 101t105 40q61 0 119 -25l-31 -77q-36 15 -70 15q-23 0 -41 -13.5t-18 -46.5v-119h111v-86h-110v-375h-101z" />
    <glyph glyph-name="g" unicode="g" horiz-adv-x="494" 
d="M230 -238q-88 0 -147.5 46t-59.5 130q0 72 50 116t107 54l3 27q-60 11 -100 56t-40 106q0 75 54 122.5t131 47.5q57 0 97 -26l161 31v-95h-99q25 -39 25 -80q0 -62 -38.5 -105.5t-101.5 -56.5l3 -27q61 -10 112 -53.5t51 -116.5q0 -79 -61.5 -127.5t-146.5 -48.5z
M230 -155q46 0 76.5 26.5t30.5 67.5t-30.5 67.5t-76.5 26.5t-76.5 -26.5t-30.5 -67.5q0 -42 30 -68t77 -26zM228 210q34 0 59 25t25 62t-25 61.5t-60 24.5t-60 -25t-25 -61q0 -38 25 -62.5t61 -24.5z" />
    <glyph glyph-name="h" unicode="h" 
d="M68 0v721h100v-313q29 26 68.5 42.5t75.5 16.5q65 0 106.5 -35t41.5 -95v-337h-100v310q0 64 -65 64q-55 0 -127 -62v-312h-100z" />
    <glyph glyph-name="i" unicode="i" horiz-adv-x="247" 
d="M123 550q-26 0 -45 19t-19 45t19 45t45 19q27 0 46 -19t19 -45t-19 -45t-46 -19zM73 0v461h100v-461h-100z" />
    <glyph glyph-name="j" unicode="j" horiz-adv-x="247" 
d="M123 550q-27 0 -45.5 19t-18.5 45t18.5 45t45.5 19t46 -19t19 -45t-19 -45t-46 -19zM21 -235l-59 69q64 36 88 83t24 112v432h100v-441q0 -82 -37.5 -148.5t-115.5 -106.5z" />
    <glyph glyph-name="k" unicode="k" horiz-adv-x="472" 
d="M360 -7l-191 263l182 208l110 -18l-177 -189l188 -243zM68 0v721h100v-721h-100z" />
    <glyph glyph-name="l" unicode="l" horiz-adv-x="236" 
d="M68 0v721h100v-721h-100z" />
    <glyph glyph-name="m" unicode="m" horiz-adv-x="760" 
d="M68 0v461h100v-52q64 58 139 58q80 0 112 -64q20 22 60 42.5t93 20.5q62 0 96 -37.5t34 -94.5v-334h-100v324q0 52 -52 52q-30 0 -63.5 -17t-50.5 -35v-324h-101v324q0 27 -15 39.5t-37 12.5q-31 0 -64.5 -17.5t-50.5 -34.5v-324h-100z" />
    <glyph glyph-name="n" unicode="n" 
d="M68 0v461h100v-53q70 59 141 59q69 0 110 -36t41 -97v-334h-100v312q0 65 -65 65q-60 0 -127 -61v-316h-100z" />
    <glyph glyph-name="o" unicode="o" 
d="M261 -5q-107 0 -168 67t-61 167q0 58 22.5 110t76.5 90t130 38q47 0 85.5 -14.5t64 -38t43 -55t25 -64t7.5 -65.5q0 -42 -13.5 -82.5t-39.5 -75.5t-70.5 -56t-101.5 -21zM260 84q52 0 87.5 37t35.5 109q0 74 -37 110.5t-85 36.5q-47 0 -86 -36.5t-39 -111.5
q0 -67 35 -106t89 -39z" />
    <glyph glyph-name="p" unicode="p" horiz-adv-x="532" 
d="M68 -239v700h100v-43q79 49 131 49q96 0 148 -67.5t52 -167.5q0 -96 -55 -167t-151 -71q-67 0 -125 45v-278h-100zM286 84q52 0 82.5 43t30.5 104q0 62 -28.5 104t-82.5 42q-58 0 -120 -50v-193q20 -17 33 -25.5t36 -16.5t49 -8z" />
    <glyph glyph-name="q" unicode="q" horiz-adv-x="532" 
d="M364 -239v281q-58 -48 -126 -48q-96 0 -150 69.5t-54 164.5q0 98 52.5 168.5t146.5 70.5q61 0 131 -46v40h100v-700h-100zM246 84q53 0 118 54v189q-58 49 -120 49q-54 0 -82 -41.5t-28 -103.5t30 -104.5t82 -42.5z" />
    <glyph glyph-name="r" unicode="r" horiz-adv-x="353" 
d="M68 0v461h100v-61q21 22 31.5 32t34.5 23t48 13q32 0 74 -17l-43 -93q-20 13 -56 13q-25 0 -49.5 -21t-39.5 -48v-302h-100z" />
    <glyph glyph-name="s" unicode="s" horiz-adv-x="379" 
d="M177 -7q-91 0 -152 45l45 75q47 -32 106 -32q32 0 51.5 12t19.5 35q0 15 -12.5 27.5t-27 20.5t-43.5 21q-6 3 -9 4q-55 24 -83.5 54.5t-28.5 83.5q0 61 47 94.5t105 33.5q91 0 145 -44l-47 -71q-41 30 -97 30q-25 0 -41 -11t-16 -29q0 -7 1.5 -12.5t5.5 -10.5t7.5 -8.5
t11 -8t12 -6.5t14.5 -7t15 -7q3 -2 20 -9.5t22.5 -10t20.5 -10.5t21 -13.5t17.5 -14.5t16.5 -18t11.5 -21t9 -25.5t2.5 -29.5q0 -64 -50 -100.5t-120 -36.5z" />
    <glyph glyph-name="t" unicode="t" horiz-adv-x="345" 
d="M217 -6q-62 0 -93.5 34.5t-31.5 97.5v248h-76v87h76v100h100v-100h120v-86h-120v-237q0 -54 48 -54q21 0 69 15l26 -80q-53 -25 -118 -25z" />
    <glyph glyph-name="u" unicode="u" horiz-adv-x="519" 
d="M212 -6q-70 0 -110.5 35.5t-40.5 96.5v335h100v-312q0 -65 65 -65q53 0 125 63v314h100v-461h-100v53q-68 -59 -139 -59z" />
    <glyph glyph-name="v" unicode="v" horiz-adv-x="464" 
d="M175 0l-172 452l107 13l122 -354l131 355l101 -16l-182 -450h-107z" />
    <glyph glyph-name="w" unicode="w" horiz-adv-x="744" 
d="M163 0l-161 451l100 15l116 -350l108 345h95l108 -345l114 350l99 -13l-165 -453h-102l-104 322l-105 -322h-103z" />
    <glyph glyph-name="x" unicode="x" horiz-adv-x="458" 
d="M454 12l-109 -19l-121 170l-116 -169l-108 19l171 222l-156 214l111 17l106 -155l112 156l106 -20l-167 -206z" />
    <glyph glyph-name="y" unicode="y" horiz-adv-x="472" 
d="M55 -239q-9 0 -27 1.5t-21 1.5v89q12 -1 37 -1q39 0 68 21.5t42 56.5l30 74l-180 448l106 13l128 -342l132 342l100 -16l-223 -542q-61 -146 -192 -146z" />
    <glyph glyph-name="z" unicode="z" horiz-adv-x="423" 
d="M56 0l-34 67l238 304h-221v90h331l26 -72l-232 -299h222v-90h-330z" />
    <glyph glyph-name="braceleft" unicode="{" horiz-adv-x="350" 
d="M269 -239q-149 0 -149 141v204q0 54 -16 72t-77 19v87q59 1 76 21.5t17 75.5v200q0 73 36 106.5t113 33.5h49v-95h-46q-31 0 -41 -16.5t-10 -58.5v-183q0 -47 -11 -78.5t-45 -50.5q34 -15 45 -44t11 -76v-187q0 -26 1.5 -38.5t13.5 -24.5t36 -12h46v-96h-49z" />
    <glyph glyph-name="bar" unicode="|" horiz-adv-x="243" 
d="M69 -178v940h103v-940h-103z" />
    <glyph glyph-name="braceright" unicode="}" horiz-adv-x="350" 
d="M36 -238v96h47q18 0 29 5.5t15 18t5 22t1 28.5v189q0 46 11 75t45 45q-34 19 -45 50.5t-11 77.5v182q0 42 -9 58t-41 16h-47v95h50q76 0 112 -33.5t36 -105.5v-199q0 -54 17 -74.5t77 -21.5v-87q-61 -1 -77.5 -19t-16.5 -72v-206q0 -140 -148 -140h-50z" />
    <glyph glyph-name="asciitilde" unicode="~" horiz-adv-x="530" 
d="M351 261q-44 0 -101 33t-85 33q-42 0 -97 -53l-52 64q76 93 158 93q46 0 102.5 -33t80.5 -33q48 0 98 50l59 -61q-76 -93 -163 -93z" />
    <glyph glyph-name="uni00A0" unicode="&#xa0;" horiz-adv-x="204" 
 />
    <glyph glyph-name="exclamdown" unicode="&#xa1;" horiz-adv-x="325" 
d="M162 367q-28 0 -47 19t-19 47q0 27 19 46.5t47 19.5t47 -19.5t19 -46.5q0 -28 -19 -47t-47 -19zM112 -195v495h101v-495h-101z" />
    <glyph glyph-name="cent" unicode="&#xa2;" horiz-adv-x="421" 
d="M221 -67v64q-86 13 -135.5 74.5t-49.5 153.5q0 96 51 160t134 78v59h69v-58q60 -4 112 -36l-47 -78q-27 19 -65 24v-288q37 3 72 24l46 -75q-55 -35 -118 -40v-62h-69zM221 93v275q-40 -14 -62 -51t-22 -88q0 -50 22.5 -85.5t61.5 -50.5z" />
    <glyph glyph-name="sterling" unicode="&#xa3;" horiz-adv-x="513" 
d="M74 0v74q60 45 67 106h-67v80h63v23q0 93 56 140.5t148 47.5q71 0 130 -32l-36 -83q-46 22 -92 22q-47 0 -73.5 -23.5t-26.5 -66.5v-28h110v-80h-114q-11 -56 -47 -88h289v-92h-407z" />
    <glyph glyph-name="currency" unicode="&#xa4;" horiz-adv-x="508" 
d="M83 131l-50 49l63 63q-40 45 -40 109q0 65 39 109l-62 63l49 49l69 -69q50 26 103 26q58 0 104 -25l68 69l50 -50l-63 -63q39 -42 39 -109q0 -65 -40 -110l63 -62l-49 -50l-69 69q-48 -24 -103 -24q-57 0 -102 24zM254 253q51 0 75 27.5t24 71.5q1 43 -24 71.5t-75 28.5
t-75 -28t-25 -72q0 -43 25.5 -71t74.5 -28z" />
    <glyph glyph-name="yen" unicode="&#xa5;" horiz-adv-x="606" 
d="M251 0v55h-190v75h190v63h-190v76h127l-117 177l110 31l128 -205l132 204l104 -32l-121 -175h124v-76h-188v-63h188v-75h-188v-55h-109z" />
    <glyph glyph-name="brokenbar" unicode="&#xa6;" horiz-adv-x="240" 
d="M66 -178v406h105v-406h-105zM66 373v389h105v-389h-105z" />
    <glyph glyph-name="section" unicode="&#xa7;" horiz-adv-x="486" 
d="M240 -122q-108 0 -198 71l59 74q66 -53 140 -53q38 0 64.5 17t26.5 43q0 25 -29.5 45t-72 37t-85 37.5t-72 56.5t-29.5 84q0 84 81 141q-67 48 -67 114q0 65 51.5 107t135.5 42q56 0 90 -12.5t80 -41.5l-57 -78q-49 39 -112 39q-39 0 -61.5 -14.5t-22.5 -39.5
q0 -22 28 -40.5t68 -34.5t80 -36t68 -55t28 -82q0 -79 -89 -136q89 -54 89 -127q0 -70 -53 -114t-141 -44zM250 208q81 39 82 84q0 11 -4 20.5t-13.5 18t-17 14.5t-22.5 13.5t-21 10t-22 9.5l-17 6q-23 -11 -46 -35t-23 -54q0 -10 3.5 -19t12 -16.5t15.5 -13.5t19.5 -13
t19 -10t19.5 -8.5t15 -6.5z" />
    <glyph glyph-name="dieresis" unicode="&#xa8;" horiz-adv-x="356" 
d="M80 543q-27 0 -45.5 19t-18.5 45t18.5 45t45.5 19t45.5 -19t18.5 -45t-18.5 -45t-45.5 -19zM276 543q-27 0 -45.5 19t-18.5 45t18.5 45t45.5 19t45.5 -19t18.5 -45t-18.5 -45t-45.5 -19z" />
    <glyph glyph-name="copyright" unicode="&#xa9;" horiz-adv-x="778" 
d="M405 137q-88 0 -146 55t-58 146q0 89 59 144.5t145 55.5q64 0 107 -28l-33 -57q-31 19 -78 19q-50 0 -86.5 -37.5t-36.5 -96.5q0 -58 35.5 -96t91.5 -38q47 0 82 17l30 -55q-46 -29 -112 -29zM396 -15q-147 0 -252 104t-105 250q0 147 105 250.5t252 103.5t251.5 -103.5
t104.5 -250.5q0 -146 -105 -250t-251 -104zM396 49q119 0 201.5 85t82.5 205t-82.5 205.5t-201.5 85.5t-201.5 -85.5t-82.5 -205.5t82.5 -205t201.5 -85z" />
    <glyph glyph-name="ordfeminine" unicode="&#xaa;" horiz-adv-x="413" 
d="M298 330l-45 42q-50 -34 -96 -34q-44 0 -74.5 24.5t-30.5 68.5q0 22 7.5 40t24.5 30t31.5 20.5t40.5 15t38 9t38 7.5v21q0 35 -41 35q-40 0 -90 -31l-37 69q35 24 63 35.5t69 11.5q52 0 89.5 -26t37.5 -85v-155l38 -38zM169 411q23 0 63 22v60q-28 -5 -31 -7
q-60 -13 -60 -45q0 -30 28 -30z" />
    <glyph glyph-name="guillemotleft" unicode="&#xab;" horiz-adv-x="487" 
d="M179 32l-129 182l129 182l72 -46l-99 -136l99 -135zM366 32l-130 182l129 182l72 -46l-99 -136l99 -135z" />
    <glyph glyph-name="logicalnot" unicode="&#xac;" horiz-adv-x="517" 
d="M385 116v182h-354v90h449v-272h-95z" />
    <glyph glyph-name="registered" unicode="&#xae;" horiz-adv-x="516" 
d="M302 416l-50 79h-16v-73h-39v201h50q82 0 82 -59q0 -44 -36 -60q9 -12 23.5 -35t23.5 -36zM258 328q-77 0 -131.5 54t-54.5 131q0 78 54.5 132.5t131.5 54.5t132 -54.5t55 -132.5q0 -76 -55 -130.5t-132 -54.5zM258 368q59 0 101 42.5t42 102.5q0 61 -42 104t-101 43
t-101 -43t-42 -104q0 -60 42 -102.5t101 -42.5zM236 529h13q38 0 38 33q0 12 -9.5 19.5t-21.5 7.5h-20v-60z" />
    <glyph glyph-name="macron" unicode="&#xaf;" horiz-adv-x="306" 
d="M30 545v85h246v-85h-246z" />
    <glyph glyph-name="degree" unicode="&#xb0;" horiz-adv-x="376" 
d="M187 440q-56 0 -95 38t-39 93t39.5 94.5t94.5 39.5t94.5 -39.5t39.5 -94.5t-39 -93t-95 -38zM187 510q24 0 41.5 18.5t17.5 42.5q0 25 -17.5 43.5t-41.5 18.5t-41.5 -18.5t-17.5 -43.5q0 -24 17.5 -42.5t41.5 -18.5z" />
    <glyph glyph-name="plusminus" unicode="&#xb1;" horiz-adv-x="503" 
d="M200 170v180h-179v90h179v180h103v-180h178v-90h-178v-180h-103zM21 0v92h460v-92h-460z" />
    <glyph glyph-name="twosuperior" unicode="&#xb2;" horiz-adv-x="333" 
d="M59 335l-21 58q167 129 167 191q0 15 -12.5 27t-35.5 12q-38 0 -66 -31l-47 53q46 50 122 50q54 0 87 -27.5t33 -79.5q-2 -77 -136 -180h133v-73h-224z" />
    <glyph glyph-name="threesuperior" unicode="&#xb3;" horiz-adv-x="310" 
d="M143 331q-61 0 -109 33l32 61q38 -22 77 -22q20 0 33 11.5t13 31.5q0 46 -55 46h-34v56h34q19 0 33 12t14 30q0 16 -11.5 25.5t-29.5 9.5q-32 0 -64 -17l-28 60q46 27 101 27q49 0 81.5 -25.5t32.5 -70.5q0 -43 -43 -74q52 -22 52 -80q0 -51 -37 -82.5t-92 -31.5z" />
    <glyph glyph-name="acute" unicode="&#xb4;" horiz-adv-x="302" 
d="M87 509l-52 54l157 143l63 -71z" />
    <glyph glyph-name="mu" unicode="&#xb5;" horiz-adv-x="522" 
d="M64 -184v645h100v-312q0 -65 66 -65q52 0 124 63v314h100v-461h-100v53q-68 -59 -139 -59q-33 0 -51 9v-187h-100z" />
    <glyph glyph-name="mu" unicode="&#x3bc;" horiz-adv-x="522" 
d="M64 -184v645h100v-312q0 -65 66 -65q52 0 124 63v314h100v-461h-100v53q-68 -59 -139 -59q-33 0 -51 9v-187h-100z" />
    <glyph glyph-name="paragraph" unicode="&#xb6;" horiz-adv-x="546" 
d="M369 -184v765h-49v-314l-72 -1q-25 0 -53 7t-58 23.5t-54 41t-39.5 62t-15.5 82.5q0 54 20 93.5t53 60t68 30t73 9.5h233v-859h-106zM230 364v217q-44 -3 -71.5 -27.5t-27.5 -69.5q0 -96 99 -120z" />
    <glyph glyph-name="periodcentered" unicode="&#xb7;" horiz-adv-x="283" 
d="M140 274q-27 0 -46 19t-19 46q0 28 19 47t46 19q28 0 47 -19t19 -47q0 -27 -19 -46t-47 -19z" />
    <glyph glyph-name="cedilla" unicode="&#xb8;" horiz-adv-x="245" 
d="M55 -236l-34 56q55 23 55 56q0 32 -37 65l36 88l74 -22l-22 -50q37 -35 37 -83q0 -36 -31.5 -68t-77.5 -42z" />
    <glyph glyph-name="onesuperior" unicode="&#xb9;" horiz-adv-x="234" 
d="M99 335v260q-10 -6 -29 -19.5t-27 -18.5l-42 57l112 78h64v-357h-78z" />
    <glyph glyph-name="ordmasculine" unicode="&#xba;" horiz-adv-x="413" 
d="M204 338q-77 0 -122 50.5t-45 127.5q0 74 48 125.5t127 51.5q76 0 121 -51t45 -127q0 -74 -48.5 -125.5t-125.5 -51.5zM207 424q28 0 50 22.5t22 70.5q0 47 -22 69t-49 22t-49.5 -22.5t-22.5 -69.5q0 -48 21 -70t50 -22z" />
    <glyph glyph-name="guillemotright" unicode="&#xbb;" horiz-adv-x="487" 
d="M121 32l-71 47l98 135l-98 136l71 46l130 -182zM308 32l-72 47l99 135l-99 136l72 46l129 -182z" />
    <glyph glyph-name="onequarter" unicode="&#xbc;" horiz-adv-x="752" 
d="M131 335v260q-10 -6 -29 -19.5t-27 -18.5l-42 57l112 78h64v-357h-78zM225 -35l-77 33l355 724l77 -33zM596 0v87h-119l-24 50l128 218h93v-196h39v-72h-39v-87h-78zM532 159h64v116z" />
    <glyph glyph-name="onehalf" unicode="&#xbd;" horiz-adv-x="757" 
d="M486 0l-21 58q167 129 167 191q0 15 -12.5 27t-35.5 12q-38 0 -66 -31l-47 53q46 50 122 50q54 0 87 -27.5t33 -79.5q-2 -77 -136 -180h133v-73h-224zM132 335v260q-10 -6 -29 -19.5t-27 -18.5l-42 57l112 78h64v-357h-78zM225 -35l-77 33l355 724l77 -33z" />
    <glyph glyph-name="threequarters" unicode="&#xbe;" horiz-adv-x="746" 
d="M138 331q-61 0 -109 33l32 61q38 -22 77 -22q20 0 33 11.5t13 31.5q0 46 -55 46h-34v56h34q19 0 33 12t14 30q0 16 -11.5 25.5t-29.5 9.5q-32 0 -64 -17l-28 60q46 27 101 27q49 0 81.5 -25.5t32.5 -70.5q0 -43 -43 -74q52 -22 52 -80q0 -51 -37 -82.5t-92 -31.5z
M230 -35l-77 33l355 724l77 -33zM590 0v87h-119l-24 50l128 218h93v-196h39v-72h-39v-87h-78zM526 159h64v116z" />
    <glyph glyph-name="questiondown" unicode="&#xbf;" horiz-adv-x="422" 
d="M317 -199q-52 0 -97.5 12t-83 36.5t-59 66.5t-21.5 97q0 67 46 123.5t111 65.5v99h104v-171q-64 0 -107.5 -29t-43.5 -89q0 -59 43.5 -87.5t107.5 -28.5v-95zM266 368q-27 0 -47 19.5t-20 46.5t20 46.5t47 19.5t46.5 -19.5t19.5 -46.5t-19.5 -46.5t-46.5 -19.5z" />
    <glyph glyph-name="Agrave" unicode="&#xc0;" horiz-adv-x="664" 
d="M113 -5l-108 13l279 680h104l271 -679l-114 -13l-78 203h-273zM230 291h201l-99 267zM386 717l-178 113l57 76l167 -130z" />
    <glyph glyph-name="Aacute" unicode="&#xc1;" horiz-adv-x="664" 
d="M113 -5l-108 13l279 680h104l271 -679l-114 -13l-78 203h-273zM230 291h201l-99 267zM291 716l-47 59l167 130l58 -76z" />
    <glyph glyph-name="Acircumflex" unicode="&#xc2;" horiz-adv-x="664" 
d="M230 717l-61 63l164 123l164 -123l-63 -63l-101 85zM113 -5l-108 13l279 680h104l271 -679l-114 -13l-78 203h-273zM230 291h201l-99 267z" />
    <glyph glyph-name="Atilde" unicode="&#xc3;" horiz-adv-x="664" 
d="M113 -5l-108 13l279 680h104l271 -679l-114 -13l-78 203h-273zM230 291h201l-99 267zM495 799q-22 -36 -45.5 -56t-57.5 -20q-23 0 -60.5 18t-53.5 18q-32 0 -56 -34l-48 47q39 70 102 70q22 0 60 -18t52 -18q19 0 30 8t23 26z" />
    <glyph glyph-name="Adieresis" unicode="&#xc4;" horiz-adv-x="664" 
d="M234 728q-27 0 -45.5 19t-18.5 45t18.5 45t45.5 19t45.5 -19t18.5 -45t-18.5 -45t-45.5 -19zM430 728q-27 0 -45.5 19t-18.5 45t18.5 45t45.5 19t45.5 -19t18.5 -45t-18.5 -45t-45.5 -19zM113 -5l-108 13l279 680h104l271 -679l-114 -13l-78 203h-273zM230 291h201
l-99 267z" />
    <glyph glyph-name="Aring" unicode="&#xc5;" horiz-adv-x="664" 
d="M113 -4l-108 13l273 666q-63 27 -63 98q0 49 35 80t86 31q52 0 87 -30.5t35 -80.5q0 -69 -64 -98l265 -666l-114 -13l-78 203h-273zM336 727q17 0 29.5 12.5t12.5 33.5q0 20 -12.5 32t-29.5 12t-29 -12t-12 -32t12.5 -33t28.5 -13zM230 291h201l-99 267z" />
    <glyph glyph-name="AE" unicode="&#xc6;" horiz-adv-x="866" 
d="M97 -6l-106 19l398 675h434v-96h-295v-193h273v-94h-273v-209h295v-96h-403v200h-206zM265 291h155v269z" />
    <glyph glyph-name="Ccedilla" unicode="&#xc7;" horiz-adv-x="573" 
d="M330 -236l-34 56q55 22 55 56q0 32 -37 65l23 56q-133 14 -214.5 106.5t-81.5 241.5q0 155 99 252t245 97q106 0 171 -43l-47 -83q-48 30 -132 30q-92 0 -159 -71t-67 -182q0 -109 65.5 -182t167.5 -73q83 0 137 27l43 -80q-57 -36 -145 -42l-16 -38q36 -34 36 -83
q0 -36 -31.5 -68t-77.5 -42z" />
    <glyph glyph-name="Egrave" unicode="&#xc8;" horiz-adv-x="524" 
d="M78 0v688h404v-96h-296v-193h274v-94h-274v-209h296v-96h-404zM324 717l-178 113l57 76l167 -130z" />
    <glyph glyph-name="Eacute" unicode="&#xc9;" horiz-adv-x="524" 
d="M78 0v688h404v-96h-296v-193h274v-94h-274v-209h296v-96h-404zM230 716l-47 59l167 130l58 -76z" />
    <glyph glyph-name="Ecircumflex" unicode="&#xca;" horiz-adv-x="524" 
d="M78 0v688h404v-96h-296v-193h274v-94h-274v-209h296v-96h-404zM180 717l-61 63l164 123l164 -123l-63 -63l-101 85z" />
    <glyph glyph-name="Edieresis" unicode="&#xcb;" horiz-adv-x="524" 
d="M180 728q-27 0 -45.5 19t-18.5 45t18.5 45t45.5 19t45.5 -19t18.5 -45t-18.5 -45t-45.5 -19zM376 728q-27 0 -45.5 19t-18.5 45t18.5 45t45.5 19t45.5 -19t18.5 -45t-18.5 -45t-45.5 -19zM78 0v688h404v-96h-296v-193h274v-94h-274v-209h296v-96h-404z" />
    <glyph glyph-name="Igrave" unicode="&#xcc;" horiz-adv-x="264" 
d="M78 0v688h108v-688h-108zM164 717l-178 113l57 76l167 -130z" />
    <glyph glyph-name="Iacute" unicode="&#xcd;" horiz-adv-x="264" 
d="M78 0v688h108v-688h-108zM93 716l-47 59l167 130l58 -76z" />
    <glyph glyph-name="Icircumflex" unicode="&#xce;" horiz-adv-x="264" 
d="M29 717l-61 63l164 123l164 -123l-63 -63l-101 85zM78 0v688h108v-688h-108z" />
    <glyph glyph-name="Idieresis" unicode="&#xcf;" horiz-adv-x="264" 
d="M34 728q-27 0 -45.5 19t-18.5 45t18.5 45t45.5 19t45.5 -19t18.5 -45t-18.5 -45t-45.5 -19zM230 728q-27 0 -45.5 19t-18.5 45t18.5 45t45.5 19t45.5 -19t18.5 -45t-18.5 -45t-45.5 -19zM78 0v688h108v-688h-108z" />
    <glyph glyph-name="Eth" unicode="&#xd0;" horiz-adv-x="713" 
d="M78 0v320h-68v61h68v307h252q166 0 254.5 -93t88.5 -242q0 -153 -102.5 -253t-253.5 -100h-239zM186 96h111q51 0 97 15.5t84 46t61 82.5t23 119q0 233 -260 233h-116v-211h125v-61h-125v-224z" />
    <glyph glyph-name="Ntilde" unicode="&#xd1;" horiz-adv-x="756" 
d="M78 0v688h119l372 -509v509h109v-688h-113l-378 512v-512h-109zM536 799q-22 -36 -45.5 -56t-57.5 -20q-23 0 -60.5 18t-53.5 18q-32 0 -56 -34l-48 47q39 70 102 70q22 0 60 -18t52 -18q19 0 30 8t23 26z" />
    <glyph glyph-name="Ograve" unicode="&#xd2;" horiz-adv-x="772" 
d="M427 717l-178 113l57 76l167 -130zM387 -6q-154 0 -250 97t-96 253q0 149 94.5 249t252.5 100q153 0 248 -101.5t95 -246.5q0 -156 -94.5 -253.5t-249.5 -97.5zM384 90q109 0 173 72.5t64 181.5t-62 181.5t-172 72.5t-173 -72.5t-63 -181.5q0 -103 62.5 -178.5
t170.5 -75.5z" />
    <glyph glyph-name="Oacute" unicode="&#xd3;" horiz-adv-x="772" 
d="M347 716l-47 59l167 130l58 -76zM387 -6q-154 0 -250 97t-96 253q0 149 94.5 249t252.5 100q153 0 248 -101.5t95 -246.5q0 -156 -94.5 -253.5t-249.5 -97.5zM384 90q109 0 173 72.5t64 181.5t-62 181.5t-172 72.5t-173 -72.5t-63 -181.5q0 -103 62.5 -178.5t170.5 -75.5
z" />
    <glyph glyph-name="Ocircumflex" unicode="&#xd4;" horiz-adv-x="772" 
d="M286 717l-61 63l164 123l164 -123l-63 -63l-101 85zM387 -6q-154 0 -250 97t-96 253q0 149 94.5 249t252.5 100q153 0 248 -101.5t95 -246.5q0 -156 -94.5 -253.5t-249.5 -97.5zM384 90q109 0 173 72.5t64 181.5t-62 181.5t-172 72.5t-173 -72.5t-63 -181.5
q0 -103 62.5 -178.5t170.5 -75.5z" />
    <glyph glyph-name="Otilde" unicode="&#xd5;" horiz-adv-x="772" 
d="M387 -6q-154 0 -250 97t-96 253q0 149 94.5 249t252.5 100q153 0 248 -101.5t95 -246.5q0 -156 -94.5 -253.5t-249.5 -97.5zM384 90q109 0 173 72.5t64 181.5t-62 181.5t-172 72.5t-173 -72.5t-63 -181.5q0 -103 62.5 -178.5t170.5 -75.5zM548 799q-22 -36 -45.5 -56
t-57.5 -20q-23 0 -60.5 18t-53.5 18q-32 0 -56 -34l-48 47q39 70 102 70q22 0 60 -18t52 -18q19 0 30 8t23 26z" />
    <glyph glyph-name="Odieresis" unicode="&#xd6;" horiz-adv-x="772" 
d="M291 728q-27 0 -45.5 19t-18.5 45t18.5 45t45.5 19t45.5 -19t18.5 -45t-18.5 -45t-45.5 -19zM487 728q-27 0 -45.5 19t-18.5 45t18.5 45t45.5 19t45.5 -19t18.5 -45t-18.5 -45t-45.5 -19zM387 -6q-154 0 -250 97t-96 253q0 149 94.5 249t252.5 100q153 0 248 -101.5
t95 -246.5q0 -156 -94.5 -253.5t-249.5 -97.5zM384 90q109 0 173 72.5t64 181.5t-62 181.5t-172 72.5t-173 -72.5t-63 -181.5q0 -103 62.5 -178.5t170.5 -75.5z" />
    <glyph glyph-name="multiply" unicode="&#xd7;" horiz-adv-x="491" 
d="M105 130l-64 64l142 140l-142 141l64 64l140 -141l141 141l63 -64l-141 -140l141 -141l-63 -64l-141 141z" />
    <glyph glyph-name="Oslash" unicode="&#xd8;" horiz-adv-x="772" 
d="M387 -6q-130 0 -222 72l-70 -71l-54 51l71 73q-71 92 -71 225q0 149 94.5 249t252.5 100q126 0 216 -72l72 72l54 -51l-73 -75q74 -94 74 -222q0 -156 -94.5 -253.5t-249.5 -97.5zM384 90q109 0 173.5 72.5t64.5 181.5q0 86 -39 149l-345 -353q60 -50 146 -50zM191 198
l343 351q-60 49 -147 49q-110 0 -173 -72.5t-63 -181.5q0 -84 40 -146z" />
    <glyph glyph-name="Ugrave" unicode="&#xd9;" horiz-adv-x="687" 
d="M345 -6q-118 0 -197 61t-79 172v461h109v-452q0 -69 48.5 -107.5t121.5 -38.5q75 0 118 37.5t43 115.5v445h109v-460q0 -111 -79 -172.5t-194 -61.5zM400 717l-178 113l57 76l167 -130z" />
    <glyph glyph-name="Uacute" unicode="&#xda;" horiz-adv-x="687" 
d="M345 -6q-118 0 -197 61t-79 172v461h109v-452q0 -69 48.5 -107.5t121.5 -38.5q75 0 118 37.5t43 115.5v445h109v-460q0 -111 -79 -172.5t-194 -61.5zM313 716l-47 59l167 130l58 -76z" />
    <glyph glyph-name="Ucircumflex" unicode="&#xdb;" horiz-adv-x="687" 
d="M345 -6q-118 0 -197 61t-79 172v461h109v-452q0 -69 48.5 -107.5t121.5 -38.5q75 0 118 37.5t43 115.5v445h109v-460q0 -111 -79 -172.5t-194 -61.5zM245 717l-61 63l164 123l164 -123l-63 -63l-101 85z" />
    <glyph glyph-name="Udieresis" unicode="&#xdc;" horiz-adv-x="687" 
d="M250 728q-27 0 -45.5 19t-18.5 45t18.5 45t45.5 19t45.5 -19t18.5 -45t-18.5 -45t-45.5 -19zM446 728q-27 0 -45.5 19t-18.5 45t18.5 45t45.5 19t45.5 -19t18.5 -45t-18.5 -45t-45.5 -19zM345 -6q-118 0 -197 61t-79 172v461h109v-452q0 -69 48.5 -107.5t121.5 -38.5
q75 0 118 37.5t43 115.5v445h109v-460q0 -111 -79 -172.5t-194 -61.5z" />
    <glyph glyph-name="Yacute" unicode="&#xdd;" horiz-adv-x="581" 
d="M235 0v296l-237 373l114 24l181 -298l182 298l109 -25l-241 -372v-296h-108zM260 716l-47 59l167 130l58 -76z" />
    <glyph glyph-name="Thorn" unicode="&#xde;" horiz-adv-x="537" 
d="M78 0v688h107v-127h83q45 0 86 -11t76 -33t56 -61.5t21 -91.5q0 -106 -71 -166t-181 -60h-69v-138h-108zM186 230h59q70 0 110.5 36t40.5 96q0 103 -138 103h-72v-235z" />
    <glyph glyph-name="germandbls" unicode="&#xdf;" horiz-adv-x="543" 
d="M339 -6q-69 0 -124 35l48 79q38 -26 76 -26q28 0 46.5 15.5t18.5 45.5q0 24 -18.5 42.5t-45 32.5t-53 31t-45 47t-18.5 71q0 40 19 69.5t41.5 44.5t41.5 36.5t19 46.5q0 35 -25 52.5t-62 17.5q-41 0 -67.5 -28.5t-26.5 -72.5v-533h-96v537q0 84 56 134t133 50
q94 0 142 -48.5t48 -106.5q0 -33 -12.5 -59t-30.5 -42t-36 -29.5t-30.5 -29t-12.5 -33.5t13.5 -33.5t33.5 -27t44 -27t44 -32.5t33.5 -45.5t13.5 -63.5q0 -65 -50.5 -107.5t-117.5 -42.5z" />
    <glyph glyph-name="agrave" unicode="&#xe0;" horiz-adv-x="462" 
d="M370 -14l-62 57q-76 -50 -138 -50q-58 0 -96.5 33.5t-38.5 93.5q0 66 50 100t135 52l70 12v33q0 64 -72 64q-46 0 -122 -43l-42 69q83 60 171 60q69 0 117.5 -33.5t48.5 -107.5v-229l47 -46zM186 73q19 0 52 12t52 25v106l-61 -12q-96 -23 -96 -78q0 -26 15.5 -39.5
t37.5 -13.5zM266 509l-169 126l63 71l157 -143z" />
    <glyph glyph-name="aacute" unicode="&#xe1;" horiz-adv-x="462" 
d="M370 -14l-62 57q-76 -50 -138 -50q-58 0 -96.5 33.5t-38.5 93.5q0 66 50 100t135 52l70 12v33q0 64 -72 64q-46 0 -122 -43l-42 69q83 60 171 60q69 0 117.5 -33.5t48.5 -107.5v-229l47 -46zM186 73q19 0 52 12t52 25v106l-61 -12q-96 -23 -96 -78q0 -26 15.5 -39.5
t37.5 -13.5zM201 509l-52 54l157 143l63 -71z" />
    <glyph glyph-name="acircumflex" unicode="&#xe2;" horiz-adv-x="462" 
d="M124 511l-62 63l165 123l163 -123l-61 -63l-102 85zM370 -14l-62 57q-76 -50 -138 -50q-58 0 -96.5 33.5t-38.5 93.5q0 66 50 100t135 52l70 12v33q0 64 -72 64q-46 0 -122 -43l-42 69q83 60 171 60q69 0 117.5 -33.5t48.5 -107.5v-229l47 -46zM186 73q19 0 52 12t52 25
v106l-61 -12q-96 -23 -96 -78q0 -26 15.5 -39.5t37.5 -13.5z" />
    <glyph glyph-name="atilde" unicode="&#xe3;" horiz-adv-x="462" 
d="M370 -14l-62 57q-76 -50 -138 -50q-58 0 -96.5 33.5t-38.5 93.5q0 66 50 100t135 52l70 12v33q0 64 -72 64q-46 0 -122 -43l-42 69q83 60 171 60q69 0 117.5 -33.5t48.5 -107.5v-229l47 -46zM186 73q19 0 52 12t52 25v106l-61 -12q-96 -23 -96 -78q0 -26 15.5 -39.5
t37.5 -13.5zM388 614q-41 -76 -105 -76q-23 0 -59.5 18t-52.5 18q-33 0 -56 -34l-48 47q17 32 44 51.5t58 19.5q23 0 59.5 -18.5t52.5 -18.5q30 0 52 34z" />
    <glyph glyph-name="adieresis" unicode="&#xe4;" horiz-adv-x="462" 
d="M126 543q-27 0 -45.5 19t-18.5 45t18.5 45t45.5 19t45.5 -19t18.5 -45t-18.5 -45t-45.5 -19zM322 543q-27 0 -45.5 19t-18.5 45t18.5 45t45.5 19t45.5 -19t18.5 -45t-18.5 -45t-45.5 -19zM370 -14l-62 57q-76 -50 -138 -50q-58 0 -96.5 33.5t-38.5 93.5q0 66 50 100
t135 52l70 12v33q0 64 -72 64q-46 0 -122 -43l-42 69q83 60 171 60q69 0 117.5 -33.5t48.5 -107.5v-229l47 -46zM186 73q19 0 52 12t52 25v106l-61 -12q-96 -23 -96 -78q0 -26 15.5 -39.5t37.5 -13.5z" />
    <glyph glyph-name="aring" unicode="&#xe5;" horiz-adv-x="462" 
d="M370 -14l-62 57q-76 -50 -138 -50q-58 0 -96.5 33.5t-38.5 93.5q0 66 50 100t135 52l70 12v33q0 64 -72 64q-46 0 -122 -43l-42 69q83 60 171 60q69 0 117.5 -33.5t48.5 -107.5v-229l47 -46zM186 73q19 0 52 12t52 25v106l-61 -12q-96 -23 -96 -78q0 -26 15.5 -39.5
t37.5 -13.5zM225 515q-48 0 -81 29.5t-33 75.5t33 74.5t81 28.5t80 -28.5t32 -74.5t-32.5 -75.5t-79.5 -29.5zM225 571q18 0 31 13.5t13 35.5q0 21 -13.5 34t-30.5 13q-18 0 -31 -13t-13 -34q0 -22 13 -35.5t31 -13.5z" />
    <glyph glyph-name="ae" unicode="&#xe6;" horiz-adv-x="711" 
d="M167 -7q-58 0 -96.5 33.5t-38.5 93.5q0 66 49.5 100t135.5 52l70 12v35q0 61 -74 61q-43 0 -121 -42l-41 69q83 60 171 60q93 0 136 -55q57 55 143 55q89 0 136 -59.5t47 -151.5v-54h-295q5 -52 38 -87t85 -35q50 0 116 26l8 -19q8 -19 16 -39l9 -19q-72 -36 -153 -36
q-112 0 -173 75q-81 -75 -168 -75zM183 74q19 0 52 11.5t52 24.5v106l-61 -12q-96 -23 -96 -78q0 -26 15.5 -39t37.5 -13zM390 275h194q0 46 -22 77.5t-67 31.5q-47 0 -73 -33t-32 -76z" />
    <glyph glyph-name="ccedilla" unicode="&#xe7;" horiz-adv-x="421" 
d="M206 -236l-34 56q55 23 55 56q0 32 -37 65l23 57q-82 14 -129.5 75.5t-47.5 151.5q0 108 63.5 175t162.5 67q77 0 140 -39l-47 -78q-43 27 -88 27q-59 0 -94.5 -41.5t-35.5 -106.5q0 -66 37 -105.5t96 -39.5q47 0 92 26l46 -75q-50 -32 -113 -39l-16 -39q36 -34 36 -83
q0 -36 -31.5 -68t-77.5 -42z" />
    <glyph glyph-name="egrave" unicode="&#xe8;" horiz-adv-x="459" 
d="M257 -7q-106 0 -164 63.5t-58 169.5q0 104 57.5 172.5t157.5 68.5q89 0 135.5 -59.5t46.5 -151.5v-54h-294q4 -52 37.5 -86t85.5 -34q56 0 115 24l8 -19q9 -19 18 -39l8 -19q-72 -36 -153 -36zM139 275h194q0 46 -22.5 78t-66.5 32q-46 0 -72.5 -33.5t-32.5 -76.5z
M276 509l-169 126l63 71l157 -143z" />
    <glyph glyph-name="eacute" unicode="&#xe9;" horiz-adv-x="459" 
d="M211 509l-52 54l157 143l63 -71zM257 -7q-106 0 -164 63.5t-58 169.5q0 104 57.5 172.5t157.5 68.5q89 0 135.5 -59.5t46.5 -151.5v-54h-294q4 -52 37.5 -86t85.5 -34q56 0 115 24l8 -19q9 -19 18 -39l8 -19q-72 -36 -153 -36zM139 275h194q0 46 -22.5 78t-66.5 32
q-46 0 -72.5 -33.5t-32.5 -76.5z" />
    <glyph glyph-name="ecircumflex" unicode="&#xea;" horiz-adv-x="459" 
d="M147 511l-62 63l165 123l163 -123l-61 -63l-102 85zM257 -7q-106 0 -164 63.5t-58 169.5q0 104 57.5 172.5t157.5 68.5q89 0 135.5 -59.5t46.5 -151.5v-54h-294q4 -52 37.5 -86t85.5 -34q56 0 115 24l8 -19q9 -19 18 -39l8 -19q-72 -36 -153 -36zM139 275h194
q0 46 -22.5 78t-66.5 32q-46 0 -72.5 -33.5t-32.5 -76.5z" />
    <glyph glyph-name="edieresis" unicode="&#xeb;" horiz-adv-x="459" 
d="M148 543q-27 0 -45.5 19t-18.5 45t18.5 45t45.5 19t45.5 -19t18.5 -45t-18.5 -45t-45.5 -19zM344 543q-27 0 -45.5 19t-18.5 45t18.5 45t45.5 19t45.5 -19t18.5 -45t-18.5 -45t-45.5 -19zM257 -7q-106 0 -164 63.5t-58 169.5q0 104 57.5 172.5t157.5 68.5
q89 0 135.5 -59.5t46.5 -151.5v-54h-294q4 -52 37.5 -86t85.5 -34q56 0 115 24l8 -19q9 -19 18 -39l8 -19q-72 -36 -153 -36zM139 275h194q0 46 -22.5 78t-66.5 32q-46 0 -72.5 -33.5t-32.5 -76.5z" />
    <glyph glyph-name="igrave" unicode="&#xec;" horiz-adv-x="247" 
d="M74 0v461h99v-461h-99zM174 509l-169 126l63 71l157 -143z" />
    <glyph glyph-name="iacute" unicode="&#xed;" horiz-adv-x="247" 
d="M74 0v461h99v-461h-99zM76 509l-52 54l157 143l63 -71z" />
    <glyph glyph-name="icircumflex" unicode="&#xee;" horiz-adv-x="247" 
d="M74 0v461h99v-461h-99zM21 511l-62 63l165 123l163 -123l-61 -63l-102 85z" />
    <glyph glyph-name="idieresis" unicode="&#xef;" horiz-adv-x="247" 
d="M74 0v461h99v-461h-99zM26 543q-27 0 -45.5 19t-18.5 45t18.5 45t45.5 19t45.5 -19t18.5 -45t-18.5 -45t-45.5 -19zM222 543q-27 0 -45.5 19t-18.5 45t18.5 45t45.5 19t45.5 -19t18.5 -45t-18.5 -45t-45.5 -19z" />
    <glyph glyph-name="eth" unicode="&#xf0;" horiz-adv-x="530" 
d="M262 -6q-106 0 -167 66t-61 177q0 98 55.5 164t150.5 66q67 0 128 -44q-15 66 -61 132l-82 -51l-34 52l73 46q-35 37 -63 56l68 63q34 -19 79 -67l82 51l34 -52l-73 -46q45 -65 72 -150t27 -173q0 -79 -21.5 -142t-74.5 -105.5t-132 -42.5zM259 81q70 0 101.5 55.5
t31.5 132.5q0 21 -3 41q-73 67 -143 67q-52 0 -82.5 -37.5t-30.5 -105.5q0 -72 33.5 -112.5t92.5 -40.5z" />
    <glyph glyph-name="ntilde" unicode="&#xf1;" 
d="M422 614q-41 -76 -105 -76q-23 0 -59.5 18t-52.5 18q-33 0 -56 -34l-48 47q17 32 44 51.5t58 19.5q23 0 59.5 -18.5t52.5 -18.5q30 0 52 34zM68 0v461h100v-53q70 59 141 59q69 0 110 -36t41 -97v-334h-100v312q0 65 -65 65q-60 0 -127 -61v-316h-100z" />
    <glyph glyph-name="ograve" unicode="&#xf2;" 
d="M304 509l-169 126l63 71l157 -143zM261 -5q-107 0 -168 67t-61 167q0 58 22.5 110t76.5 90t130 38q47 0 85.5 -14.5t64 -38t43 -55t25 -64t7.5 -65.5q0 -42 -13.5 -82.5t-39.5 -75.5t-70.5 -56t-101.5 -21zM260 84q52 0 87.5 37t35.5 109q0 74 -37 110.5t-85 36.5
q-47 0 -86 -36.5t-39 -111.5q0 -67 35 -106t89 -39z" />
    <glyph glyph-name="oacute" unicode="&#xf3;" 
d="M233 509l-52 54l157 143l63 -71zM261 -5q-107 0 -168 67t-61 167q0 58 22.5 110t76.5 90t130 38q47 0 85.5 -14.5t64 -38t43 -55t25 -64t7.5 -65.5q0 -42 -13.5 -82.5t-39.5 -75.5t-70.5 -56t-101.5 -21zM260 84q52 0 87.5 37t35.5 109q0 74 -37 110.5t-85 36.5
q-47 0 -86 -36.5t-39 -111.5q0 -67 35 -106t89 -39z" />
    <glyph glyph-name="ocircumflex" unicode="&#xf4;" 
d="M159 511l-62 63l165 123l163 -123l-61 -63l-102 85zM261 -5q-107 0 -168 67t-61 167q0 58 22.5 110t76.5 90t130 38q47 0 85.5 -14.5t64 -38t43 -55t25 -64t7.5 -65.5q0 -42 -13.5 -82.5t-39.5 -75.5t-70.5 -56t-101.5 -21zM260 84q52 0 87.5 37t35.5 109q0 74 -37 110.5
t-85 36.5q-47 0 -86 -36.5t-39 -111.5q0 -67 35 -106t89 -39z" />
    <glyph glyph-name="otilde" unicode="&#xf5;" 
d="M261 -5q-107 0 -168 67t-61 167q0 58 22.5 110t76.5 90t130 38q47 0 85.5 -14.5t64 -38t43 -55t25 -64t7.5 -65.5q0 -42 -13.5 -82.5t-39.5 -75.5t-70.5 -56t-101.5 -21zM260 84q52 0 87.5 37t35.5 109q0 74 -37 110.5t-85 36.5q-47 0 -86 -36.5t-39 -111.5
q0 -67 35 -106t89 -39zM420 614q-41 -76 -105 -76q-23 0 -59.5 18t-52.5 18q-33 0 -56 -34l-48 47q17 32 44 51.5t58 19.5q23 0 59.5 -18.5t52.5 -18.5q30 0 52 34z" />
    <glyph glyph-name="odieresis" unicode="&#xf6;" 
d="M161 543q-27 0 -45.5 19t-18.5 45t18.5 45t45.5 19t45.5 -19t18.5 -45t-18.5 -45t-45.5 -19zM357 543q-27 0 -45.5 19t-18.5 45t18.5 45t45.5 19t45.5 -19t18.5 -45t-18.5 -45t-45.5 -19zM261 -5q-107 0 -168 67t-61 167q0 58 22.5 110t76.5 90t130 38q47 0 85.5 -14.5
t64 -38t43 -55t25 -64t7.5 -65.5q0 -42 -13.5 -82.5t-39.5 -75.5t-70.5 -56t-101.5 -21zM260 84q52 0 87.5 37t35.5 109q0 74 -37 110.5t-85 36.5q-47 0 -86 -36.5t-39 -111.5q0 -67 35 -106t89 -39z" />
    <glyph glyph-name="divide" unicode="&#xf7;" horiz-adv-x="489" 
d="M244 99q-28 0 -48 20t-20 48q0 29 20 48.5t48 19.5t48 -19.5t20 -48.5q0 -28 -20 -48t-48 -20zM244 451q-28 0 -48 20t-20 49q0 28 20 48t48 20t48 -20t20 -48q0 -29 -20 -49t-48 -20zM20 297v92h449v-92h-449z" />
    <glyph glyph-name="oslash" unicode="&#xf8;" 
d="M76 -9l-52 47l47 51q-39 60 -39 140q0 58 22.5 110t76.5 90t130 38q81 0 135 -40l43 46l51 -49l-46 -49q42 -62 42 -145q0 -42 -13.5 -82.5t-39.5 -75.5t-70.5 -56t-101.5 -21q-83 0 -142 43zM260 84q52 0 87.5 36t35.5 110q0 38 -15 68l-180 -191q32 -23 72 -23z
M148 167l179 190q-30 20 -66 20q-47 0 -86 -36.5t-39 -111.5q0 -33 12 -62z" />
    <glyph glyph-name="ugrave" unicode="&#xf9;" horiz-adv-x="519" 
d="M212 -6q-70 0 -110.5 35.5t-40.5 96.5v335h100v-312q0 -65 65 -65q53 0 125 63v314h100v-461h-100v53q-68 -59 -139 -59zM280 509l-169 126l63 71l157 -143z" />
    <glyph glyph-name="uacute" unicode="&#xfa;" horiz-adv-x="519" 
d="M244 509l-52 54l157 143l63 -71zM212 -6q-70 0 -110.5 35.5t-40.5 96.5v335h100v-312q0 -65 65 -65q53 0 125 63v314h100v-461h-100v53q-68 -59 -139 -59z" />
    <glyph glyph-name="ucircumflex" unicode="&#xfb;" horiz-adv-x="519" 
d="M153 511l-62 63l165 123l163 -123l-61 -63l-102 85zM212 -6q-70 0 -110.5 35.5t-40.5 96.5v335h100v-312q0 -65 65 -65q53 0 125 63v314h100v-461h-100v53q-68 -59 -139 -59z" />
    <glyph glyph-name="udieresis" unicode="&#xfc;" horiz-adv-x="519" 
d="M157 543q-27 0 -45.5 19t-18.5 45t18.5 45t45.5 19t45.5 -19t18.5 -45t-18.5 -45t-45.5 -19zM353 543q-27 0 -45.5 19t-18.5 45t18.5 45t45.5 19t45.5 -19t18.5 -45t-18.5 -45t-45.5 -19zM212 -6q-70 0 -110.5 35.5t-40.5 96.5v335h100v-312q0 -65 65 -65q53 0 125 63
v314h100v-461h-100v53q-68 -59 -139 -59z" />
    <glyph glyph-name="yacute" unicode="&#xfd;" horiz-adv-x="472" 
d="M55 -239q-9 0 -27 1.5t-21 1.5v89q12 -1 37 -1q39 0 68 21.5t42 56.5l30 74l-180 448l106 13l128 -342l132 342l100 -16l-223 -542q-61 -146 -192 -146zM229 509l-52 54l157 143l63 -71z" />
    <glyph glyph-name="thorn" unicode="&#xfe;" horiz-adv-x="539" 
d="M74 -239v960h100v-303q79 49 132 49q96 0 147.5 -67.5t51.5 -167.5q0 -95 -54.5 -167t-150.5 -72q-66 0 -127 52v-284h-99zM293 84q52 0 81.5 42.5t29.5 104.5t-28 104t-81 42q-63 0 -121 -48v-193q62 -52 119 -52z" />
    <glyph glyph-name="ydieresis" unicode="&#xff;" horiz-adv-x="472" 
d="M55 -239q-9 0 -27 1.5t-21 1.5v89q12 -1 37 -1q39 0 68 21.5t42 56.5l30 74l-180 448l106 13l128 -342l132 342l100 -16l-223 -542q-61 -146 -192 -146zM138 543q-27 0 -45.5 19t-18.5 45t18.5 45t45.5 19t45.5 -19t18.5 -45t-18.5 -45t-45.5 -19zM334 543
q-27 0 -45.5 19t-18.5 45t18.5 45t45.5 19t45.5 -19t18.5 -45t-18.5 -45t-45.5 -19z" />
    <glyph glyph-name="Amacron" unicode="&#x100;" horiz-adv-x="664" 
d="M113 -5l-108 13l279 680h104l271 -679l-114 -13l-78 203h-273zM230 291h201l-99 267zM210 746v85h246v-85h-246z" />
    <glyph glyph-name="amacron" unicode="&#x101;" horiz-adv-x="462" 
d="M370 -14l-62 57q-76 -50 -138 -50q-58 0 -96.5 33.5t-38.5 93.5q0 66 50 100t135 52l70 12v33q0 64 -72 64q-46 0 -122 -43l-42 69q83 60 171 60q69 0 117.5 -33.5t48.5 -107.5v-229l47 -46zM186 73q19 0 52 12t52 25v106l-61 -12q-96 -23 -96 -78q0 -26 15.5 -39.5
t37.5 -13.5zM106 545v85h246v-85h-246z" />
    <glyph glyph-name="Abreve" unicode="&#x102;" horiz-adv-x="664" 
d="M113 -5l-108 13l279 680h104l271 -679l-114 -13l-78 203h-273zM230 291h201l-99 267zM334 721q-65 0 -104 36t-50 73l66 29l2 -3q3 -4 4.5 -6.5t5 -7t6.5 -8t8 -8t9.5 -8t10.5 -7t12.5 -5.5t14.5 -3.5t16 -1.5q26 0 47 13.5t29 24t12 20.5l64 -28q-8 -22 -22 -43.5
t-49.5 -44t-81.5 -22.5z" />
    <glyph glyph-name="abreve" unicode="&#x103;" horiz-adv-x="462" 
d="M370 -14l-62 57q-76 -50 -138 -50q-58 0 -96.5 33.5t-38.5 93.5q0 66 50 100t135 52l70 12v33q0 64 -72 64q-46 0 -122 -43l-42 69q83 60 171 60q69 0 117.5 -33.5t48.5 -107.5v-229l47 -46zM186 73q19 0 52 12t52 25v106l-61 -12q-96 -23 -96 -78q0 -26 15.5 -39.5
t37.5 -13.5zM226 531q-65 0 -104 36t-50 73l66 29l2 -3q3 -4 4.5 -6.5t5 -7t6.5 -8t8 -8t9.5 -8t10.5 -7t12.5 -5.5t14.5 -3.5t16 -1.5q26 0 47 13.5t29 24t12 20.5l64 -28q-8 -22 -22 -43.5t-49.5 -44t-81.5 -22.5z" />
    <glyph glyph-name="Aogonek" unicode="&#x104;" horiz-adv-x="664" 
d="M590 -196q-46 0 -75 26t-29 72q0 49 57 99l-76 198h-273l-81 -206l-105 21l276 674h104l268 -676q-78 -51 -78 -101q0 -16 10 -25.5t27 -9.5q23 0 40 7l12 -65q-32 -14 -77 -14zM230 291h201l-99 267z" />
    <glyph glyph-name="aogonek" unicode="&#x105;" horiz-adv-x="462" 
d="M427 -180q-31 -14 -76 -14q-47 0 -76 26t-29 72q0 57 85 118l-23 21q-76 -50 -138 -50q-58 0 -96.5 33.5t-38.5 93.5q0 66 50 100t135 52l70 12v33q0 64 -72 64q-46 0 -122 -43l-42 69q83 60 171 60q69 0 117.5 -33.5t48.5 -107.5v-229l57 -59q-59 -41 -84.5 -70
t-25.5 -55q0 -16 10 -25.5t27 -9.5q22 0 40 8zM290 216l-67 -14q-90 -22 -90 -76q0 -26 15.5 -39.5t37.5 -13.5q19 0 52 12t52 25v106z" />
    <glyph glyph-name="Cacute" unicode="&#x106;" horiz-adv-x="573" 
d="M348 716l-47 59l167 130l58 -76zM384 -6q-152 0 -247.5 95t-95.5 256q0 155 99 252t245 97q106 0 171 -43l-47 -83q-48 30 -132 30q-92 0 -159 -71t-67 -182q0 -109 65.5 -182t167.5 -73q83 0 137 27l43 -80q-68 -43 -180 -43z" />
    <glyph glyph-name="cacute" unicode="&#x107;" horiz-adv-x="421" 
d="M216 509l-52 54l157 143l63 -71zM263 -6q-103 0 -165 64t-62 167q0 108 63.5 175t162.5 67q77 0 140 -39l-47 -78q-43 27 -88 27q-59 0 -94.5 -41.5t-35.5 -106.5q0 -66 37 -105.5t96 -39.5q47 0 92 26l46 -75q-64 -41 -145 -41z" />
    <glyph glyph-name="Ccircumflex" unicode="&#x108;" horiz-adv-x="573" 
d="M283 717l-61 63l164 123l164 -123l-63 -63l-101 85zM384 -6q-152 0 -247.5 95t-95.5 256q0 155 99 252t245 97q106 0 171 -43l-47 -83q-48 30 -132 30q-92 0 -159 -71t-67 -182q0 -109 65.5 -182t167.5 -73q83 0 137 27l43 -80q-68 -43 -180 -43z" />
    <glyph glyph-name="ccircumflex" unicode="&#x109;" horiz-adv-x="421" 
d="M162 511l-62 63l165 123l163 -123l-61 -63l-102 85zM263 -6q-103 0 -165 64t-62 167q0 108 63.5 175t162.5 67q77 0 140 -39l-47 -78q-43 27 -88 27q-59 0 -94.5 -41.5t-35.5 -106.5q0 -66 37 -105.5t96 -39.5q47 0 92 26l46 -75q-64 -41 -145 -41z" />
    <glyph glyph-name="Cdotaccent" unicode="&#x10a;" horiz-adv-x="573" 
d="M384 -6q-152 0 -247.5 95t-95.5 256q0 155 99 252t245 97q106 0 171 -43l-47 -83q-48 30 -132 30q-92 0 -159 -71t-67 -182q0 -109 65.5 -182t167.5 -73q83 0 137 27l43 -80q-68 -43 -180 -43zM385 733q-27 0 -46 19t-19 45t19 45.5t46 19.5t45.5 -19t18.5 -46
q0 -26 -18.5 -45t-45.5 -19z" />
    <glyph glyph-name="cdotaccent" unicode="&#x10b;" horiz-adv-x="421" 
d="M263 -6q-103 0 -165 64t-62 167q0 108 63.5 175t162.5 67q77 0 140 -39l-47 -78q-43 27 -88 27q-59 0 -94.5 -41.5t-35.5 -106.5q0 -66 37 -105.5t96 -39.5q47 0 92 26l46 -75q-64 -41 -145 -41zM264 550q-26 0 -45 19t-19 45t19 45t45 19q27 0 46 -19t19 -45t-19 -45
t-46 -19z" />
    <glyph glyph-name="Ccaron" unicode="&#x10c;" horiz-adv-x="573" 
d="M380 716l-164 124l61 62l103 -85l101 85l63 -62zM384 -6q-152 0 -247.5 95t-95.5 256q0 155 99 252t245 97q106 0 171 -43l-47 -83q-48 30 -132 30q-92 0 -159 -71t-67 -182q0 -109 65.5 -182t167.5 -73q83 0 137 27l43 -80q-68 -43 -180 -43z" />
    <glyph glyph-name="ccaron" unicode="&#x10d;" horiz-adv-x="421" 
d="M262 512l-165 123l62 63l103 -85l102 85l61 -63zM263 -6q-103 0 -165 64t-62 167q0 108 63.5 175t162.5 67q77 0 140 -39l-47 -78q-43 27 -88 27q-59 0 -94.5 -41.5t-35.5 -106.5q0 -66 37 -105.5t96 -39.5q47 0 92 26l46 -75q-64 -41 -145 -41z" />
    <glyph glyph-name="Dcaron" unicode="&#x10e;" horiz-adv-x="713" 
d="M310 716l-164 124l61 62l103 -85l101 85l63 -62zM78 0v688h252q165 0 253.5 -93t88.5 -242q0 -154 -99 -253.5t-250 -99.5h-245zM186 95h117q50 0 95.5 15.5t82.5 46.5t59 83t22 119q0 233 -260 233h-116v-497z" />
    <glyph glyph-name="dcaron" unicode="&#x10f;" horiz-adv-x="611" 
d="M509 538l29 183h98l-55 -183h-72zM239 -7q-97 0 -151 67.5t-54 165.5t52.5 169.5t146.5 71.5q62 0 132 -46v300h100v-721h-100v42q-62 -49 -126 -49zM247 84q25 0 48.5 9.5t36.5 18.5t33 26v192q-64 47 -120 47q-53 0 -81.5 -41.5t-28.5 -104.5q0 -62 30 -104.5t82 -42.5
z" />
    <glyph glyph-name="Dcroat" unicode="&#x110;" horiz-adv-x="713" 
d="M78 0v320h-68v61h68v307h252q166 0 254.5 -93t88.5 -242q0 -153 -102.5 -253t-253.5 -100h-239zM186 96h111q51 0 97 15.5t84 46t61 82.5t23 119q0 233 -260 233h-116v-211h125v-61h-125v-224z" />
    <glyph glyph-name="dcroat" unicode="&#x111;" horiz-adv-x="533" 
d="M239 -7q-97 0 -151 67.5t-54 165.5t52.5 169.5t146.5 71.5q62 0 132 -46v119h-119v72h119v109h100v-109h60v-72h-60v-540h-100v42q-62 -49 -126 -49zM247 84q25 0 48.5 9.5t36.5 18.5t33 26v192q-64 47 -120 47q-53 0 -81.5 -41.5t-28.5 -104.5q0 -62 30 -104.5t82 -42.5
z" />
    <glyph glyph-name="Emacron" unicode="&#x112;" horiz-adv-x="524" 
d="M78 0v688h404v-96h-296v-193h274v-94h-274v-209h296v-96h-404zM155 746v85h246v-85h-246z" />
    <glyph glyph-name="emacron" unicode="&#x113;" horiz-adv-x="459" 
d="M128 545v85h246v-85h-246zM257 -7q-106 0 -164 63.5t-58 169.5q0 104 57.5 172.5t157.5 68.5q89 0 135.5 -59.5t46.5 -151.5v-54h-294q4 -52 37.5 -86t85.5 -34q56 0 115 24l8 -19q9 -19 18 -39l8 -19q-72 -36 -153 -36zM139 275h194q0 46 -22.5 78t-66.5 32
q-46 0 -72.5 -33.5t-32.5 -76.5z" />
    <glyph glyph-name="Ebreve" unicode="&#x114;" horiz-adv-x="524" 
d="M78 0v688h404v-96h-296v-193h274v-94h-274v-209h296v-96h-404zM285 719q-65 0 -104 36t-50 73l66 29l3 -3q2 -4 3.5 -6.5t5 -7t6.5 -8t8 -8t9.5 -8t10.5 -7t12.5 -5.5t14.5 -3.5t16 -1.5q26 0 47 13.5t29 24t12 20.5l64 -28q-8 -22 -22 -43.5t-49.5 -44t-81.5 -22.5z" />
    <glyph glyph-name="ebreve" unicode="&#x115;" horiz-adv-x="459" 
d="M257 -7q-106 0 -164 63.5t-58 169.5q0 104 57.5 172.5t157.5 68.5q89 0 135.5 -59.5t46.5 -151.5v-54h-294q4 -52 37.5 -86t85.5 -34q56 0 115 24l8 -19q9 -19 18 -39l8 -19q-72 -36 -153 -36zM139 275h194q0 46 -22.5 78t-66.5 32q-46 0 -72.5 -33.5t-32.5 -76.5z
M248 531q-65 0 -104 36t-50 73l66 29l2 -3q3 -4 4.5 -6.5t5 -7t6.5 -8t8 -8t9.5 -8t10.5 -7t12.5 -5.5t14.5 -3.5t16 -1.5q26 0 47 13.5t29 24t12 20.5l64 -28q-8 -22 -22 -43.5t-49.5 -44t-81.5 -22.5z" />
    <glyph glyph-name="Edotaccent" unicode="&#x116;" horiz-adv-x="524" 
d="M78 0v688h404v-96h-296v-193h274v-94h-274v-209h296v-96h-404zM283 733q-27 0 -46 19t-19 45t19 45.5t46 19.5t45.5 -19t18.5 -46q0 -26 -18.5 -45t-45.5 -19z" />
    <glyph glyph-name="edotaccent" unicode="&#x117;" horiz-adv-x="459" 
d="M257 -7q-106 0 -164 63.5t-58 169.5q0 104 57.5 172.5t157.5 68.5q89 0 135.5 -59.5t46.5 -151.5v-54h-294q4 -52 37.5 -86t85.5 -34q56 0 115 24l8 -19q9 -19 18 -39l8 -19q-72 -36 -153 -36zM139 275h194q0 46 -22.5 78t-66.5 32q-46 0 -72.5 -33.5t-32.5 -76.5z
M247 550q-26 0 -45 19t-19 45t19 45t45 19q27 0 46 -19t19 -45t-19 -45t-46 -19z" />
    <glyph glyph-name="Eogonek" unicode="&#x118;" horiz-adv-x="524" 
d="M421 -196q-47 0 -76 26t-29 72q0 52 66 98h-304v688h404v-96h-296v-193h274v-94h-274v-209h296v-96q-74 -44 -74 -89q0 -16 10 -25.5t27 -9.5q23 0 40 7l12 -65q-31 -14 -76 -14z" />
    <glyph glyph-name="eogonek" unicode="&#x119;" horiz-adv-x="459" 
d="M380 -182q-31 -14 -76 -14q-47 0 -76 26t-29 72t49 92q-101 1 -157 64.5t-56 167.5t57.5 172.5t157.5 68.5q89 0 135.5 -59.5t46.5 -151.5v-54h-294q4 -52 37.5 -86t85.5 -34q56 0 115 24l8 -19q9 -19 18 -39l8 -19q-20 -11 -42 -18q-77 -48 -77 -100q0 -16 10 -25.5
t27 -9.5q25 0 40 7zM139 275h194q0 46 -22.5 78t-66.5 32q-46 0 -72.5 -33.5t-32.5 -76.5z" />
    <glyph glyph-name="Ecaron" unicode="&#x11a;" horiz-adv-x="524" 
d="M283 716l-164 124l61 62l103 -85l101 85l63 -62zM78 0v688h404v-96h-296v-193h274v-94h-274v-209h296v-96h-404z" />
    <glyph glyph-name="ecaron" unicode="&#x11b;" horiz-adv-x="459" 
d="M247 512l-165 123l62 63l103 -85l102 85l61 -63zM257 -7q-106 0 -164 63.5t-58 169.5q0 104 57.5 172.5t157.5 68.5q89 0 135.5 -59.5t46.5 -151.5v-54h-294q4 -52 37.5 -86t85.5 -34q56 0 115 24l8 -19q9 -19 18 -39l8 -19q-72 -36 -153 -36zM139 275h194q0 46 -22.5 78
t-66.5 32q-46 0 -72.5 -33.5t-32.5 -76.5z" />
    <glyph glyph-name="Gcircumflex" unicode="&#x11c;" horiz-adv-x="673" 
d="M297 717l-61 63l164 123l164 -123l-63 -63l-101 85zM378 -6q-148 0 -242.5 98.5t-94.5 246.5q0 155 101 254.5t254 99.5q123 0 201 -48l-48 -80q-61 33 -149 33q-113 0 -181 -72t-68 -187q0 -106 62.5 -177.5t167.5 -71.5q84 0 133 30v162h-157v87h262v-291
q-90 -84 -241 -84z" />
    <glyph glyph-name="gcircumflex" unicode="&#x11d;" horiz-adv-x="494" 
d="M127 511l-62 63l165 123l163 -123l-61 -63l-102 85zM230 -238q-88 0 -147.5 46t-59.5 130q0 72 50 116t107 54l3 27q-60 11 -100 56t-40 106q0 75 54 122.5t131 47.5q57 0 97 -26l161 31v-95h-99q25 -39 25 -80q0 -62 -38.5 -105.5t-101.5 -56.5l3 -27q61 -10 112 -53.5
t51 -116.5q0 -79 -61.5 -127.5t-146.5 -48.5zM230 -155q46 0 76.5 26.5t30.5 67.5t-30.5 67.5t-76.5 26.5t-76.5 -26.5t-30.5 -67.5q0 -42 30 -68t77 -26zM228 210q34 0 59 25t25 62t-25 61.5t-60 24.5t-60 -25t-25 -61q0 -38 25 -62.5t61 -24.5z" />
    <glyph glyph-name="Gbreve" unicode="&#x11e;" horiz-adv-x="673" 
d="M378 -6q-148 0 -242.5 98.5t-94.5 246.5q0 155 101 254.5t254 99.5q123 0 201 -48l-48 -80q-61 33 -149 33q-113 0 -181 -72t-68 -187q0 -106 62.5 -177.5t167.5 -71.5q84 0 133 30v162h-157v87h262v-291q-90 -84 -241 -84zM385 719q-65 0 -104 36t-50 73l66 29l3 -3
q2 -4 3.5 -6.5t5 -7t6.5 -8t8 -8t9.5 -8t10.5 -7t12.5 -5.5t14.5 -3.5t16 -1.5q26 0 47 13.5t29 24t12 20.5l64 -28q-8 -22 -22 -43.5t-49.5 -44t-81.5 -22.5z" />
    <glyph glyph-name="gbreve" unicode="&#x11f;" horiz-adv-x="494" 
d="M230 -238q-88 0 -147.5 46t-59.5 130q0 72 50 116t107 54l3 27q-60 11 -100 56t-40 106q0 75 54 122.5t131 47.5q57 0 97 -26l161 31v-95h-99q25 -39 25 -80q0 -62 -38.5 -105.5t-101.5 -56.5l3 -27q61 -10 112 -53.5t51 -116.5q0 -79 -61.5 -127.5t-146.5 -48.5z
M230 -155q46 0 76.5 26.5t30.5 67.5t-30.5 67.5t-76.5 26.5t-76.5 -26.5t-30.5 -67.5q0 -42 30 -68t77 -26zM228 210q34 0 59 25t25 62t-25 61.5t-60 24.5t-60 -25t-25 -61q0 -38 25 -62.5t61 -24.5zM228 531q-65 0 -104 36t-50 73l66 29l2 -3q3 -4 4.5 -6.5t5 -7t6.5 -8
t8 -8t9.5 -8t10.5 -7t12.5 -5.5t14.5 -3.5t16 -1.5q26 0 47 13.5t29 24t12 20.5l64 -28q-8 -22 -22 -43.5t-49.5 -44t-81.5 -22.5z" />
    <glyph glyph-name="Gdotaccent" unicode="&#x120;" horiz-adv-x="673" 
d="M378 -6q-148 0 -242.5 98.5t-94.5 246.5q0 155 101 254.5t254 99.5q123 0 201 -48l-48 -80q-61 33 -149 33q-113 0 -181 -72t-68 -187q0 -106 62.5 -177.5t167.5 -71.5q84 0 133 30v162h-157v87h262v-291q-90 -84 -241 -84zM397 733q-27 0 -46 19t-19 45t19 45.5t46 19.5
t45.5 -19t18.5 -46q0 -26 -18.5 -45t-45.5 -19z" />
    <glyph glyph-name="gdotaccent" unicode="&#x121;" horiz-adv-x="494" 
d="M230 -238q-88 0 -147.5 46t-59.5 130q0 72 50 116t107 54l3 27q-60 11 -100 56t-40 106q0 75 54 122.5t131 47.5q57 0 97 -26l161 31v-95h-99q25 -39 25 -80q0 -62 -38.5 -105.5t-101.5 -56.5l3 -27q61 -10 112 -53.5t51 -116.5q0 -79 -61.5 -127.5t-146.5 -48.5z
M230 -155q46 0 76.5 26.5t30.5 67.5t-30.5 67.5t-76.5 26.5t-76.5 -26.5t-30.5 -67.5q0 -42 30 -68t77 -26zM228 210q34 0 59 25t25 62t-25 61.5t-60 24.5t-60 -25t-25 -61q0 -38 25 -62.5t61 -24.5zM226 550q-26 0 -45 19t-19 45t19 45t45 19q27 0 46 -19t19 -45t-19 -45
t-46 -19z" />
    <glyph glyph-name="Gcommaaccent" unicode="&#x122;" horiz-adv-x="673" 
d="M318 -214l29 183h98l-55 -183h-72zM378 -6q-148 0 -242.5 98.5t-94.5 246.5q0 155 101 254.5t254 99.5q123 0 201 -48l-48 -80q-61 33 -149 33q-113 0 -181 -72t-68 -187q0 -106 62.5 -177.5t167.5 -71.5q84 0 133 30v162h-157v87h262v-291q-90 -84 -241 -84z" />
    <glyph glyph-name="gcommaaccent" unicode="&#x123;" horiz-adv-x="494" 
d="M230 -238q-88 0 -147.5 46t-59.5 130q0 72 50 116t107 54l3 27q-60 11 -100 56t-40 106q0 75 54 122.5t131 47.5q57 0 97 -26l161 31v-95h-99q25 -39 25 -80q0 -62 -38.5 -105.5t-101.5 -56.5l3 -27q61 -10 112 -53.5t51 -116.5q0 -79 -61.5 -127.5t-146.5 -48.5z
M230 -155q46 0 76.5 26.5t30.5 67.5t-30.5 67.5t-76.5 26.5t-76.5 -26.5t-30.5 -67.5q0 -42 30 -68t77 -26zM228 210q34 0 59 25t25 62t-25 61.5t-60 24.5t-60 -25t-25 -61q0 -38 25 -62.5t61 -24.5zM185 512l54 182h72l-29 -182h-97z" />
    <glyph glyph-name="Hcircumflex" unicode="&#x124;" horiz-adv-x="705" 
d="M249 717l-61 63l164 123l164 -123l-63 -63l-101 85zM78 0v688h109v-287h332v287h108v-688h-108v306h-332v-306h-109z" />
    <glyph glyph-name="hcircumflex" unicode="&#x125;" 
d="M14 717l-61 63l164 123l164 -123l-63 -63l-101 85zM68 0v721h100v-313q29 26 68.5 42.5t75.5 16.5q65 0 106.5 -35t41.5 -95v-337h-100v310q0 64 -65 64q-55 0 -127 -62v-312h-100z" />
    <glyph glyph-name="Hbar" unicode="&#x126;" horiz-adv-x="705" 
d="M78 0v494h-64v72h64v122h109v-122h332v122h108v-122h62v-72h-62v-494h-108v306h-332v-306h-109zM187 401h332v93h-332v-93z" />
    <glyph glyph-name="hbar" unicode="&#x127;" 
d="M68 0v540h-58v72h58v109h100v-109h113v-72h-113v-132q29 26 68.5 42.5t75.5 16.5q65 0 106.5 -35t41.5 -95v-337h-100v310q0 64 -65 64q-55 0 -127 -62v-312h-100z" />
    <glyph glyph-name="Itilde" unicode="&#x128;" horiz-adv-x="264" 
d="M78 0v688h108v-688h-108zM290 799q-23 -36 -46 -56t-57 -20q-23 0 -60.5 18t-53.5 18q-32 0 -56 -34l-48 47q39 70 102 70q22 0 60 -18t52 -18q19 0 30 8t23 26z" />
    <glyph glyph-name="itilde" unicode="&#x129;" horiz-adv-x="247" 
d="M74 0v461h99v-461h-99zM284 614q-41 -76 -105 -76q-23 0 -59.5 18t-52.5 18q-33 0 -56 -34l-48 47q17 32 44 51.5t58 19.5q23 0 59.5 -18.5t52.5 -18.5q30 0 52 34z" />
    <glyph glyph-name="Imacron" unicode="&#x12a;" horiz-adv-x="264" 
d="M78 0v688h108v-688h-108zM10 746v85h246v-85h-246z" />
    <glyph glyph-name="imacron" unicode="&#x12b;" horiz-adv-x="247" 
d="M74 0v461h99v-461h-99zM1 545v85h246v-85h-246z" />
    <glyph glyph-name="Ibreve" unicode="&#x12c;" horiz-adv-x="264" 
d="M78 0v688h108v-688h-108zM132 720q-65 0 -104 36t-50 73l66 29l2 -4q3 -3 4.5 -5.5t5 -7t6.5 -8t8 -8t9.5 -8t10.5 -7t12.5 -5.5t14.5 -3.5t16 -1.5q26 0 47 13.5t29 24t12 20.5l64 -28q-8 -22 -22 -43.5t-49.5 -44t-81.5 -22.5z" />
    <glyph glyph-name="ibreve" unicode="&#x12d;" horiz-adv-x="247" 
d="M74 0v461h99v-461h-99zM123 531q-65 0 -104 36t-50 73l66 29l3 -3q2 -4 3.5 -6.5t5 -7t6.5 -8t8 -8t9.5 -8t10.5 -7t12.5 -5.5t14.5 -3.5t16 -1.5q26 0 47 13.5t29 24t12 20.5l64 -28q-8 -22 -22 -43.5t-49.5 -44t-81.5 -22.5z" />
    <glyph glyph-name="Iogonek" unicode="&#x12e;" horiz-adv-x="264" 
d="M139 -196q-47 0 -76 26t-29 72q0 43 44 87v699h108v-688q-60 -46 -60 -89q0 -16 10 -25.5t27 -9.5q25 0 40 7l12 -65q-32 -14 -76 -14z" />
    <glyph glyph-name="iogonek" unicode="&#x12f;" horiz-adv-x="247" 
d="M126 -196q-47 0 -76 26t-29 72q0 48 52 98v461h100v-461q-60 -46 -60 -89q0 -16 10 -25.5t27 -9.5q23 0 40 7l12 -65q-32 -14 -76 -14zM123 550q-26 0 -45 19t-19 45t19 45t45 19q27 0 46 -19t19 -45t-19 -45t-46 -19z" />
    <glyph glyph-name="Idotaccent" unicode="&#x130;" horiz-adv-x="264" 
d="M78 0v688h108v-688h-108zM131 733q-27 0 -46 19t-19 45t19 45.5t46 19.5t45.5 -19t18.5 -46q0 -26 -18.5 -45t-45.5 -19z" />
    <glyph glyph-name="dotlessi" unicode="&#x131;" horiz-adv-x="247" 
d="M74 0v461h99v-461h-99z" />
    <glyph glyph-name="IJ" unicode="&#x132;" horiz-adv-x="523" 
d="M78 0v688h108v-688h-108zM165 -212v95q172 0 172 168v637h108v-640q0 -131 -74.5 -195.5t-205.5 -64.5z" />
    <glyph glyph-name="ij" unicode="&#x133;" horiz-adv-x="481" 
d="M123 550q-26 0 -45 19t-19 45t19 45t45 19q27 0 46 -19t19 -45t-19 -45t-46 -19zM73 0v461h100v-461h-100zM357 550q-27 0 -45.5 19t-18.5 45t18.5 45t45.5 19t46 -19t19 -45t-19 -45t-46 -19zM255 -235l-59 69q64 36 88 83t24 112v432h100v-441q0 -82 -37.5 -148.5
t-115.5 -106.5z" />
    <glyph glyph-name="Jcircumflex" unicode="&#x134;" horiz-adv-x="264" 
d="M29 717l-61 63l164 123l164 -123l-63 -63l-101 85zM-93 -212v95q172 0 172 168v637h108v-640q0 -131 -74.5 -195.5t-205.5 -64.5z" />
    <glyph glyph-name="jcircumflex" unicode="&#x135;" horiz-adv-x="247" 
d="M21 511l-62 63l165 123l163 -123l-61 -63l-102 85zM21 -235l-59 69q64 36 88 83t24 112v432h100v-441q0 -82 -37.5 -148.5t-115.5 -106.5z" />
    <glyph glyph-name="Kcommaaccent" unicode="&#x136;" horiz-adv-x="620" 
d="M266 -214l29 183h98l-55 -183h-72zM496 -7l-307 370l290 332l117 -26l-274 -300l290 -343zM78 0v688h109v-688h-109z" />
    <glyph glyph-name="kcommaaccent" unicode="&#x137;" horiz-adv-x="472" 
d="M188 -214l29 183h98l-55 -183h-72zM360 -7l-191 263l182 208l110 -18l-177 -189l188 -243zM68 0v721h100v-721h-100z" />
    <glyph glyph-name="Lacute" unicode="&#x139;" horiz-adv-x="496" 
d="M90 716l-47 59l167 130l58 -76zM78 0v688h108v-592h304v-96h-412z" />
    <glyph glyph-name="lacute" unicode="&#x13a;" horiz-adv-x="236" 
d="M71 743l-47 59l167 130l58 -76zM68 0v721h100v-721h-100z" />
    <glyph glyph-name="Lcommaaccent" unicode="&#x13b;" horiz-adv-x="496" 
d="M228 -214l29 183h98l-55 -183h-72zM78 0v688h108v-592h304v-96h-412z" />
    <glyph glyph-name="lcommaaccent" unicode="&#x13c;" horiz-adv-x="236" 
d="M44 -214l29 183h98l-55 -183h-72zM68 0v721h100v-721h-100z" />
    <glyph glyph-name="Lcaron" unicode="&#x13d;" horiz-adv-x="496" 
d="M268 538l29 183h98l-55 -183h-72zM78 0v688h108v-592h304v-96h-412z" />
    <glyph glyph-name="lcaron" unicode="&#x13e;" horiz-adv-x="315" 
d="M216 538l29 183h98l-55 -183h-72zM68 0v721h100v-721h-100z" />
    <glyph glyph-name="Ldot" unicode="&#x13f;" horiz-adv-x="496" 
d="M78 0v688h108v-592h304v-96h-412zM374 309q-27 0 -46 19t-19 46q0 28 19 47t46 19q28 0 47 -19t19 -47q0 -27 -19 -46t-47 -19z" />
    <glyph glyph-name="ldot" unicode="&#x140;" horiz-adv-x="376" 
d="M68 0v721h100v-721h-100zM305 274q-27 0 -46 19t-19 46q0 28 19 47t46 19q28 0 47 -19t19 -47q0 -27 -19 -46t-47 -19z" />
    <glyph glyph-name="Lslash" unicode="&#x141;" horiz-adv-x="498" 
d="M80 0v314l-65 -34v68l65 35v305h109v-247l112 59v-70l-112 -59v-275h303v-96h-412z" />
    <glyph glyph-name="lslash" unicode="&#x142;" horiz-adv-x="257" 
d="M79 0v319l-84 -44v70l84 44v332h100v-279l85 45v-71l-85 -45v-371h-100z" />
    <glyph glyph-name="Nacute" unicode="&#x143;" horiz-adv-x="756" 
d="M358 716l-47 59l167 130l58 -76zM78 0v688h119l372 -509v509h109v-688h-113l-378 512v-512h-109z" />
    <glyph glyph-name="nacute" unicode="&#x144;" 
d="M219 509l-52 54l157 143l63 -71zM68 0v461h100v-53q70 59 141 59q69 0 110 -36t41 -97v-334h-100v312q0 65 -65 65q-60 0 -127 -61v-316h-100z" />
    <glyph glyph-name="Ncommaaccent" unicode="&#x145;" horiz-adv-x="756" 
d="M309 -214l29 183h98l-55 -183h-72zM78 0v688h119l372 -509v509h109v-688h-113l-378 512v-512h-109z" />
    <glyph glyph-name="ncommaaccent" unicode="&#x146;" 
d="M196 -214l29 183h98l-55 -183h-72zM68 0v461h100v-53q70 59 141 59q69 0 110 -36t41 -97v-334h-100v312q0 65 -65 65q-60 0 -127 -61v-316h-100z" />
    <glyph glyph-name="Ncaron" unicode="&#x147;" horiz-adv-x="756" 
d="M384 716l-164 124l61 62l103 -85l101 85l63 -62zM78 0v688h119l372 -509v509h109v-688h-113l-378 512v-512h-109z" />
    <glyph glyph-name="ncaron" unicode="&#x148;" 
d="M266 512l-165 123l62 63l103 -85l102 85l61 -63zM68 0v461h100v-53q70 59 141 59q69 0 110 -36t41 -97v-334h-100v312q0 65 -65 65q-60 0 -127 -61v-316h-100z" />
    <glyph glyph-name="napostrophe" unicode="&#x149;" 
d="M-80 520l72 203h96l-85 -203h-83zM68 0v461h100v-53q70 59 141 59q69 0 110 -36t41 -97v-334h-100v312q0 65 -65 65q-60 0 -127 -61v-316h-100z" />
    <glyph glyph-name="Eng" unicode="&#x14a;" horiz-adv-x="756" 
d="M397 -212v95q147 0 168 117h-11l-367 512v-512h-109v688h119l372 -514v514h109l-1 -640q0 -131 -74.5 -195.5t-205.5 -64.5z" />
    <glyph glyph-name="eng" unicode="&#x14b;" 
d="M307 -235l-59 69q64 36 88 83t24 112v283q0 65 -65 65q-60 0 -127 -61v-316h-100v461h100v-53q70 59 141 59q69 0 110 -36t41 -97v-314q0 -82 -37.5 -148.5t-115.5 -106.5z" />
    <glyph glyph-name="Omacron" unicode="&#x14c;" horiz-adv-x="772" 
d="M264 746v85h246v-85h-246zM387 -6q-154 0 -250 97t-96 253q0 149 94.5 249t252.5 100q153 0 248 -101.5t95 -246.5q0 -156 -94.5 -253.5t-249.5 -97.5zM384 90q109 0 173 72.5t64 181.5t-62 181.5t-172 72.5t-173 -72.5t-63 -181.5q0 -103 62.5 -178.5t170.5 -75.5z" />
    <glyph glyph-name="omacron" unicode="&#x14d;" 
d="M136 545v85h246v-85h-246zM261 -5q-107 0 -168 67t-61 167q0 58 22.5 110t76.5 90t130 38q47 0 85.5 -14.5t64 -38t43 -55t25 -64t7.5 -65.5q0 -42 -13.5 -82.5t-39.5 -75.5t-70.5 -56t-101.5 -21zM260 84q52 0 87.5 37t35.5 109q0 74 -37 110.5t-85 36.5
q-47 0 -86 -36.5t-39 -111.5q0 -67 35 -106t89 -39z" />
    <glyph glyph-name="Obreve" unicode="&#x14e;" horiz-adv-x="772" 
d="M387 -6q-154 0 -250 97t-96 253q0 149 94.5 249t252.5 100q153 0 248 -101.5t95 -246.5q0 -156 -94.5 -253.5t-249.5 -97.5zM384 90q109 0 173 72.5t64 181.5t-62 181.5t-172 72.5t-173 -72.5t-63 -181.5q0 -103 62.5 -178.5t170.5 -75.5zM385 719q-65 0 -104 36t-50 73
l66 29l3 -3q2 -4 3.5 -6.5t5 -7t6.5 -8t8 -8t9.5 -8t10.5 -7t12.5 -5.5t14.5 -3.5t16 -1.5q26 0 47 13.5t29 24t12 20.5l64 -28q-8 -22 -22 -43.5t-49.5 -44t-81.5 -22.5z" />
    <glyph glyph-name="obreve" unicode="&#x14f;" 
d="M261 -5q-107 0 -168 67t-61 167q0 58 22.5 110t76.5 90t130 38q47 0 85.5 -14.5t64 -38t43 -55t25 -64t7.5 -65.5q0 -42 -13.5 -82.5t-39.5 -75.5t-70.5 -56t-101.5 -21zM260 84q52 0 87.5 37t35.5 109q0 74 -37 110.5t-85 36.5q-47 0 -86 -36.5t-39 -111.5
q0 -67 35 -106t89 -39zM258 531q-65 0 -104 36t-50 73l66 29l2 -3q3 -4 4.5 -6.5t5 -7t6.5 -8t8 -8t9.5 -8t10.5 -7t12.5 -5.5t14.5 -3.5t16 -1.5q26 0 47 13.5t29 24t12 20.5l64 -28q-8 -22 -22 -43.5t-49.5 -44t-81.5 -22.5z" />
    <glyph glyph-name="Ohungarumlaut" unicode="&#x150;" horiz-adv-x="772" 
d="M274 716l-54 52l153 147l66 -68zM481 716l-47 59l167 130l58 -76zM387 -6q-154 0 -250 97t-96 253q0 149 94.5 249t252.5 100q153 0 248 -101.5t95 -246.5q0 -156 -94.5 -253.5t-249.5 -97.5zM384 90q109 0 173 72.5t64 181.5t-62 181.5t-172 72.5t-173 -72.5t-63 -181.5
q0 -103 62.5 -178.5t170.5 -75.5z" />
    <glyph glyph-name="ohungarumlaut" unicode="&#x151;" 
d="M147 519l-59 47l139 160l72 -61zM338 519l-51 55l157 142l63 -70zM261 -5q-107 0 -168 67t-61 167q0 58 22.5 110t76.5 90t130 38q47 0 85.5 -14.5t64 -38t43 -55t25 -64t7.5 -65.5q0 -42 -13.5 -82.5t-39.5 -75.5t-70.5 -56t-101.5 -21zM260 84q52 0 87.5 37t35.5 109
q0 74 -37 110.5t-85 36.5q-47 0 -86 -36.5t-39 -111.5q0 -67 35 -106t89 -39z" />
    <glyph glyph-name="OE" unicode="&#x152;" horiz-adv-x="896" 
d="M387 -6q-154 0 -250 97t-96 253q0 149 94.5 249t252.5 100q32 0 65 -5h400v-96h-297v-193h275v-94h-275v-209h297v-96h-395q-33 -6 -71 -6zM384 90q33 0 65 8v492q-30 8 -62 8q-110 0 -173 -72.5t-63 -181.5q0 -103 62.5 -178.5t170.5 -75.5z" />
    <glyph glyph-name="oe" unicode="&#x153;" horiz-adv-x="806" 
d="M756 29q-72 -36 -153 -36q-114 0 -175 79q-61 -77 -169 -77q-107 0 -168 67t-61 167q0 58 22.5 110t76.5 90t130 38q113 0 173 -80q59 80 164 80q89 0 136 -59.5t47 -151.5v-54h-295q4 -52 37.5 -86t85.5 -34q56 0 115 24l8 -19q9 -19 18 -39zM258 84q47 0 84.5 35.5
t38.5 110.5q0 74 -37 110.5t-85 36.5q-47 0 -86 -36.5t-39 -111.5q0 -67 35 -106t89 -39zM485 275h194q0 46 -22.5 78t-66.5 32q-47 0 -73 -33t-32 -77z" />
    <glyph glyph-name="Racute" unicode="&#x154;" horiz-adv-x="563" 
d="M213 716l-47 59l167 130l58 -76zM435 -7l-175 285h-74v-278h-108v688h189q43 0 81.5 -8.5t75.5 -28.5t59 -59.5t22 -94.5q0 -140 -138 -199l187 -286zM186 374h57q72 0 111.5 31t39.5 86q0 101 -142 101h-66v-218z" />
    <glyph glyph-name="racute" unicode="&#x155;" horiz-adv-x="353" 
d="M159 509l-52 54l157 143l63 -71zM68 0v461h100v-61q21 22 31.5 32t34.5 23t48 13q32 0 74 -17l-43 -93q-20 13 -56 13q-25 0 -49.5 -21t-39.5 -48v-302h-100z" />
    <glyph glyph-name="Rcommaaccent" unicode="&#x156;" horiz-adv-x="563" 
d="M233 -214l29 183h98l-55 -183h-72zM435 -7l-175 285h-74v-278h-108v688h189q43 0 81.5 -8.5t75.5 -28.5t59 -59.5t22 -94.5q0 -140 -138 -199l187 -286zM186 374h57q72 0 111.5 31t39.5 86q0 101 -142 101h-66v-218z" />
    <glyph glyph-name="rcommaaccent" unicode="&#x157;" horiz-adv-x="353" 
d="M51 -214l29 183h98l-55 -183h-72zM68 0v461h100v-61q21 22 31.5 32t34.5 23t48 13q32 0 74 -17l-43 -93q-20 13 -56 13q-25 0 -49.5 -21t-39.5 -48v-302h-100z" />
    <glyph glyph-name="Rcaron" unicode="&#x158;" horiz-adv-x="563" 
d="M266 716l-164 124l61 62l103 -85l101 85l63 -62zM435 -7l-175 285h-74v-278h-108v688h189q43 0 81.5 -8.5t75.5 -28.5t59 -59.5t22 -94.5q0 -140 -138 -199l187 -286zM186 374h57q72 0 111.5 31t39.5 86q0 101 -142 101h-66v-218z" />
    <glyph glyph-name="rcaron" unicode="&#x159;" horiz-adv-x="353" 
d="M188 512l-165 123l62 63l103 -85l102 85l61 -63zM68 0v461h100v-61q21 22 31.5 32t34.5 23t48 13q32 0 74 -17l-43 -93q-20 13 -56 13q-25 0 -49.5 -21t-39.5 -48v-302h-100z" />
    <glyph glyph-name="Sacute" unicode="&#x15a;" horiz-adv-x="492" 
d="M243 716l-47 59l167 130l58 -76zM240 -6q-62 0 -112 16t-96 60l65 76q64 -56 138 -56q46 0 80 26t34 70q0 27 -9 47.5t-31.5 36.5t-37.5 23.5t-49 22.5q-41 18 -64 30.5t-50 36t-39.5 57t-12.5 79.5q0 76 62 125.5t141 49.5q56 0 98.5 -11t92.5 -42l-51 -82
q-59 39 -136 39q-40 0 -70.5 -20.5t-30.5 -63.5q0 -10 2 -19t5 -16.5t9 -14.5t10.5 -12.5t14 -11.5t15 -9.5t17.5 -9.5t17.5 -8.5t19.5 -8.5t20 -9q40 -18 63.5 -31.5t50.5 -37.5t40 -57.5t13 -78.5q0 -85 -66 -140.5t-153 -55.5z" />
    <glyph glyph-name="sacute" unicode="&#x15b;" horiz-adv-x="379" 
d="M152 509l-52 54l157 143l63 -71zM177 -7q-91 0 -152 45l45 75q47 -32 106 -32q32 0 51.5 12t19.5 35q0 15 -12.5 27.5t-27 20.5t-43.5 21q-6 3 -9 4q-55 24 -83.5 54.5t-28.5 83.5q0 61 47 94.5t105 33.5q91 0 145 -44l-47 -71q-41 30 -97 30q-25 0 -41 -11t-16 -29
q0 -7 1.5 -12.5t5.5 -10.5t7.5 -8.5t11 -8t12 -6.5t14.5 -7t15 -7q3 -2 20 -9.5t22.5 -10t20.5 -10.5t21 -13.5t17.5 -14.5t16.5 -18t11.5 -21t9 -25.5t2.5 -29.5q0 -64 -50 -100.5t-120 -36.5z" />
    <glyph glyph-name="Scircumflex" unicode="&#x15c;" horiz-adv-x="492" 
d="M167 717l-61 63l164 123l164 -123l-63 -63l-101 85zM240 -6q-62 0 -112 16t-96 60l65 76q64 -56 138 -56q46 0 80 26t34 70q0 27 -9 47.5t-31.5 36.5t-37.5 23.5t-49 22.5q-41 18 -64 30.5t-50 36t-39.5 57t-12.5 79.5q0 76 62 125.5t141 49.5q56 0 98.5 -11t92.5 -42
l-51 -82q-59 39 -136 39q-40 0 -70.5 -20.5t-30.5 -63.5q0 -10 2 -19t5 -16.5t9 -14.5t10.5 -12.5t14 -11.5t15 -9.5t17.5 -9.5t17.5 -8.5t19.5 -8.5t20 -9q40 -18 63.5 -31.5t50.5 -37.5t40 -57.5t13 -78.5q0 -85 -66 -140.5t-153 -55.5z" />
    <glyph glyph-name="scircumflex" unicode="&#x15d;" horiz-adv-x="379" 
d="M93 511l-62 63l165 123l163 -123l-61 -63l-102 85zM177 -7q-91 0 -152 45l45 75q47 -32 106 -32q32 0 51.5 12t19.5 35q0 15 -12.5 27.5t-27 20.5t-43.5 21q-6 3 -9 4q-55 24 -83.5 54.5t-28.5 83.5q0 61 47 94.5t105 33.5q91 0 145 -44l-47 -71q-41 30 -97 30
q-25 0 -41 -11t-16 -29q0 -7 1.5 -12.5t5.5 -10.5t7.5 -8.5t11 -8t12 -6.5t14.5 -7t15 -7q3 -2 20 -9.5t22.5 -10t20.5 -10.5t21 -13.5t17.5 -14.5t16.5 -18t11.5 -21t9 -25.5t2.5 -29.5q0 -64 -50 -100.5t-120 -36.5z" />
    <glyph glyph-name="Scedilla" unicode="&#x15e;" horiz-adv-x="492" 
d="M198 -236l-33 56q55 23 55 56q0 32 -37 65l22 54q-104 9 -173 75l65 76q64 -56 138 -56q46 0 80 26t34 70q0 27 -9 47.5t-31.5 36.5t-37.5 23.5t-49 22.5q-41 18 -64 30.5t-50 36t-39.5 57t-12.5 79.5q0 76 62 125.5t141 49.5q56 0 98.5 -11t92.5 -42l-51 -82
q-41 24 -70 31.5t-72 7.5q-33 0 -64 -23t-31 -61q0 -10 2 -19t5 -16.5t9 -14.5t10.5 -12.5t14 -11.5t15 -9.5t17.5 -9.5t17.5 -8.5t19.5 -8.5t20 -9q40 -18 63.5 -31.5t50.5 -37.5t40 -57.5t13 -78.5q0 -73 -48.5 -124.5t-121.5 -66.5l-18 -42q37 -35 37 -83q0 -36 -32 -68
t-78 -42z" />
    <glyph glyph-name="scedilla" unicode="&#x15f;" horiz-adv-x="379" 
d="M132 -236l-34 56q55 23 55 56q0 32 -37 65l22 55q-68 8 -113 42l45 75q47 -32 106 -32q32 0 51.5 12t19.5 35q0 15 -12.5 27.5t-27 20.5t-43.5 21q-6 3 -9 4q-55 24 -83.5 54.5t-28.5 83.5q0 61 47 94.5t105 33.5q91 0 145 -44l-47 -71q-41 30 -97 30q-25 0 -41 -11
t-16 -29q0 -7 1.5 -12.5t5.5 -10.5t7.5 -8.5t11 -8t12 -6.5t14.5 -7t15 -7q3 -2 20 -9.5t22.5 -10t20.5 -10.5t21 -13.5t17.5 -14.5t16.5 -18t11.5 -21t9 -25.5t2.5 -29.5q0 -52 -35.5 -87t-89.5 -45l-17 -41q36 -34 36 -83q0 -36 -31.5 -68t-77.5 -42z" />
    <glyph glyph-name="Scaron" unicode="&#x160;" horiz-adv-x="492" 
d="M240 -6q-62 0 -112 16t-96 60l65 76q64 -56 138 -56q46 0 80 26t34 70q0 27 -9 47.5t-31.5 36.5t-37.5 23.5t-49 22.5q-41 18 -64 30.5t-50 36t-39.5 57t-12.5 79.5q0 76 62 125.5t141 49.5q56 0 98.5 -11t92.5 -42l-51 -82q-41 24 -70 31.5t-72 7.5q-33 0 -64 -23
t-31 -61q0 -10 2 -19t5 -16.5t9 -14.5t10.5 -12.5t14 -11.5t15 -9.5t17.5 -9.5t17.5 -8.5t19.5 -8.5t20 -9q40 -18 63.5 -31.5t50.5 -37.5t40 -57.5t13 -78.5q0 -85 -66 -140.5t-153 -55.5zM261 716l-164 124l61 62l103 -85l101 85l63 -62z" />
    <glyph glyph-name="scaron" unicode="&#x161;" horiz-adv-x="379" 
d="M193 512l-165 123l62 63l103 -85l102 85l61 -63zM177 -7q-91 0 -152 45l45 75q47 -32 106 -32q32 0 51.5 12t19.5 35q0 15 -12.5 27.5t-27 20.5t-43.5 21q-6 3 -9 4q-55 24 -83.5 54.5t-28.5 83.5q0 61 47 94.5t105 33.5q91 0 145 -44l-47 -71q-41 30 -97 30
q-25 0 -41 -11t-16 -29q0 -7 1.5 -12.5t5.5 -10.5t7.5 -8.5t11 -8t12 -6.5t14.5 -7t15 -7q3 -2 20 -9.5t22.5 -10t20.5 -10.5t21 -13.5t17.5 -14.5t16.5 -18t11.5 -21t9 -25.5t2.5 -29.5q0 -64 -50 -100.5t-120 -36.5z" />
    <glyph glyph-name="Tcommaaccent" unicode="&#x162;" horiz-adv-x="510" 
d="M185 -214l29 183h98l-55 -183h-72zM203 0v592h-205v96h514v-96h-200v-592h-109z" />
    <glyph glyph-name="tcommaaccent" unicode="&#x163;" horiz-adv-x="345" 
d="M153 -214l29 183h98l-55 -183h-72zM217 -6q-62 0 -93.5 34.5t-31.5 97.5v248h-76v87h76v100h100v-100h120v-86h-120v-237q0 -54 48 -54q21 0 69 15l26 -80q-53 -25 -118 -25z" />
    <glyph glyph-name="Tcaron" unicode="&#x164;" horiz-adv-x="510" 
d="M258 716l-164 124l61 62l103 -85l101 85l63 -62zM203 0v592h-205v96h514v-96h-200v-592h-109z" />
    <glyph glyph-name="tcaron" unicode="&#x165;" horiz-adv-x="361" 
d="M254 519l29 183h98l-55 -183h-72zM217 -6q-62 0 -93.5 34.5t-31.5 97.5v248h-76v87h76v100h100v-100h120v-86h-120v-237q0 -54 48 -54q21 0 69 15l26 -80q-53 -25 -118 -25z" />
    <glyph glyph-name="Tbar" unicode="&#x166;" horiz-adv-x="510" 
d="M203 0v372h-153v71h153v149h-205v96h514v-96h-200v-149h152v-71h-152v-372h-109z" />
    <glyph glyph-name="tbar" unicode="&#x167;" horiz-adv-x="345" 
d="M217 -6q-62 0 -93.5 34.5t-31.5 97.5v120h-76v72h76v56h-76v87h76v100h100v-100h120v-86h-120v-57h77v-72h-77v-108q0 -54 48 -54q21 0 69 15l26 -80q-53 -25 -118 -25z" />
    <glyph glyph-name="Utilde" unicode="&#x168;" horiz-adv-x="687" 
d="M345 -6q-118 0 -197 61t-79 172v461h109v-452q0 -69 48.5 -107.5t121.5 -38.5q75 0 118 37.5t43 115.5v445h109v-460q0 -111 -79 -172.5t-194 -61.5zM508 799q-23 -36 -46 -56t-57 -20q-23 0 -60.5 18t-53.5 18q-32 0 -56 -34l-48 47q39 70 102 70q22 0 60 -18t52 -18
q19 0 30 8t23 26z" />
    <glyph glyph-name="utilde" unicode="&#x169;" horiz-adv-x="519" 
d="M212 -6q-70 0 -110.5 35.5t-40.5 96.5v335h100v-312q0 -65 65 -65q53 0 125 63v314h100v-461h-100v53q-68 -59 -139 -59zM417 614q-41 -76 -105 -76q-23 0 -59.5 18t-52.5 18q-33 0 -56 -34l-48 47q17 32 44 51.5t58 19.5q23 0 59.5 -18.5t52.5 -18.5q30 0 52 34z" />
    <glyph glyph-name="Umacron" unicode="&#x16a;" horiz-adv-x="687" 
d="M345 -6q-118 0 -197 61t-79 172v461h109v-452q0 -69 48.5 -107.5t121.5 -38.5q75 0 118 37.5t43 115.5v445h109v-460q0 -111 -79 -172.5t-194 -61.5zM221 746v85h246v-85h-246z" />
    <glyph glyph-name="umacron" unicode="&#x16b;" horiz-adv-x="519" 
d="M212 -6q-70 0 -110.5 35.5t-40.5 96.5v335h100v-312q0 -65 65 -65q53 0 125 63v314h100v-461h-100v53q-68 -59 -139 -59zM133 545v85h246v-85h-246z" />
    <glyph glyph-name="Ubreve" unicode="&#x16c;" horiz-adv-x="687" 
d="M345 -6q-118 0 -197 61t-79 172v461h109v-452q0 -69 48.5 -107.5t121.5 -38.5q75 0 118 37.5t43 115.5v445h109v-460q0 -111 -79 -172.5t-194 -61.5zM345 719q-65 0 -104 36t-50 73l66 29l3 -3q2 -4 3.5 -6.5t5 -7t6.5 -8t8 -8t9.5 -8t10.5 -7t12.5 -5.5t14.5 -3.5
t16 -1.5q26 0 47 13.5t29 24t12 20.5l64 -28q-8 -22 -22 -43.5t-49.5 -44t-81.5 -22.5z" />
    <glyph glyph-name="ubreve" unicode="&#x16d;" horiz-adv-x="519" 
d="M212 -6q-70 0 -110.5 35.5t-40.5 96.5v335h100v-312q0 -65 65 -65q53 0 125 63v314h100v-461h-100v53q-68 -59 -139 -59zM257 531q-65 0 -104 36t-50 73l66 29l3 -3q2 -4 3.5 -6.5t5 -7t6.5 -8t8 -8t9.5 -8t10.5 -7t12.5 -5.5t14.5 -3.5t16 -1.5q26 0 47 13.5t29 24
t12 20.5l64 -28q-8 -22 -22 -43.5t-49.5 -44t-81.5 -22.5z" />
    <glyph glyph-name="Uring" unicode="&#x16e;" horiz-adv-x="687" 
d="M345 681q-48 0 -81 29.5t-33 75.5t33 74.5t81 28.5t80 -28.5t32 -74.5t-32.5 -75.5t-79.5 -29.5zM345 737q18 0 31 13.5t13 35.5q0 21 -13.5 34t-30.5 13q-18 0 -31 -13t-13 -34q0 -22 13 -35.5t31 -13.5zM345 -6q-118 0 -197 61t-79 172v461h109v-452q0 -69 48.5 -107.5
t121.5 -38.5q75 0 118 37.5t43 115.5v445h109v-460q0 -111 -79 -172.5t-194 -61.5z" />
    <glyph glyph-name="uring" unicode="&#x16f;" horiz-adv-x="519" 
d="M259 515q-48 0 -81 29.5t-33 75.5t33 74.5t81 28.5t80 -28.5t32 -74.5t-32.5 -75.5t-79.5 -29.5zM259 571q18 0 31 13.5t13 35.5q0 21 -13.5 34t-30.5 13q-18 0 -31 -13t-13 -34q0 -22 13 -35.5t31 -13.5zM212 -6q-70 0 -110.5 35.5t-40.5 96.5v335h100v-312
q0 -65 65 -65q53 0 125 63v314h100v-461h-100v53q-68 -59 -139 -59z" />
    <glyph glyph-name="Uhungarumlaut" unicode="&#x170;" horiz-adv-x="687" 
d="M345 -6q-118 0 -197 61t-79 172v461h109v-452q0 -69 48.5 -107.5t121.5 -38.5q75 0 118 37.5t43 115.5v445h109v-460q0 -111 -79 -172.5t-194 -61.5zM233 716l-54 52l153 147l66 -68zM440 716l-47 59l167 130l58 -76z" />
    <glyph glyph-name="uhungarumlaut" unicode="&#x171;" horiz-adv-x="519" 
d="M212 -6q-70 0 -110.5 35.5t-40.5 96.5v335h100v-312q0 -65 65 -65q53 0 125 63v314h100v-461h-100v53q-68 -59 -139 -59zM154 519l-59 47l139 160l72 -61zM345 519l-51 55l157 142l63 -70z" />
    <glyph glyph-name="Uogonek" unicode="&#x172;" horiz-adv-x="687" 
d="M369 -196q-47 0 -76 26t-29 72t50 93q-107 8 -176 68.5t-69 163.5v461h109v-452q0 -69 48.5 -107.5t121.5 -38.5q75 0 118 37.5t43 115.5v445h109v-460q0 -92 -56.5 -151t-144.5 -77q-61 -44 -61 -89q0 -16 10 -25.5t27 -9.5q23 0 40 7l12 -65q-31 -14 -76 -14z" />
    <glyph glyph-name="uogonek" unicode="&#x173;" horiz-adv-x="519" 
d="M403 -196q-46 0 -75 26t-29 72q0 48 52 98v53q-68 -59 -139 -59q-70 0 -110.5 35.5t-40.5 96.5v335h100v-312q0 -65 65 -65q53 0 125 63v314h100v-461q-61 -47 -61 -89q0 -16 10 -25.5t27 -9.5q25 0 40 7l13 -65q-33 -14 -77 -14z" />
    <glyph glyph-name="Wcircumflex" unicode="&#x174;" horiz-adv-x="924" 
d="M362 717l-61 63l164 123l164 -123l-63 -63l-101 85zM198 0l-191 680l116 15l139 -557l145 550h118l141 -552l145 558l106 -12l-197 -682h-115l-141 543l-149 -543h-117z" />
    <glyph glyph-name="wcircumflex" unicode="&#x175;" horiz-adv-x="744" 
d="M268 511l-62 63l165 123l163 -123l-61 -63l-102 85zM163 0l-161 451l100 15l116 -350l108 345h95l108 -345l114 350l99 -13l-165 -453h-102l-104 322l-105 -322h-103z" />
    <glyph glyph-name="Ycircumflex" unicode="&#x176;" horiz-adv-x="581" 
d="M235 0v296l-237 373l114 24l181 -298l182 298l109 -25l-241 -372v-296h-108zM190 717l-61 63l164 123l164 -123l-63 -63l-101 85z" />
    <glyph glyph-name="ycircumflex" unicode="&#x177;" horiz-adv-x="472" 
d="M55 -239q-9 0 -27 1.5t-21 1.5v89q12 -1 37 -1q39 0 68 21.5t42 56.5l30 74l-180 448l106 13l128 -342l132 342l100 -16l-223 -542q-61 -146 -192 -146zM137 511l-62 63l165 123l163 -123l-61 -63l-102 85z" />
    <glyph glyph-name="Ydieresis" unicode="&#x178;" horiz-adv-x="581" 
d="M235 0v296l-237 373l114 24l181 -298l182 298l109 -25l-241 -372v-296h-108zM196 728q-27 0 -45.5 19t-18.5 45t18.5 45t45.5 19t45.5 -19t18.5 -45t-18.5 -45t-45.5 -19zM392 728q-27 0 -45.5 19t-18.5 45t18.5 45t45.5 19t45.5 -19t18.5 -45t-18.5 -45t-45.5 -19z" />
    <glyph glyph-name="Zacute" unicode="&#x179;" horiz-adv-x="571" 
d="M260 716l-47 59l167 130l58 -76zM60 0l-37 75l372 515h-347v96h455l39 -76l-374 -515h358v-95h-466z" />
    <glyph glyph-name="zacute" unicode="&#x17a;" horiz-adv-x="423" 
d="M169 509l-52 54l157 143l63 -71zM56 0l-34 67l238 304h-221v90h331l26 -72l-232 -299h222v-90h-330z" />
    <glyph glyph-name="Zdotaccent" unicode="&#x17b;" horiz-adv-x="571" 
d="M60 0l-37 75l372 515h-347v96h455l39 -76l-374 -515h358v-95h-466zM289 733q-27 0 -46 19t-19 45t19 45.5t46 19.5t45.5 -19t18.5 -46q0 -26 -18.5 -45t-45.5 -19z" />
    <glyph glyph-name="zdotaccent" unicode="&#x17c;" horiz-adv-x="423" 
d="M56 0l-34 67l238 304h-221v90h331l26 -72l-232 -299h222v-90h-330zM222 550q-26 0 -45 19t-19 45t19 45t45 19q27 0 46 -19t19 -45t-19 -45t-46 -19z" />
    <glyph glyph-name="Zcaron" unicode="&#x17d;" horiz-adv-x="571" 
d="M60 0l-37 75l372 515h-347v96h455l39 -76l-374 -515h358v-95h-466zM277 716l-164 124l61 62l103 -85l101 85l63 -62z" />
    <glyph glyph-name="zcaron" unicode="&#x17e;" horiz-adv-x="423" 
d="M221 512l-165 123l62 63l103 -85l102 85l61 -63zM56 0l-34 67l238 304h-221v90h331l26 -72l-232 -299h222v-90h-330z" />
    <glyph glyph-name="florin" unicode="&#x192;" horiz-adv-x="431" 
d="M92 -7q-54 0 -104 25l32 78q24 -16 56 -16q64 0 71 60l5 59h-76v80h84l4 40q8 69 48 110t108 41q55 0 97 -20l-31 -79q-26 13 -62 13q-23 0 -41.5 -17.5t-22.5 -53.5l-4 -34h100v-80h-107l-5 -60q-8 -66 -47.5 -106t-104.5 -40z" />
    <glyph glyph-name="uni01D3" unicode="&#x1d3;" horiz-adv-x="687" 
d="M345 716l-164 124l61 62l103 -85l101 85l63 -62zM345 -6q-118 0 -197 61t-79 172v461h109v-452q0 -69 48.5 -107.5t121.5 -38.5q75 0 118 37.5t43 115.5v445h109v-460q0 -111 -79 -172.5t-194 -61.5z" />
    <glyph glyph-name="uni01D4" unicode="&#x1d4;" horiz-adv-x="519" 
d="M255 512l-165 123l62 63l103 -85l102 85l61 -63zM212 -6q-70 0 -110.5 35.5t-40.5 96.5v335h100v-312q0 -65 65 -65q53 0 125 63v314h100v-461h-100v53q-68 -59 -139 -59z" />
    <glyph glyph-name="AEmacron" unicode="&#x1e2;" horiz-adv-x="866" 
d="M97 -6l-106 19l398 675h434v-96h-295v-193h273v-94h-273v-209h295v-96h-403v200h-206zM265 291h155v269zM475 746v85h246v-85h-246z" />
    <glyph glyph-name="aemacron" unicode="&#x1e3;" horiz-adv-x="711" 
d="M167 -7q-58 0 -96.5 33.5t-38.5 93.5q0 66 49.5 100t135.5 52l70 12v35q0 61 -74 61q-43 0 -121 -42l-41 69q83 60 171 60q93 0 136 -55q57 55 143 55q89 0 136 -59.5t47 -151.5v-54h-295q5 -52 38 -87t85 -35q50 0 116 26l8 -19q8 -19 16 -39l9 -19q-72 -36 -153 -36
q-112 0 -173 75q-81 -75 -168 -75zM183 74q19 0 52 11.5t52 24.5v106l-61 -12q-96 -23 -96 -78q0 -26 15.5 -39t37.5 -13zM390 275h194q0 46 -22 77.5t-67 31.5q-47 0 -73 -33t-32 -76zM239 545v85h246v-85h-246z" />
    <glyph glyph-name="AEacute" unicode="&#x1fc;" horiz-adv-x="866" 
d="M540 716l-47 59l167 130l58 -76zM97 -6l-106 19l398 675h434v-96h-295v-193h273v-94h-273v-209h295v-96h-403v200h-206zM265 291h155v269z" />
    <glyph glyph-name="aeacute" unicode="&#x1fd;" horiz-adv-x="711" 
d="M328 509l-52 54l157 143l63 -71zM167 -7q-58 0 -96.5 33.5t-38.5 93.5q0 66 49.5 100t135.5 52l70 12v35q0 61 -74 61q-43 0 -121 -42l-41 69q83 60 171 60q93 0 136 -55q57 55 143 55q89 0 136 -59.5t47 -151.5v-54h-295q5 -52 38 -87t85 -35q50 0 116 26l8 -19
q8 -19 16 -39l9 -19q-72 -36 -153 -36q-112 0 -173 75q-81 -75 -168 -75zM183 74q19 0 52 11.5t52 24.5v106l-61 -12q-96 -23 -96 -78q0 -26 15.5 -39t37.5 -13zM390 275h194q0 46 -22 77.5t-67 31.5q-47 0 -73 -33t-32 -76z" />
    <glyph glyph-name="Oslashacute" unicode="&#x1fe;" horiz-adv-x="772" 
d="M387 -6q-130 0 -222 72l-70 -71l-54 51l71 73q-71 92 -71 225q0 149 94.5 249t252.5 100q126 0 216 -72l72 72l54 -51l-73 -75q74 -94 74 -222q0 -156 -94.5 -253.5t-249.5 -97.5zM384 90q109 0 173.5 72.5t64.5 181.5q0 86 -39 149l-345 -353q60 -50 146 -50zM191 198
l343 351q-60 49 -147 49q-110 0 -173 -72.5t-63 -181.5q0 -84 40 -146zM344 716l-47 59l167 130l58 -76z" />
    <glyph glyph-name="oslashacute" unicode="&#x1ff;" 
d="M76 -9l-52 47l47 51q-39 60 -39 140q0 58 22.5 110t76.5 90t130 38q81 0 135 -40l43 46l51 -49l-46 -49q42 -62 42 -145q0 -42 -13.5 -82.5t-39.5 -75.5t-70.5 -56t-101.5 -21q-83 0 -142 43zM260 84q52 0 87.5 36t35.5 110q0 38 -15 68l-180 -191q32 -23 72 -23z
M148 167l179 190q-30 20 -66 20q-47 0 -86 -36.5t-39 -111.5q0 -33 12 -62zM218 509l-52 54l157 143l63 -71z" />
    <glyph glyph-name="Scommaaccent" unicode="&#x218;" horiz-adv-x="492" 
d="M166 -214l29 183h98l-55 -183h-72zM240 -6q-62 0 -112 16t-96 60l65 76q64 -56 138 -56q46 0 80 26t34 70q0 27 -9 47.5t-31.5 36.5t-37.5 23.5t-49 22.5q-41 18 -64 30.5t-50 36t-39.5 57t-12.5 79.5q0 76 62 125.5t141 49.5q56 0 98.5 -11t92.5 -42l-51 -82
q-59 39 -136 39q-40 0 -70.5 -20.5t-30.5 -63.5q0 -10 2 -19t5 -16.5t9 -14.5t10.5 -12.5t14 -11.5t15 -9.5t17.5 -9.5t17.5 -8.5t19.5 -8.5t20 -9q40 -18 63.5 -31.5t50.5 -37.5t40 -57.5t13 -78.5q0 -85 -66 -140.5t-153 -55.5z" />
    <glyph glyph-name="scommaaccent" unicode="&#x219;" horiz-adv-x="379" 
d="M112 -214l29 183h98l-55 -183h-72zM177 -7q-91 0 -152 45l45 75q47 -32 106 -32q32 0 51.5 12t19.5 35q0 15 -12.5 27.5t-27 20.5t-43.5 21q-6 3 -9 4q-55 24 -83.5 54.5t-28.5 83.5q0 61 47 94.5t105 33.5q91 0 145 -44l-47 -71q-41 30 -97 30q-25 0 -41 -11t-16 -29
q0 -7 1.5 -12.5t5.5 -10.5t7.5 -8.5t11 -8t12 -6.5t14.5 -7t15 -7q3 -2 20 -9.5t22.5 -10t20.5 -10.5t21 -13.5t17.5 -14.5t16.5 -18t11.5 -21t9 -25.5t2.5 -29.5q0 -64 -50 -100.5t-120 -36.5z" />
    <glyph glyph-name="uni021A" unicode="&#x21a;" horiz-adv-x="510" 
d="M187 -214l29 183h98l-55 -183h-72zM203 0v592h-205v96h514v-96h-200v-592h-109z" />
    <glyph glyph-name="uni021B" unicode="&#x21b;" horiz-adv-x="345" 
d="M150 -214l29 183h98l-55 -183h-72zM217 -6q-62 0 -93.5 34.5t-31.5 97.5v248h-76v87h76v100h100v-100h120v-86h-120v-237q0 -54 48 -54q21 0 69 15l26 -80q-53 -25 -118 -25z" />
    <glyph glyph-name="Ymacron" unicode="&#x232;" horiz-adv-x="581" 
d="M235 0v296l-237 373l114 24l181 -298l182 298l109 -25l-241 -372v-296h-108zM170 746v85h246v-85h-246z" />
    <glyph glyph-name="ymacron" unicode="&#x233;" horiz-adv-x="472" 
d="M55 -239q-9 0 -27 1.5t-21 1.5v89q12 -1 37 -1q39 0 68 21.5t42 56.5l30 74l-180 448l106 13l128 -342l132 342l100 -16l-223 -542q-61 -146 -192 -146zM115 545v85h246v-85h-246z" />
    <glyph glyph-name="dotlessj" unicode="&#x237;" horiz-adv-x="247" 
d="M21 -235l-59 69q64 36 88 83t24 112v432h100v-441q0 -82 -37.5 -148.5t-115.5 -106.5z" />
    <glyph glyph-name="circumflex" unicode="&#x2c6;" horiz-adv-x="372" 
d="M87 511l-62 63l165 123l163 -123l-61 -63l-102 85z" />
    <glyph glyph-name="caron" unicode="&#x2c7;" horiz-adv-x="374" 
d="M190 512l-165 123l62 63l103 -85l102 85l61 -63z" />
    <glyph glyph-name="breve" unicode="&#x2d8;" horiz-adv-x="371" 
d="M186 531q-65 0 -104 36t-50 73l66 29l2 -3q3 -4 4.5 -6.5t5 -7t6.5 -8t8 -8t9.5 -8t10.5 -7t12.5 -5.5t14.5 -3.5t16 -1.5q26 0 47 13.5t29 24t12 20.5l64 -28q-8 -22 -22 -43.5t-49.5 -44t-81.5 -22.5z" />
    <glyph glyph-name="dotaccent" unicode="&#x2d9;" horiz-adv-x="281" 
d="M140 550q-26 0 -45 19t-19 45t19 45t45 19q27 0 46 -19t19 -45t-19 -45t-46 -19z" />
    <glyph glyph-name="ring" unicode="&#x2da;" horiz-adv-x="301" 
d="M151 515q-48 0 -81 29.5t-33 75.5t33 74.5t81 28.5t80 -28.5t32 -74.5t-32.5 -75.5t-79.5 -29.5zM151 571q18 0 31 13.5t13 35.5q0 21 -13.5 34t-30.5 13q-18 0 -31 -13t-13 -34q0 -22 13 -35.5t31 -13.5z" />
    <glyph glyph-name="ogonek" unicode="&#x2db;" horiz-adv-x="229" 
d="M128 -196q-46 0 -75 26t-29 72q0 45 42 86t95 69l44 -38q-89 -54 -89 -108q0 -16 10 -25.5t27 -9.5q23 0 40 7l12 -65q-32 -14 -77 -14z" />
    <glyph glyph-name="tilde" unicode="&#x2dc;" horiz-adv-x="393" 
d="M354 614q-41 -76 -105 -76q-23 0 -59.5 18t-52.5 18q-33 0 -56 -34l-48 47q17 32 44 51.5t58 19.5q23 0 59.5 -18.5t52.5 -18.5q30 0 52 34z" />
    <glyph glyph-name="hungarumlaut" unicode="&#x2dd;" horiz-adv-x="513" 
d="M105 519l-59 47l139 160l72 -61zM296 519l-51 55l157 142l63 -70z" />
    <glyph glyph-name="Omega" unicode="&#x3a9;" horiz-adv-x="796" 
d="M54 0v92h103q-100 96 -100 252q0 149 94 249t252 100q156 0 249.5 -100.5t93.5 -248.5q0 -151 -97 -252h100v-92h-275v99q60 18 111.5 81.5t51.5 163.5q0 109 -62 181.5t-173 72.5q-109 0 -172 -72.5t-63 -181.5q0 -97 48.5 -161t105.5 -84v-99h-267z" />
    <glyph glyph-name="Omega" unicode="&#x2126;" horiz-adv-x="796" 
d="M54 0v92h103q-100 96 -100 252q0 149 94 249t252 100q156 0 249.5 -100.5t93.5 -248.5q0 -151 -97 -252h100v-92h-275v99q60 18 111.5 81.5t51.5 163.5q0 109 -62 181.5t-173 72.5q-109 0 -172 -72.5t-63 -181.5q0 -97 48.5 -161t105.5 -84v-99h-267z" />
    <glyph glyph-name="pi" unicode="&#x3c0;" horiz-adv-x="630" 
d="M502 -6q-57 0 -93 31t-36 102v250h-158v-377h-96v377h-73v83h502v-83h-79v-250q0 -20 10.5 -32t27.5 -12q30 0 58 14l24 -81q-35 -22 -87 -22z" />
    <glyph glyph-name="uni1E46" unicode="&#x1e46;" horiz-adv-x="756" 
d="M390 -204q-26 0 -45 19t-19 45t19 45t45 19q27 0 46 -19t19 -45t-19 -45t-46 -19zM78 0v688h119l372 -509v509h109v-688h-113l-378 512v-512h-109z" />
    <glyph glyph-name="uni1E47" unicode="&#x1e47;" 
d="M267 -206q-26 0 -45 19t-19 45t19 45t45 19q27 0 46 -19t19 -45t-19 -45t-46 -19zM68 0v461h100v-53q70 59 141 59q69 0 110 -36t41 -97v-334h-100v312q0 65 -65 65q-60 0 -127 -61v-316h-100z" />
    <glyph glyph-name="uni1E62" unicode="&#x1e62;" horiz-adv-x="492" 
d="M240 -6q-62 0 -112 16t-96 60l65 76q64 -56 138 -56q46 0 80 26t34 70q0 27 -9 47.5t-31.5 36.5t-37.5 23.5t-49 22.5q-41 18 -64 30.5t-50 36t-39.5 57t-12.5 79.5q0 76 62 125.5t141 49.5q56 0 98.5 -11t92.5 -42l-51 -82q-59 39 -136 39q-40 0 -70.5 -20.5
t-30.5 -63.5q0 -10 2 -19t5 -16.5t9 -14.5t10.5 -12.5t14 -11.5t15 -9.5t17.5 -9.5t17.5 -8.5t19.5 -8.5t20 -9q40 -18 63.5 -31.5t50.5 -37.5t40 -57.5t13 -78.5q0 -85 -66 -140.5t-153 -55.5zM247 -206q-26 0 -45 19t-19 45t19 45t45 19q27 0 46 -19t19 -45t-19 -45
t-46 -19z" />
    <glyph glyph-name="uni1E63" unicode="&#x1e63;" horiz-adv-x="379" 
d="M177 -7q-91 0 -152 45l45 75q47 -32 106 -32q32 0 51.5 12t19.5 35q0 15 -12.5 27.5t-27 20.5t-43.5 21q-6 3 -9 4q-55 24 -83.5 54.5t-28.5 83.5q0 61 47 94.5t105 33.5q91 0 145 -44l-47 -71q-41 30 -97 30q-25 0 -41 -11t-16 -29q0 -7 1.5 -12.5t5.5 -10.5t7.5 -8.5
t11 -8t12 -6.5t14.5 -7t15 -7q3 -2 20 -9.5t22.5 -10t20.5 -10.5t21 -13.5t17.5 -14.5t16.5 -18t11.5 -21t9 -25.5t2.5 -29.5q0 -64 -50 -100.5t-120 -36.5zM178 -206q-26 0 -45 19t-19 45t19 45t45 19q27 0 46 -19t19 -45t-19 -45t-46 -19z" />
    <glyph glyph-name="Wgrave" unicode="&#x1e80;" horiz-adv-x="924" 
d="M198 0l-191 680l116 15l139 -557l145 550h118l141 -552l145 558l106 -12l-197 -682h-115l-141 543l-149 -543h-117zM527 717l-178 113l57 76l167 -130z" />
    <glyph glyph-name="wgrave" unicode="&#x1e81;" horiz-adv-x="744" 
d="M163 0l-161 451l100 15l116 -350l108 345h95l108 -345l114 350l99 -13l-165 -453h-102l-104 322l-105 -322h-103zM423 509l-169 126l63 71l157 -143z" />
    <glyph glyph-name="Wacute" unicode="&#x1e82;" horiz-adv-x="924" 
d="M412 716l-47 59l167 130l58 -76zM198 0l-191 680l116 15l139 -557l145 550h118l141 -552l145 558l106 -12l-197 -682h-115l-141 543l-149 -543h-117z" />
    <glyph glyph-name="wacute" unicode="&#x1e83;" horiz-adv-x="744" 
d="M331 509l-52 54l157 143l63 -71zM163 0l-161 451l100 15l116 -350l108 345h95l108 -345l114 350l99 -13l-165 -453h-102l-104 322l-105 -322h-103z" />
    <glyph glyph-name="Wdieresis" unicode="&#x1e84;" horiz-adv-x="924" 
d="M366 728q-27 0 -45.5 19t-18.5 45t18.5 45t45.5 19t45.5 -19t18.5 -45t-18.5 -45t-45.5 -19zM562 728q-27 0 -45.5 19t-18.5 45t18.5 45t45.5 19t45.5 -19t18.5 -45t-18.5 -45t-45.5 -19zM198 0l-191 680l116 15l139 -557l145 550h118l141 -552l145 558l106 -12
l-197 -682h-115l-141 543l-149 -543h-117z" />
    <glyph glyph-name="wdieresis" unicode="&#x1e85;" horiz-adv-x="744" 
d="M272 543q-27 0 -45.5 19t-18.5 45t18.5 45t45.5 19t45.5 -19t18.5 -45t-18.5 -45t-45.5 -19zM468 543q-27 0 -45.5 19t-18.5 45t18.5 45t45.5 19t45.5 -19t18.5 -45t-18.5 -45t-45.5 -19zM163 0l-161 451l100 15l116 -350l108 345h95l108 -345l114 350l99 -13l-165 -453
h-102l-104 322l-105 -322h-103z" />
    <glyph glyph-name="uni1EBC" unicode="&#x1ebc;" horiz-adv-x="524" 
d="M78 0v688h404v-96h-296v-193h274v-94h-274v-209h296v-96h-404zM435 799q-22 -36 -45.5 -56t-57.5 -20q-23 0 -60.5 18t-53.5 18q-32 0 -56 -34l-48 47q39 70 102 70q22 0 60 -18t52 -18q19 0 30 8t23 26z" />
    <glyph glyph-name="uni1EBD" unicode="&#x1ebd;" horiz-adv-x="459" 
d="M257 -7q-106 0 -164 63.5t-58 169.5q0 104 57.5 172.5t157.5 68.5q89 0 135.5 -59.5t46.5 -151.5v-54h-294q4 -52 37.5 -86t85.5 -34q56 0 115 24l8 -19q9 -19 18 -39l8 -19q-72 -36 -153 -36zM139 275h194q0 46 -22.5 78t-66.5 32q-46 0 -72.5 -33.5t-32.5 -76.5z
M406 614q-41 -76 -105 -76q-23 0 -59.5 18t-52.5 18q-33 0 -56 -34l-48 47q17 32 44 51.5t58 19.5q23 0 59.5 -18.5t52.5 -18.5q30 0 52 34z" />
    <glyph glyph-name="Ygrave" unicode="&#x1ef2;" horiz-adv-x="581" 
d="M235 0v296l-237 373l114 24l181 -298l182 298l109 -25l-241 -372v-296h-108zM333 717l-178 113l57 76l167 -130z" />
    <glyph glyph-name="ygrave" unicode="&#x1ef3;" horiz-adv-x="472" 
d="M55 -239q-9 0 -27 1.5t-21 1.5v89q12 -1 37 -1q39 0 68 21.5t42 56.5l30 74l-180 448l106 13l128 -342l132 342l100 -16l-223 -542q-61 -146 -192 -146zM272 509l-169 126l63 71l157 -143z" />
    <glyph glyph-name="uni2012" unicode="&#x2012;" horiz-adv-x="486" 
d="M-16 302v83h518v-83h-518z" />
    <glyph glyph-name="endash" unicode="&#x2013;" horiz-adv-x="500" 
d="M30 188v83h440v-83h-440z" />
    <glyph glyph-name="emdash" unicode="&#x2014;" horiz-adv-x="762" 
d="M30 188v83h702v-83h-702z" />
    <glyph glyph-name="quoteleft" unicode="&#x2018;" horiz-adv-x="232" 
d="M36 520l84 203h84l-72 -203h-96z" />
    <glyph glyph-name="quoteright" unicode="&#x2019;" horiz-adv-x="232" 
d="M34 520l72 203h96l-85 -203h-83z" />
    <glyph glyph-name="quotesinglbase" unicode="&#x201a;" horiz-adv-x="224" 
d="M24 -115l72 203h96l-84 -203h-84z" />
    <glyph glyph-name="quotedblleft" unicode="&#x201c;" horiz-adv-x="380" 
d="M36 520l84 203h84l-72 -203h-96zM182 520l84 203h84l-72 -203h-96z" />
    <glyph glyph-name="quotedblright" unicode="&#x201d;" horiz-adv-x="380" 
d="M36 521l72 203h96l-84 -203h-84zM182 521l72 203h96l-84 -203h-84z" />
    <glyph glyph-name="quotedblbase" unicode="&#x201e;" horiz-adv-x="387" 
d="M30 -115l72 203h96l-84 -203h-84zM176 -115l72 203h96l-84 -203h-84z" />
    <glyph glyph-name="dagger" unicode="&#x2020;" 
d="M205 -114v497h-186v86h185v221h103v-220h192v-87h-192v-497h-102z" />
    <glyph glyph-name="daggerdbl" unicode="&#x2021;" 
d="M205 -114v281h-186v87h186v129h-186v86h185v221h103v-220h192v-87h-192v-129h192v-87h-192v-281h-102z" />
    <glyph glyph-name="bullet" unicode="&#x2022;" horiz-adv-x="486" 
d="M243 149q-61 0 -104 43t-43 103q0 61 43 104t104 43t104 -43t43 -104q0 -60 -43 -103t-104 -43z" />
    <glyph glyph-name="ellipsis" unicode="&#x2026;" horiz-adv-x="750" 
d="M134 -6q-28 0 -48 20t-20 48t19.5 47t48.5 19q28 0 47 -19t19 -47t-19 -48t-47 -20zM375 -6q-28 0 -47.5 20t-19.5 48t19.5 47t47.5 19t47.5 -19t19.5 -47t-19.5 -48t-47.5 -20zM617 -6q-28 0 -47.5 20t-19.5 48t19.5 47t47.5 19t47.5 -19t19.5 -47t-19.5 -48t-47.5 -20z
" />
    <glyph glyph-name="perthousand" unicode="&#x2030;" horiz-adv-x="1172" 
d="M193 340q-71 0 -117 48t-46 129q0 80 48 128t122 48q72 0 117 -47t45 -129q0 -81 -48.5 -129t-120.5 -48zM195 423q29 0 49 24.5t20 70.5q0 47 -20 70.5t-47 23.5q-28 0 -48 -24t-20 -70t19 -70.5t47 -24.5zM607 -7q-72 0 -117.5 48t-45.5 130q0 80 48 128t122 48
q72 0 117.5 -47.5t45.5 -129.5q0 -81 -49 -129t-121 -48zM609 77q29 0 49 24t20 70q0 47 -19.5 70.5t-47.5 23.5t-48 -24t-20 -70q0 -45 19 -69.5t47 -24.5zM971 -7q-71 0 -116.5 48t-45.5 130q0 80 48 128t122 48q72 0 117.5 -47.5t45.5 -129.5q0 -81 -49.5 -129
t-121.5 -48zM975 77q28 0 48 24t20 70q0 47 -20 70.5t-47 23.5q-28 0 -48 -24t-20 -70q0 -45 19 -69.5t48 -24.5zM276 -37l-86 40l335 725l87 -41z" />
    <glyph glyph-name="guilsinglleft" unicode="&#x2039;" horiz-adv-x="300" 
d="M179 32l-129 182l129 182l72 -46l-99 -136l99 -135z" />
    <glyph glyph-name="guilsinglright" unicode="&#x203a;" horiz-adv-x="300" 
d="M121 32l-71 47l98 135l-98 136l71 46l130 -182z" />
    <glyph glyph-name="fraction" unicode="&#x2044;" horiz-adv-x="172" 
d="M-45 -35l-77 33l355 724l77 -33z" />
    <glyph glyph-name="zerosuperior" unicode="&#x2070;" horiz-adv-x="339" 
d="M170 332q-65 0 -99.5 51.5t-34.5 129.5q0 84 35.5 133t98.5 49q61 0 96 -48.5t35 -133.5q0 -84 -35.5 -132.5t-95.5 -48.5zM169 403q25 0 38.5 30t13.5 80q0 110 -51 110q-53 0 -53 -110q0 -42 12 -76t40 -34z" />
    <glyph glyph-name="foursuperior" unicode="&#x2074;" horiz-adv-x="297" 
d="M149 335v87h-119l-24 50l128 218h93v-196h39v-72h-39v-87h-78zM85 494h64v116z" />
    <glyph glyph-name="fivesuperior" unicode="&#x2075;" horiz-adv-x="325" 
d="M145 331q-54 0 -105 35l35 62q40 -25 71 -25q24 0 38.5 12.5t14.5 35.5q0 24 -17 35.5t-40 11.5q-26 0 -54 -4l-22 29l22 169h179v-72h-120l-7 -54q13 1 16 1q57 0 91.5 -28t34.5 -86q0 -54 -39 -88t-98 -34z" />
    <glyph glyph-name="sixsuperior" unicode="&#x2076;" horiz-adv-x="297" 
d="M147 330q-60 0 -92 34.5t-32 99.5q0 79 50 140t129 94l38 -61q-82 -36 -115 -85q18 7 39 7q42 0 72 -29.5t30 -80.5q0 -53 -33.5 -86t-85.5 -33zM146 398q19 0 30 13.5t11 35.5q0 50 -46 50q-19 0 -37 -6q-3 -9 -3 -31q0 -26 11.5 -44t33.5 -18z" />
    <glyph glyph-name="sevensuperior" unicode="&#x2077;" horiz-adv-x="275" 
d="M128 329l-75 22l128 267h-144v73h202l28 -43z" />
    <glyph glyph-name="eightsuperior" unicode="&#x2078;" horiz-adv-x="317" 
d="M157 331q-50 0 -85 29t-35 77q0 55 53 85q-45 29 -45 74q0 38 29 68t85 30q53 0 82 -27.5t29 -69.5q0 -41 -43 -75q51 -33 51 -83q0 -48 -34 -78t-87 -30zM158 401q18 0 29.5 10t11.5 26q0 37 -44 57q-40 -16 -40 -54q0 -14 13 -26.5t30 -12.5zM163 548q28 16 28 43
q0 17 -10 26t-22 9q-15 0 -25.5 -8.5t-10.5 -23.5q0 -31 40 -46z" />
    <glyph glyph-name="ninesuperior" unicode="&#x2079;" horiz-adv-x="311" 
d="M99 327l-37 61q83 37 115 85q-23 -7 -39 -7q-43 0 -72.5 30.5t-29.5 79.5q0 53 33 86t86 33q60 0 91.5 -34.5t31.5 -99.5q0 -79 -50 -140t-129 -94zM160 530q23 0 38 5q2 9 2 29q0 26 -11.5 43.5t-33.5 17.5q-19 0 -30 -13t-11 -34q0 -22 13 -35t33 -13z" />
    <glyph glyph-name="plussuperior" unicode="&#x207a;" horiz-adv-x="282" 
d="M106 391v84h-83v64h83v83h70v-83h84v-64h-84v-84h-70z" />
    <glyph glyph-name="minussuperior" unicode="&#x207b;" horiz-adv-x="276" 
d="M20 475v64h236v-64h-236z" />
    <glyph glyph-name="equalsuperior" unicode="&#x207c;" horiz-adv-x="294" 
d="M30 429v64h235v-64h-235zM30 520v63h235v-63h-235z" />
    <glyph glyph-name="parenleftsuperior" unicode="&#x207d;" horiz-adv-x="188" 
d="M133 272q-44 39 -72 102t-28 124q0 64 30 127.5t71 96.5l44 -45q-76 -74 -76 -179q0 -42 21 -96t55 -81z" />
    <glyph glyph-name="parenrightsuperior" unicode="&#x207e;" horiz-adv-x="188" 
d="M55 272l-45 49q34 27 55.5 81t21.5 96q0 104 -77 179l44 45q42 -33 72 -96t30 -128q0 -61 -28.5 -124t-72.5 -102z" />
    <glyph glyph-name="zeroinferior" unicode="&#x2080;" horiz-adv-x="339" 
d="M170 -3q-65 0 -99.5 51.5t-34.5 129.5q0 84 35.5 133t98.5 49q61 0 96 -48.5t35 -133.5q0 -84 -35.5 -132.5t-95.5 -48.5zM169 68q25 0 38.5 30t13.5 80q0 110 -51 110q-53 0 -53 -110q0 -42 12 -76t40 -34z" />
    <glyph glyph-name="oneinferior" unicode="&#x2081;" horiz-adv-x="234" 
d="M99 0v260q-10 -6 -29 -19.5t-27 -18.5l-42 57l112 78h64v-357h-78z" />
    <glyph glyph-name="twoinferior" unicode="&#x2082;" horiz-adv-x="333" 
d="M59 0l-21 58q167 129 167 191q0 15 -12.5 27t-35.5 12q-38 0 -66 -31l-47 53q46 50 122 50q54 0 87 -27.5t33 -79.5q-2 -77 -136 -180h133v-73h-224z" />
    <glyph glyph-name="threeinferior" unicode="&#x2083;" horiz-adv-x="310" 
d="M143 -4q-61 0 -109 33l32 61q38 -22 77 -22q20 0 33 11.5t13 31.5q0 46 -55 46h-34v56h34q19 0 33 12t14 30q0 16 -11.5 25.5t-29.5 9.5q-32 0 -64 -17l-28 60q46 27 101 27q49 0 81.5 -25.5t32.5 -70.5q0 -43 -43 -74q52 -22 52 -80q0 -51 -37 -82.5t-92 -31.5z" />
    <glyph glyph-name="fourinferior" unicode="&#x2084;" horiz-adv-x="297" 
d="M149 0v87h-119l-24 50l128 218h93v-196h39v-72h-39v-87h-78zM85 159h64v116z" />
    <glyph glyph-name="fiveinferior" unicode="&#x2085;" horiz-adv-x="325" 
d="M145 -4q-54 0 -105 35l35 62q40 -25 71 -25q24 0 38.5 12.5t14.5 35.5q0 24 -17 35.5t-40 11.5q-26 0 -54 -4l-22 29l22 169h179v-72h-120l-7 -54q13 1 16 1q57 0 91.5 -28t34.5 -86q0 -54 -39 -88t-98 -34z" />
    <glyph glyph-name="sixinferior" unicode="&#x2086;" horiz-adv-x="297" 
d="M147 -5q-60 0 -92 34.5t-32 99.5q0 79 50 140t129 94l38 -61q-82 -36 -115 -85q18 7 39 7q42 0 72 -30t30 -80q0 -53 -33.5 -86t-85.5 -33zM146 63q19 0 30 13.5t11 35.5q0 50 -46 50q-19 0 -37 -6q-3 -9 -3 -31q0 -26 11.5 -44t33.5 -18z" />
    <glyph glyph-name="seveninferior" unicode="&#x2087;" horiz-adv-x="275" 
d="M128 -6l-75 22l128 267h-144v73h202l28 -43z" />
    <glyph glyph-name="eightinferior" unicode="&#x2088;" horiz-adv-x="317" 
d="M157 -4q-50 0 -85 29t-35 77q0 55 53 85q-45 29 -45 74q0 38 29 68t85 30q53 0 82 -27.5t29 -69.5q0 -41 -43 -75q51 -33 51 -83q0 -48 -34 -78t-87 -30zM158 66q18 0 29.5 10t11.5 26q0 37 -44 57q-40 -16 -40 -54q0 -14 13 -26.5t30 -12.5zM163 213q28 16 28 43
q0 17 -10 26t-22 9q-15 0 -25.5 -8.5t-10.5 -23.5q0 -31 40 -46z" />
    <glyph glyph-name="nineinferior" unicode="&#x2089;" horiz-adv-x="311" 
d="M99 -8l-37 61q83 37 115 85q-23 -7 -39 -7q-43 0 -72.5 30.5t-29.5 79.5q0 53 33 86t86 33q60 0 91.5 -34.5t31.5 -99.5q0 -79 -50 -140t-129 -94zM160 195q23 0 38 5q2 9 2 29q0 26 -11.5 43.5t-33.5 17.5q-19 0 -30 -13t-11 -34q0 -22 13 -35t33 -13z" />
    <glyph glyph-name="parenleft.inferior" unicode="&#x208d;" horiz-adv-x="188" 
d="M133 -63q-44 39 -72 102t-28 124q0 64 30 127.5t71 96.5l44 -45q-76 -74 -76 -179q0 -42 21 -96t55 -81z" />
    <glyph glyph-name="parenright.inferior" unicode="&#x208e;" horiz-adv-x="188" 
d="M55 -63l-45 49q34 27 55.5 81t21.5 96q0 104 -77 179l44 45q42 -33 72 -96t30 -128q0 -61 -28.5 -124t-72.5 -102z" />
    <glyph glyph-name="colonsign" unicode="&#x20a1;" horiz-adv-x="613" 
d="M166 8l-77 33l32 65q-80 93 -80 239q0 155 99 252t245 97q16 0 24 -1l35 72l77 -32l-27 -54q29 -9 52 -22l26 54l77 -33l-287 -587q7 -1 22 -1q83 0 137 27l43 -80q-68 -43 -180 -43q-36 0 -67 6l-22 -46l-78 33l17 36q-24 10 -48 26zM151 345q0 -67 26 -124l185 376
q-88 -6 -149.5 -76t-61.5 -176zM233 146q19 -18 46 -32l224 457q-22 13 -52 19z" />
    <glyph glyph-name="cruzeiro" unicode="&#x20a2;" horiz-adv-x="590" 
d="M384 -6q-152 0 -247.5 95t-95.5 256q0 155 99 252t245 97q106 0 171 -43l-47 -83q-48 30 -132 30q-92 0 -159 -71t-67 -182q0 -85 40.5 -149.5t109.5 -90.5v316h100v-61q19 21 30 32t35 23.5t49 12.5q29 0 74 -17l-43 -93q-20 13 -57 13q-25 0 -49.5 -21t-38.5 -48v-172
q72 3 120 27l43 -80q-68 -43 -180 -43z" />
    <glyph glyph-name="franc" unicode="&#x20a3;" horiz-adv-x="595" 
d="M78 0v688h398v-96h-290v-217h125v67h100v-60q53 68 114 68q32 0 74 -18l-43 -92q-21 13 -57 13q-21 0 -47 -22t-41 -48v-283h-100v280h-125v-280h-108z" />
    <glyph glyph-name="lira" unicode="&#x20a4;" horiz-adv-x="513" 
d="M62 0v74q83 47 94 129q2 9 4 27h-99v79h98q-2 22 -8 58h-90v79h79q-3 24 -3 41q0 93 57.5 149.5t146.5 56.5q71 0 130 -32l-36 -83q-48 23 -92 23q-45 0 -72.5 -32t-27.5 -77q0 -30 2 -46h158v-79h-149q6 -56 6 -58h143v-79h-143q-2 -26 -6 -45q-15 -57 -45 -93h278v-92
h-425z" />
    <glyph glyph-name="mill" unicode="&#x20a5;" horiz-adv-x="760" 
d="M230 -138l-78 33l183 374v55q0 27 -15 39.5t-37 12.5q-31 0 -64.5 -17.5t-50.5 -34.5v-324h-100v461h100v-52q64 58 139 58q68 0 101 -49l99 201l77 -33l-62 -128q24 8 50 8q62 0 96 -37.5t34 -94.5v-334h-100v324q0 52 -52 52q-39 0 -83 -29l-31 -64v-283h-101v79z" />
    <glyph glyph-name="naira" unicode="&#x20a6;" horiz-adv-x="756" 
d="M14 376v53h64v259h119l189 -259h183v259h109v-259h63v-53h-63v-61h63v-53h-63v-262h-113l-194 262h-184v-262h-109v262h-64v53h64v61h-64zM187 376v-61h145l-45 61h-100zM425 376l44 -61h100v61h-144zM187 512v-83h61zM508 262l61 -83v83h-61z" />
    <glyph glyph-name="pesetas" unicode="&#x20a7;" horiz-adv-x="1203" 
d="M78 0v688h190q103 0 171 -48t68 -149q0 -106 -71 -166t-181 -60h-69v-265h-108zM186 357h59q70 0 110.5 36t40.5 96q0 103 -138 103h-72v-235zM1000 -7q-91 0 -152 45l45 75q47 -32 106 -32q32 0 51.5 12t19.5 35q0 15 -12.5 27.5t-27 20.5t-43.5 21q-6 3 -9 4
q-55 24 -83.5 54.5t-28.5 83.5q0 61 47 94.5t105 33.5q91 0 145 -44l-47 -71q-41 30 -97 30q-25 0 -41 -11t-16 -29q0 -7 1.5 -12.5t5.5 -10.5t7.5 -8.5t11 -8t12 -6.5t14.5 -7t15 -7q3 -2 20 -9.5t22.5 -10t20.5 -10.5t21 -13.5t17.5 -14.5t16.5 -18t11.5 -21t9 -25.5
t2.5 -29.5q0 -64 -50 -100.5t-120 -36.5zM718 -6q-62 0 -93.5 34.5t-31.5 97.5v248h-76v87h76v100h100v-100h120v-86h-120v-237q0 -54 48 -54q21 0 69 15l26 -80q-53 -25 -118 -25z" />
    <glyph glyph-name="rupee" unicode="&#x20a8;" horiz-adv-x="848" 
d="M646 -8q-47 0 -79.5 7.5t-79.5 34.5t-103 87t-129 157h-69v-278h-108v688h189q43 0 81.5 -8.5t75.5 -28.5t59 -59.5t22 -94.5q0 -140 -138 -199q110 -134 168 -176.5t110 -42.5q32 0 51.5 13t19.5 36q0 12 -6 21.5t-22.5 19.5t-26 15t-37.5 17q-55 24 -83.5 54.5
t-28.5 83.5q0 61 47 94.5t105 33.5q91 0 146 -44l-47 -71q-43 30 -98 30q-24 0 -40.5 -11t-16.5 -29q0 -8 3 -15t6 -11t11.5 -9.5t13 -8t16.5 -8t17 -8.5q3 -1 18.5 -8t20 -9.5t18.5 -9.5t19.5 -11t16.5 -12.5t16 -15t12.5 -16.5t11 -20t6 -23t2.5 -27q0 -64 -50 -101
t-120 -37zM186 374h57q72 0 111.5 31t39.5 86q0 101 -142 101h-66v-218z" />
    <glyph glyph-name="won" unicode="&#x20a9;" horiz-adv-x="928" 
d="M5 389v65h67l-64 223l115 17l62 -240h163l59 235h118l62 -235h164l60 240l106 -17l-63 -223h70v-65h-88l-21 -73h109v-65h-127l-71 -251h-114l-69 251h-156l-66 -251h-117l-73 251h-126v65h107l-21 73h-86zM605 389l19 -73h92l19 73h-130zM202 389l19 -73h92l18 73h-129z
M423 389l-19 -73h122l-20 73h-83zM641 251l31 -115l28 115h-59zM238 251l30 -113l28 113h-58zM464 543l-24 -89h48z" />
    <glyph glyph-name="sheqel" unicode="&#x20aa;" horiz-adv-x="870" 
d="M78 0v688h244q159 0 214 -63.5t55 -225.5v-158h-111v152q0 64 -5 95.5t-26.5 54.5t-59 29.5t-107.5 6.5h-95v-579h-109zM279 0v461h110v-352h94q47 0 77.5 2.5t54 11.5t36 20.5t20 34.5t9.5 49t2 68v393h110v-399q0 -162 -55 -225.5t-214 -63.5h-244z" />
    <glyph glyph-name="dong" unicode="&#x20ab;" horiz-adv-x="549" 
d="M245 108q-92 0 -148.5 61t-56.5 149q0 91 56.5 147.5t142.5 56.5q57 0 126 -45v102h-119v71h119v71h100v-71h60v-71h-60v-464h-100v42q-62 -49 -120 -49zM250 198q60 0 115 55v132q-61 47 -117 47q-107 0 -107 -110q0 -57 30 -90.5t79 -33.5zM38 0v77h487v-77h-487z" />
    <glyph glyph-name="Euro" unicode="&#x20ac;" horiz-adv-x="515" 
d="M292 -6q-120 0 -183 61.5t-63 169.5t72 175.5t181 67.5q52 0 99.5 -18t75.5 -47l-76 -67q-37 35 -102 35q-94 0 -125 -71h175v-52h-188q-1 -5 -1 -23q0 -11 1 -14h188v-52h-177q31 -70 122 -70q33 0 66 11.5t51 30.5l73 -60q-72 -77 -189 -77z" />
    <glyph glyph-name="uni20AD" unicode="&#x20ad;" horiz-adv-x="620" 
d="M-2 332v65h80v291h109v-291h31l261 298l117 -26l-249 -272h204v-65h-198l259 -306l-116 -33l-282 339h-27v-332h-109v332h-80z" />
    <glyph glyph-name="uni20AE" unicode="&#x20ae;" horiz-adv-x="510" 
d="M48 231l-29 48l184 112v201h-205v96h514v-96h-200v-134l94 58l29 -47l-123 -76v-77l162 99l29 -47l-191 -117v-251h-109v185l-87 -53l-29 47l116 70v77z" />
    <glyph glyph-name="uni20B1" unicode="&#x20b1;" horiz-adv-x="557" 
d="M14 500v53h64v135h190q79 0 143.5 -33.5t86.5 -101.5h59v-53h-50v-9q0 -19 -3 -37h53v-53h-67q-26 -65 -88.5 -100.5t-146.5 -35.5h-69v-265h-108v401h-64v53h64v46h-64zM396 489q0 7 -1 11h-209v-46h206q4 22 4 35zM186 357h59q78 0 119 44h-178v-44zM186 592v-39h189
q-34 39 -117 39h-72z" />
    <glyph glyph-name="afii61289" unicode="&#x2113;" horiz-adv-x="440" 
d="M239 -12q-75 0 -108.5 39t-33.5 121v64q-17 -12 -49 -32l-34 55q42 29 83 63v189q0 124 49 183.5t125 59.5q55 0 93 -36t38 -102q0 -150 -205 -315v-88q0 -74 13 -101.5t47 -27.5q42 0 71 37l43 -42q-16 -28 -54 -47.5t-78 -19.5zM197 383q105 112 105 197q0 82 -49 82
q-56 0 -56 -132v-147z" />
    <glyph glyph-name="afii61352" unicode="&#x2116;" horiz-adv-x="945" 
d="M757 189q-64 0 -100.5 40.5t-36.5 103.5q0 61 39.5 102t104.5 41q64 0 100 -40.5t36 -102.5t-39.5 -103t-103.5 -41zM759 262q24 0 41.5 16.5t17.5 55.5q0 38 -17 54t-40 16t-41 -16.5t-18 -54.5t17 -54.5t40 -16.5zM78 0v461h119l240 -315v315h109v-461h-113l-246 315
v-315h-109zM625 95v66h276v-66h-276z" />
    <glyph glyph-name="uni2117" unicode="&#x2117;" horiz-adv-x="778" 
d="M396 -15q-147 0 -252 104t-105 250q0 147 105 250.5t252 103.5t251.5 -103.5t104.5 -250.5q0 -145 -105 -249.5t-251 -104.5zM396 49q119 0 201.5 85t82.5 205t-82.5 205.5t-201.5 85.5t-201.5 -85t-82.5 -206q0 -120 82.5 -205t201.5 -85zM296 144v390h113
q61 0 100.5 -31t39.5 -89q0 -62 -43.5 -99t-108.5 -37h-29v-134h-72zM368 341h29q38 0 58.5 20t20.5 50q0 31 -22.5 46t-53.5 15h-32v-131z" />
    <glyph glyph-name="servicemark" unicode="&#x2120;" horiz-adv-x="876" 
d="M175 275q-78 0 -132 51l47 54q40 -36 82 -36q25 0 43 13.5t18 36.5q0 25 -18 40t-53 31q-25 13 -37.5 20t-30.5 22.5t-26 36t-8 47.5q0 47 39 78.5t87 31.5q68 0 122 -35l-37 -60q-40 25 -86 25q-18 0 -34 -11.5t-16 -31.5q0 -15 11 -27t22 -18.5t35 -17.5
q26 -12 39 -19.5t32 -23t28 -36.5t9 -49q0 -53 -41 -87.5t-95 -34.5zM377 288l27 400h79l123 -270l135 270h74l19 -400l-79 -1l-11 243l-106 -216h-67l-99 215l-15 -242z" />
    <glyph glyph-name="trademark" unicode="&#x2122;" horiz-adv-x="876" 
d="M377 288l27 400h79l123 -270l135 270h74l19 -400l-79 -1l-11 243l-106 -216h-67l-99 215l-15 -242zM152 288v328h-130v72h339v-72h-127v-328h-82z" />
    <glyph glyph-name="estimated" unicode="&#x212e;" horiz-adv-x="519" 
d="M267 -6q-101 0 -166.5 61t-65.5 167q0 107 65.5 177.5t172.5 70.5q94 0 152.5 -54t58.5 -149v-47h-336v-50q0 -48 34 -85.5t91 -37.5q54 0 87.5 18t65.5 60l37 -30q-68 -101 -196 -101zM148 270h223v19q0 60 -28 94t-76 34q-57 0 -88 -33.5t-31 -94.5v-19z" />
    <glyph glyph-name="onethird" unicode="&#x2153;" horiz-adv-x="752" 
d="M584 -4q-61 0 -109 33l32 61q38 -22 77 -22q20 0 33 11.5t13 31.5q0 46 -55 46h-34v56h34q19 0 33 12t14 30q0 16 -11.5 25.5t-29.5 9.5q-32 0 -64 -17l-28 60q46 27 101 27q49 0 81.5 -25.5t32.5 -70.5q0 -43 -43 -74q52 -22 52 -80q0 -51 -37 -82.5t-92 -31.5zM131 335
v260q-10 -6 -29 -19.5t-27 -18.5l-42 57l112 78h64v-357h-78zM225 -35l-77 33l355 724l77 -33z" />
    <glyph glyph-name="twothirds" unicode="&#x2154;" horiz-adv-x="757" 
d="M589 -4q-61 0 -109 33l32 61q38 -22 77 -22q20 0 33 11.5t13 31.5q0 46 -55 46h-34v56h34q19 0 33 12t14 30q0 16 -11.5 25.5t-29.5 9.5q-32 0 -64 -17l-28 60q46 27 101 27q49 0 81.5 -25.5t32.5 -70.5q0 -43 -43 -74q52 -22 52 -80q0 -51 -37 -82.5t-92 -31.5zM39 335
l-21 58q167 129 167 191q0 15 -12.5 27t-35.5 12q-38 0 -66 -31l-47 53q46 50 122 50q54 0 87 -27.5t33 -79.5q-2 -77 -136 -180h133v-73h-224zM236 -35l-77 33l355 724l77 -33z" />
    <glyph glyph-name="uni215B" unicode="&#x215b;" horiz-adv-x="755" 
d="M131 335v260q-10 -6 -29 -19.5t-27 -18.5l-42 57l112 78h64v-357h-78zM225 -35l-77 33l355 724l77 -33zM598 -4q-50 0 -85 29t-35 77q0 55 53 85q-45 29 -45 74q0 38 29 68t85 30q53 0 82 -27.5t29 -69.5q0 -41 -43 -75q51 -33 51 -83q0 -48 -34 -78t-87 -30zM599 66
q18 0 29.5 10t11.5 26q0 37 -44 57q-40 -16 -40 -54q0 -14 13 -26.5t30 -12.5zM604 213q28 16 28 43q0 17 -10 26t-22 9q-15 0 -25.5 -8.5t-10.5 -23.5q0 -31 40 -46z" />
    <glyph glyph-name="arrowleft" unicode="&#x2190;" horiz-adv-x="712" 
d="M259 100l-243 243l243 243l60 -60l-142 -141h519v-84h-518l141 -141z" />
    <glyph glyph-name="arrowup" unicode="&#x2191;" horiz-adv-x="712" 
d="M314 3v519l-141 -141l-60 60l243 243l243 -243l-60 -60l-141 142v-520h-84z" />
    <glyph glyph-name="arrowright" unicode="&#x2192;" horiz-adv-x="712" 
d="M453 100l-60 60l142 142h-519v83h518l-141 141l60 60l243 -243z" />
    <glyph glyph-name="arrowdown" unicode="&#x2193;" horiz-adv-x="712" 
d="M356 4l-243 243l60 60l142 -142v519h84v-518l140 141l60 -60z" />
    <glyph glyph-name="uni2196" unicode="&#x2196;" horiz-adv-x="712" 
d="M552 81l-367 365v-198l-85 -1v344h344v-84h-200l366 -368z" />
    <glyph glyph-name="uni2197" unicode="&#x2197;" horiz-adv-x="712" 
d="M145 73l-59 59l366 366h-199v85h344v-344h-85v201z" />
    <glyph glyph-name="uni2198" unicode="&#x2198;" horiz-adv-x="712" 
d="M253 103v85h200l-366 366l59 60l366 -367v200h85v-344h-344z" />
    <glyph glyph-name="uni2199" unicode="&#x2199;" horiz-adv-x="712" 
d="M445 97l-345 1v344h85v-200l367 366l60 -59l-366 -366h198z" />
    <glyph glyph-name="partialdiff" unicode="&#x2202;" horiz-adv-x="566" 
d="M258 -6q-94 0 -155 57.5t-61 154.5q0 103 64.5 160.5t149.5 57.5q42 0 68.5 -6.5t63.5 -24.5q-25 88 -65 138.5t-120 100.5l59 78q70 -44 119.5 -95t74.5 -102.5t35.5 -96t10.5 -89.5q0 -50 -6.5 -95t-24 -89.5t-44 -76.5t-70 -52t-99.5 -20zM258 86q69 0 102 57t36 143
q-84 45 -133 45q-61 0 -90.5 -36t-29.5 -87q0 -39 13 -66t34.5 -38t37 -14.5t30.5 -3.5z" />
    <glyph glyph-name="Delta" unicode="&#x2206;" horiz-adv-x="655" 
d="M16 0l275 689h82l266 -689h-623zM149 88h355l-176 472z" />
    <glyph glyph-name="product" unicode="&#x220f;" horiz-adv-x="705" 
d="M78 0v688h549v-688h-108v593h-332v-593h-109z" />
    <glyph glyph-name="minus" unicode="&#x2212;" horiz-adv-x="490" 
d="M19 298v90h452v-90h-452z" />
    <glyph glyph-name="radical" unicode="&#x221a;" horiz-adv-x="593" 
d="M270 0l-134 334h-112v87h185l99 -248l182 591l96 -24l-240 -740h-76z" />
    <glyph glyph-name="infinity" unicode="&#x221e;" horiz-adv-x="846" 
d="M220 159q-79 0 -134.5 51.5t-55.5 130.5t55.5 131.5t134.5 52.5q65 0 110.5 -28.5t91.5 -81.5q47 53 93 81.5t111 28.5q78 0 134 -53t56 -131q0 -79 -55.5 -130.5t-135.5 -51.5q-65 0 -109.5 28.5t-92.5 82.5q-48 -54 -93.5 -82.5t-109.5 -28.5zM218 253q13 0 25 2.5
t21 5t20 10t17 11t17.5 14.5t14.5 14.5t15.5 17t14.5 15.5q-20 22 -24.5 27t-23 22t-29.5 22t-30 11t-39 6q-37 0 -60.5 -25t-23.5 -65q0 -41 22.5 -64.5t62.5 -23.5zM627 253q40 0 63 24.5t23 63.5q0 42 -23 66t-62 24q-32 0 -62 -16t-42 -28.5t-42 -45.5q49 -52 72 -67
q34 -21 73 -21z" />
    <glyph glyph-name="approxequal" unicode="&#x2248;" horiz-adv-x="512" 
d="M326 181q-32 0 -79 28t-73 28q-19 0 -37 -7.5t-27.5 -14t-28.5 -22.5l-55 58q25 37 65.5 60.5t85.5 23.5q33 0 80.5 -27.5t71.5 -27.5q50 0 92 45l65 -52q-65 -92 -160 -92zM326 353q-32 0 -79 28t-73 28q-19 0 -37 -7t-27.5 -14.5t-28.5 -23.5l-55 59q25 37 65.5 60.5
t85.5 23.5q33 0 80.5 -27.5t71.5 -27.5q50 0 92 45l65 -52q-65 -92 -160 -92z" />
    <glyph glyph-name="notequal" unicode="&#x2260;" horiz-adv-x="589" 
d="M174 66l-71 43l59 97h-92v90h147l55 92h-202v91h258l82 134l71 -41l-57 -93h95v-91h-150l-55 -92h205v-90h-261z" />
    <glyph glyph-name="lessequal" unicode="&#x2264;" horiz-adv-x="491" 
d="M359 152l-300 250l299 250l64 -74l-217 -175l218 -176zM51 0v89h395v-89h-395z" />
    <glyph glyph-name="greaterequal" unicode="&#x2265;" horiz-adv-x="491" 
d="M135 152l-65 75l219 176l-218 175l64 74l299 -250zM47 0v89h395v-89h-395z" />
    <glyph glyph-name="uni25A0" unicode="&#x25a0;" horiz-adv-x="618" 
d="M80 0v459h458v-459h-458z" />
    <glyph glyph-name="uni25A1" unicode="&#x25a1;" horiz-adv-x="618" 
d="M80 0v459h458v-459h-458zM182 98h256v263h-256v-263z" />
    <glyph glyph-name="lozenge" unicode="&#x25ca;" horiz-adv-x="644" 
d="M283 0l-251 343l250 345h82l249 -345l-251 -343h-79zM324 93l169 252l-172 250l-168 -253z" />
    <glyph glyph-name="apple" unicode="&#xf8ff;" horiz-adv-x="1241" 
d="M390 318v11h10v18h-10v41h11v-40h19v40h11v-41h-10v-9h-10v-10h-10v-10h-11zM350 338v9h-10v30h-10v11h10v10h11v-10h20v-11h-20v-29h20v-10h-21zM590 338v9h-10v30h-10v11h10v10h11v-10h20v-11h-20v-29h20v-10h-21zM700 338v9h-10v31h10v10h21v-10h10v-21h-30v-9h30v-10
h-31zM880 338v9h-10v31h10v10h21v-10h10v-21h-30v-9h30v-10h-31zM110 347v10h-10v11h10v10h11v-10h10v-11h-10v-10h-11zM180 347v10h-10v11h10v10h11v-10h10v-11h-10v-10h-11zM270 347v10h-10v11h10v10h11v-10h10v-11h-10v-10h-11zM520 338v9h-10v31h10v10h21v-10h10v-31
h-10v-9h-21zM630 338v70h11v-20h20v-10h10v-40h-11v39h-19v-39h-11zM960 347v10h-10v11h10v10h11v-10h10v-11h-10v-10h-11zM1050 347v10h-10v11h10v10h11v-10h10v-11h-10v-10h-11zM1120 347v10h-10v11h10v10h11v-10h10v-11h-10v-10h-11zM450 318v70h31v-10h10v-31h-10v-9
h-20v-20h-11zM780 318v20h-20v9h-10v31h10v10h31v-70h-11zM820 338v9h-10v41h11v-40h19v40h11v-50h-31zM240 328v10h10v10h11v-10h-10v-10h-11zM250 377v10h-10v11h11v-10h10v-11h-11zM300 328v10h-10v10h11v-10h10v-10h-11zM290 377v11h10v10h11v-11h-10v-10h-11zM930 328
v10h10v10h11v-10h-10v-10h-11zM940 377v10h-10v11h11v-10h10v-11h-11zM990 328v10h-10v10h11v-10h10v-10h-11zM980 377v11h10v10h11v-11h-10v-10h-11zM160 338v10h11v-10h-11zM160 377v11h11v-11h-11zM200 338v10h11v-10h-11zM200 377v11h11v-11h-11zM461 348h19v29h-19v-29
zM521 348h19v29h-19v-29zM701 368h19v9h-19v-9zM761 348h19v29h-19v-29zM881 368h19v9h-19v-9zM1030 338v10h11v-10h-11zM1030 377v11h11v-11h-11zM1070 338v10h11v-10h-11zM1070 377v11h11v-11h-11z" />
    <glyph glyph-name="fl" unicode="&#xfb02;" horiz-adv-x="572" 
d="M104 0v374h-86v86h86v126q0 61 36 101t105 40q61 0 119 -25l-31 -77q-36 15 -70 15q-23 0 -41 -13.5t-18 -46.5v-119h111v-86h-110v-375h-101zM404 0v721h100v-721h-100z" />
    <glyph glyph-name="uni0045030A" horiz-adv-x="524" 
d="M285 716q-48 0 -81 29.5t-33 75.5t33 74.5t81 28.5t80 -28.5t32 -74.5t-32.5 -75.5t-79.5 -29.5zM285 772q18 0 31 13.5t13 35.5q0 21 -13.5 34t-30.5 13q-18 0 -31 -13t-13 -34q0 -22 13 -35.5t31 -13.5zM78 0v688h404v-96h-296v-193h274v-94h-274v-209h296v-96h-404z
" />
    <glyph glyph-name="uni00460304" horiz-adv-x="500" 
d="M153 746v85h246v-85h-246zM78 0v688h398v-96h-290v-193h268v-95h-268v-304h-108z" />
    <glyph glyph-name="uni004A0301" horiz-adv-x="264" 
d="M95 716l-47 59l167 130l58 -76zM-93 -212v95q172 0 172 168v637h108v-640q0 -131 -74.5 -195.5t-205.5 -64.5z" />
    <glyph glyph-name="uni004E0304" horiz-adv-x="756" 
d="M255 746v85h246v-85h-246zM78 0v688h119l372 -509v509h109v-688h-113l-378 512v-512h-109z" />
    <glyph glyph-name="uni00500304" horiz-adv-x="537" 
d="M78 0v688h190q103 0 171 -48t68 -149q0 -106 -71 -166t-181 -60h-69v-265h-108zM186 357h59q70 0 110.5 36t40.5 96q0 103 -138 103h-72v-235zM143 746v85h246v-85h-246z" />
    <glyph glyph-name="uni00520300" horiz-adv-x="563" 
d="M435 -7l-175 285h-74v-278h-108v688h189q43 0 81.5 -8.5t75.5 -28.5t59 -59.5t22 -94.5q0 -140 -138 -199l187 -286zM186 374h57q72 0 111.5 31t39.5 86q0 101 -142 101h-66v-218zM282 717l-178 113l57 76l167 -130z" />
    <glyph glyph-name="uni00530306" horiz-adv-x="492" 
d="M240 -6q-62 0 -112 16t-96 60l65 76q64 -56 138 -56q46 0 80 26t34 70q0 27 -9 47.5t-31.5 36.5t-37.5 23.5t-49 22.5q-41 18 -64 30.5t-50 36t-39.5 57t-12.5 79.5q0 76 62 125.5t141 49.5q56 0 98.5 -11t92.5 -42l-51 -82q-59 39 -136 39q-40 0 -70.5 -20.5
t-30.5 -63.5q0 -10 2 -19t5 -16.5t9 -14.5t10.5 -12.5t14 -11.5t15 -9.5t17.5 -9.5t17.5 -8.5t19.5 -8.5t20 -9q40 -18 63.5 -31.5t50.5 -37.5t40 -57.5t13 -78.5q0 -85 -66 -140.5t-153 -55.5zM247 717q-65 0 -104 36t-50 73l66 29l3 -3q2 -4 3.5 -6.5t5 -7t6.5 -8t8 -8
t9.5 -8t10.5 -7t12.5 -5.5t14.5 -3.5t16 -1.5q26 0 47 13.5t29 24t12 20.5l64 -28q-8 -22 -22 -43.5t-49.5 -44t-81.5 -22.5z" />
    <glyph glyph-name="uni00560304" horiz-adv-x="662" 
d="M209 746v85h246v-85h-246zM266 0l-261 675l113 18l212 -563l217 565l110 -17l-275 -678h-116z" />
    <glyph glyph-name="uni00580304" horiz-adv-x="620" 
d="M119 -6l-115 21l241 333l-236 325l123 22l181 -261l181 261l111 -25l-230 -319l241 -335l-120 -22l-189 270zM191 746v85h246v-85h-246z" />
    <glyph glyph-name="Iacute_Jacute" horiz-adv-x="523" 
d="M78 0v688h108v-688h-108zM95 716l-47 59l167 130l58 -76zM351 716l-47 59l167 130l58 -76zM165 -212v95q172 0 172 168v637h108v-640q0 -131 -74.5 -195.5t-205.5 -64.5z" />
    <glyph glyph-name="uni0065030A" horiz-adv-x="459" 
d="M237 515q-48 0 -81 29.5t-33 75.5t33 74.5t81 28.5t80 -28.5t32 -74.5t-32.5 -75.5t-79.5 -29.5zM237 571q18 0 31 13.5t13 35.5q0 21 -13.5 34t-30.5 13q-18 0 -31 -13t-13 -34q0 -22 13 -35.5t31 -13.5zM257 -7q-106 0 -164 63.5t-58 169.5q0 104 57.5 172.5
t157.5 68.5q89 0 135.5 -59.5t46.5 -151.5v-54h-294q4 -52 37.5 -86t85.5 -34q56 0 115 24l8 -19q9 -19 18 -39l8 -19q-72 -36 -153 -36zM139 275h194q0 46 -22.5 78t-66.5 32q-46 0 -72.5 -33.5t-32.5 -76.5z" />
    <glyph glyph-name="uni00660304" horiz-adv-x="336" 
d="M104 766v85h246v-85h-246zM104 0v374h-86v86h86v126q0 61 36 101t105 40q61 0 119 -25l-31 -77q-36 15 -70 15q-23 0 -41 -13.5t-18 -46.5v-119h111v-86h-110v-375h-101z" />
    <glyph glyph-name="uni006A0301" horiz-adv-x="247" 
d="M21 -235l-59 69q64 36 88 83t24 112v432h100v-441q0 -82 -37.5 -148.5t-115.5 -106.5zM95 509l-52 54l157 143l63 -71z" />
    <glyph glyph-name="uni006E0304" 
d="M139 545v85h246v-85h-246zM68 0v461h100v-53q70 59 141 59q69 0 110 -36t41 -97v-334h-100v312q0 65 -65 65q-60 0 -127 -61v-316h-100z" />
    <glyph glyph-name="uni007000AF" horiz-adv-x="532" 
d="M68 -239v700h100v-43q79 49 131 49q96 0 148 -67.5t52 -167.5q0 -96 -55 -167t-151 -71q-67 0 -125 45v-278h-100zM286 84q52 0 82.5 43t30.5 104q0 62 -28.5 104t-82.5 42q-58 0 -120 -50v-193q20 -17 33 -25.5t36 -16.5t49 -8zM148 545v85h246v-85h-246z" />
    <glyph glyph-name="uni00720300" horiz-adv-x="353" 
d="M68 0v461h100v-61q21 22 31.5 32t34.5 23t48 13q32 0 74 -17l-43 -93q-20 13 -56 13q-25 0 -49.5 -21t-39.5 -48v-302h-100zM224 509l-169 126l63 71l157 -143z" />
    <glyph glyph-name="uni00730306" horiz-adv-x="379" 
d="M177 -7q-91 0 -152 45l45 75q47 -32 106 -32q32 0 51.5 12t19.5 35q0 15 -12.5 27.5t-27 20.5t-43.5 21q-6 3 -9 4q-55 24 -83.5 54.5t-28.5 83.5q0 61 47 94.5t105 33.5q91 0 145 -44l-47 -71q-41 30 -97 30q-25 0 -41 -11t-16 -29q0 -7 1.5 -12.5t5.5 -10.5t7.5 -8.5
t11 -8t12 -6.5t14.5 -7t15 -7q3 -2 20 -9.5t22.5 -10t20.5 -10.5t21 -13.5t17.5 -14.5t16.5 -18t11.5 -21t9 -25.5t2.5 -29.5q0 -64 -50 -100.5t-120 -36.5zM190 531q-65 0 -104 36t-50 73l66 29l2 -3q3 -4 4.5 -6.5t5 -7t6.5 -8t8 -8t9.5 -8t10.5 -7t12.5 -5.5t14.5 -3.5
t16 -1.5q26 0 47 13.5t29 24t12 20.5l64 -28q-8 -22 -22 -43.5t-49.5 -44t-81.5 -22.5z" />
    <glyph glyph-name="uni00760304" horiz-adv-x="464" 
d="M109 545v85h246v-85h-246zM175 0l-172 452l107 13l122 -354l131 355l101 -16l-182 -450h-107z" />
    <glyph glyph-name="uni00780304" horiz-adv-x="458" 
d="M454 12l-109 -19l-121 170l-116 -169l-108 19l171 222l-156 214l111 17l106 -155l112 156l106 -20l-167 -206zM107 545v85h246v-85h-246z" />
    <glyph glyph-name="iacute_jacute" horiz-adv-x="481" 
d="M255 -235l-59 69q64 36 88 83t24 112v432h101v-441q0 -82 -38 -148.5t-116 -106.5zM73 0v461h100v-461h-100zM98 509l-52 54l157 143l63 -71zM330 509l-52 54l157 143l63 -71z" />
    <glyph glyph-name="questiondown.cap" horiz-adv-x="422" 
d="M317 -5q-52 0 -97.5 12t-83 36.5t-59 66.5t-21.5 97q0 67 46 123.5t111 65.5v99h104v-171q-64 0 -107.5 -29t-43.5 -89q0 -59 43.5 -87.5t107.5 -28.5v-95zM266 562q-27 0 -47 19.5t-20 46.5t20 46.5t47 19.5t46.5 -19.5t19.5 -46.5t-19.5 -46.5t-46.5 -19.5z" />
    <glyph glyph-name="exclamdown.cap" horiz-adv-x="325" 
d="M162 562q-28 0 -47 19t-19 47q0 27 19 46.5t47 19.5t47 -19.5t19 -46.5q0 -28 -19 -47t-47 -19zM112 0v495h101v-495h-101z" />
    <glyph glyph-name="hyphen.cap" horiz-adv-x="298" 
d="M16 294v96h265v-96h-265z" />
    <glyph glyph-name="endash.cap" horiz-adv-x="500" 
d="M30 301v83h440v-83h-440z" />
    <glyph glyph-name="emdash.cap" horiz-adv-x="762" 
d="M30 301v83h702v-83h-702z" />
    <glyph glyph-name="parenleft.cap" horiz-adv-x="376" 
d="M266 -100q-80 71 -131.5 194.5t-51.5 242.5q0 126 55 251t129 184l63 -64q-65 -62 -105.5 -163t-40.5 -208q0 -87 41 -201t105 -165z" />
    <glyph glyph-name="parenright.cap" horiz-adv-x="376" 
d="M110 -100l-65 71q65 51 106 165t41 201q0 107 -40.5 208t-106.5 163l64 64q74 -59 129 -184t55 -251q0 -118 -51.5 -242t-131.5 -195z" />
    <glyph glyph-name="bracketleft.cap" horiz-adv-x="304" 
d="M66 -87v858h222v-91h-121v-677h121v-90h-222z" />
    <glyph glyph-name="bracketright.cap" horiz-adv-x="304" 
d="M16 -87v90h121v677h-121v91h222v-858h-222z" />
    <glyph glyph-name="braceleft.cap" horiz-adv-x="350" 
d="M270 -82q-149 0 -149 141v151q0 54 -16 72t-77 19v87q59 1 76 21.5t17 75.5v154q0 72 36.5 106t112.5 34h49v-95h-46q-32 0 -41.5 -16.5t-9.5 -58.5v-137q0 -47 -11 -78.5t-45 -50.5q34 -15 45 -44t11 -76v-132q0 -26 1.5 -39t13.5 -25.5t36 -12.5h46v-96h-49z" />
    <glyph glyph-name="braceright.cap" horiz-adv-x="350" 
d="M31 -84v96h46q24 0 36 12t13.5 24.5t1.5 38.5v142q0 47 11 76t45 44q-34 19 -45 50.5t-11 78.5v132q0 41 -9.5 57.5t-41.5 16.5h-46v96h49q76 0 112.5 -34t36.5 -106v-149q0 -55 17 -75.5t76 -21.5v-87q-60 -1 -76.5 -19.5t-16.5 -71.5v-160q0 -140 -149 -140h-49z" />
    <glyph glyph-name="guilsinglright.cap" horiz-adv-x="300" 
d="M179 160l-129 182l129 182l72 -46l-99 -136l99 -135z" />
    <glyph glyph-name="guilsinglleft.cap" horiz-adv-x="300" 
d="M121 159l-71 47l98 135l-98 136l71 46l130 -182z" />
    <glyph glyph-name="guillemotleft.cap" horiz-adv-x="487" 
d="M179 160l-129 182l129 182l72 -46l-99 -136l99 -135zM366 160l-130 182l129 182l72 -46l-99 -136l99 -135z" />
    <glyph glyph-name="guillemotright.cap" horiz-adv-x="487" 
d="M121 159l-71 47l98 135l-98 136l71 46l130 -182zM308 159l-72 47l99 135l-99 136l72 46l129 -182z" />
    <glyph glyph-name="Acute" horiz-adv-x="567" 
d="M213 716l-47 59l167 130l58 -76z" />
    <glyph glyph-name="Caron" horiz-adv-x="529" 
d="M265 716l-164 124l61 62l103 -85l101 85l63 -62z" />
    <glyph glyph-name="Circumflex" horiz-adv-x="529" 
d="M162 717l-61 63l164 123l164 -123l-63 -63l-101 85z" />
    <glyph glyph-name="Dotaccent" horiz-adv-x="252" 
d="M128 733q-27 0 -46 19t-19 45t19 45.5t46 19.5t45.5 -19t18.5 -46q0 -26 -18.5 -45t-45.5 -19z" />
    <glyph glyph-name="Hungarumlaut" horiz-adv-x="691" 
d="M180 716l-54 52l153 147l66 -68zM387 716l-47 59l167 130l58 -76z" />
    <glyph glyph-name="Grave" horiz-adv-x="568" 
d="M346 717l-178 113l57 76l167 -130z" />
    <glyph glyph-name="Macron" horiz-adv-x="306" 
d="M30 746v85h246v-85h-246z" />
    <glyph glyph-name="Tilde" horiz-adv-x="623" 
d="M470 799q-23 -36 -46 -56t-57 -20q-23 0 -60.5 18t-53.5 18q-32 0 -56 -34l-48 47q39 70 102 70q22 0 60 -18t52 -18q19 0 30 8t23 26z" />
    <glyph glyph-name="commaaccent" horiz-adv-x="213" 
d="M36 -214l29 183h98l-55 -183h-72z" />
    <glyph glyph-name="zero.tnum_lnum_zero" horiz-adv-x="500" 
d="M254 -6q-109 0 -167 94t-58 256q0 160 60.5 255t164.5 95t161.5 -93t57.5 -258q0 -163 -58.5 -256t-160.5 -93zM250 89q58 0 86 72t28 183q0 97 -24 152l-151 -370q23 -37 61 -37zM160 205l147 364q-23 29 -54 29q-40 0 -66 -35.5t-36.5 -90.5t-10.5 -128q0 -85 20 -139z
" />
    <glyph glyph-name="zero.pnum_lnum" horiz-adv-x="573" 
d="M289 -6q-121 0 -185 98.5t-64 251.5q0 161 66.5 255.5t182.5 94.5q113 0 178.5 -94t65.5 -257q0 -162 -66 -255.5t-178 -93.5zM286 89q66 0 101.5 69.5t35.5 185.5q0 117 -34.5 185.5t-99.5 68.5q-40 0 -68.5 -23.5t-42.5 -63t-20.5 -80.5t-6.5 -87q0 -43 6.5 -84
t20.5 -81.5t42 -65t66 -24.5z" />
    <glyph glyph-name="one.pnum_lnum" horiz-adv-x="388" 
d="M197 0v566l-138 -96l-55 76l204 142h96v-688h-107z" />
    <glyph glyph-name="two.pnum_lnum" horiz-adv-x="502" 
d="M60 0l-30 84q77 58 160 142.5t135 168.5q30 53 30 102q0 42 -29 71.5t-78 29.5q-73 0 -140 -65l-60 68q88 93 206 93q98 0 156 -52t58 -144q0 -67 -50 -150q-26 -44 -75 -98t-76 -78.5t-83 -74.5h279v-97h-403z" />
    <glyph glyph-name="three.pnum_lnum" horiz-adv-x="493" 
d="M210 -7q-105 0 -188 57l44 83q75 -44 144 -44q53 0 88 30.5t35 85.5q0 33 -12.5 55.5t-35.5 33.5t-47 15t-56 4h-41v88h42q52 0 93 28.5t41 80.5q0 38 -27.5 63t-69.5 25q-64 0 -130 -34l-41 82q82 48 174 48q88 0 146 -46t58 -126q0 -112 -95 -158q116 -43 116 -163
q0 -93 -68 -150.5t-170 -57.5z" />
    <glyph glyph-name="four.pnum_lnum" horiz-adv-x="528" 
d="M298 0v179h-255l-37 76l277 433h124v-413h80v-96h-80v-179h-109zM127 275h171v280z" />
    <glyph glyph-name="five.pnum_lnum" horiz-adv-x="495" 
d="M211 -7q-106 0 -185 55l49 87q75 -47 141 -47q61 0 94.5 32t33.5 95q0 117 -127 117q-17 0 -42 -2.5t-47 -5.5t-24 -3l-39 50l41 317h331v-97h-246l-19 -168q60 5 63 5q105 0 165.5 -51.5t60.5 -158.5q0 -101 -69.5 -163t-180.5 -62z" />
    <glyph glyph-name="six.pnum_lnum" horiz-adv-x="521" 
d="M268 -6q-111 0 -169.5 65t-58.5 188q0 154 93 271.5t239 177.5l50 -81q-83 -37 -140.5 -85.5t-95.5 -120.5q50 12 90 12q95 0 153 -53t58 -153q0 -99 -61.5 -160t-157.5 -61zM267 85q53 0 81.5 34t28.5 91q0 50 -31 84.5t-79 34.5q-44 0 -110 -15q-8 -31 -8 -75
q0 -68 29.5 -111t88.5 -43z" />
    <glyph glyph-name="seven.pnum_lnum" horiz-adv-x="464" 
d="M162 -7l-103 31l271 563h-314v98h401l41 -65z" />
    <glyph glyph-name="eight.pnum_lnum" horiz-adv-x="526" 
d="M262 -6q-92 0 -157 52.5t-65 138.5q0 120 123 176q-106 51 -106 148q0 70 53.5 127.5t154.5 57.5q96 0 150.5 -53.5t54.5 -125.5q0 -103 -103 -155q119 -55 119 -170q0 -86 -63.5 -141t-160.5 -55zM263 85q51 0 83 27.5t32 72.5q0 48 -30.5 76t-88.5 54
q-111 -45 -111 -123q0 -41 33.5 -74t81.5 -33zM272 401q88 36 88 105q0 47 -29 70t-67 23q-39 0 -68.5 -22.5t-29.5 -64.5q0 -40 28 -66t78 -45z" />
    <glyph glyph-name="nine.pnum_lnum" horiz-adv-x="522" 
d="M149 -9l-49 81q168 77 235 207q-50 -12 -90 -12q-95 0 -153 53t-58 153q0 99 61 160t158 61q111 0 170 -65.5t59 -187.5q0 -154 -93 -271.5t-240 -178.5zM255 359q48 0 109 14q8 31 8 76q0 67 -29.5 110.5t-88.5 43.5q-52 0 -81 -34t-29 -91q0 -50 31 -84.5t80 -34.5z
" />
    <glyph glyph-name="zero.tnum_lnum" horiz-adv-x="500" 
d="M254 -6q-109 0 -167 94t-58 256q0 160 60.5 255t164.5 95t161.5 -93t57.5 -258q0 -163 -58.5 -256t-160.5 -93zM250 89q58 0 86 72t28 183q0 113 -27.5 183.5t-83.5 70.5q-40 0 -66 -35.5t-36.5 -90.5t-10.5 -128q0 -112 26 -183.5t84 -71.5z" />
    <glyph glyph-name="one.tnum_lnum" horiz-adv-x="500" 
d="M255 0v566l-170 -99l-52 79l233 142h97v-688h-108z" />
    <glyph glyph-name="two.tnum_lnum" horiz-adv-x="500" 
d="M52 0l-31 84q71 63 118 108t101 103.5t81 109t27 92.5q0 43 -28.5 72t-80.5 29q-38 0 -76 -20t-59 -45l-62 72q81 89 202 89q100 0 158.5 -52.5t58.5 -145.5q0 -53 -27.5 -110t-78.5 -112.5t-91.5 -92.5t-98.5 -84h291v-97h-404z" />
    <glyph glyph-name="three.tnum_lnum" horiz-adv-x="500" 
d="M216 -7q-105 0 -188 57l43 83q75 -44 145 -44q53 0 88 30t35 84q0 63 -41.5 85.5t-109.5 22.5l-42 -1v89h43q56 0 95 28t39 81q0 38 -28.5 65t-69.5 27q-66 0 -125 -31l-39 75q83 52 167 52q87 0 146 -50t59 -132q0 -104 -96 -150q117 -43 117 -164q0 -93 -68.5 -150
t-169.5 -57z" />
    <glyph glyph-name="four.tnum_lnum" horiz-adv-x="500" 
d="M292 0v179h-237l-37 76l244 433h139v-413h80v-96h-80v-179h-109zM129 275h163v302z" />
    <glyph glyph-name="five.tnum_lnum" horiz-adv-x="500" 
d="M206 -7q-105 0 -183 55l48 87q75 -47 139 -47q61 0 95 32t34 95q0 117 -128 117q-17 0 -41 -2.5t-45.5 -5.5t-24.5 -3l-39 50l45 317h326v-97h-241l-23 -168q60 5 61 5q105 0 164.5 -51.5t59.5 -158.5q0 -101 -68.5 -163t-178.5 -62z" />
    <glyph glyph-name="six.tnum_lnum" horiz-adv-x="500" 
d="M255 -6q-221 0 -221 253q0 155 90 272.5t235 176.5l49 -81q-80 -37 -135.5 -85t-92.5 -121q50 12 83 12q94 0 149.5 -52.5t55.5 -153.5q0 -99 -58.5 -160t-154.5 -61zM254 85q52 0 78 33.5t26 91.5q0 51 -28.5 85t-75.5 34q-37 0 -103 -15q-8 -31 -8 -75q0 -154 111 -154
z" />
    <glyph glyph-name="seven.tnum_lnum" horiz-adv-x="500" 
d="M177 -7l-103 31l279 563h-318v98h405l42 -67z" />
    <glyph glyph-name="eight.tnum_lnum" horiz-adv-x="496" 
d="M249 -6q-92 0 -157 52.5t-65 138.5q0 120 123 176q-106 51 -106 148q0 70 53.5 127.5t154.5 57.5q96 0 150.5 -53.5t54.5 -125.5q0 -103 -103 -155q119 -55 119 -170q0 -86 -63.5 -141t-160.5 -55zM250 85q51 0 83 27.5t32 72.5q0 48 -30.5 76t-88.5 54
q-111 -45 -111 -123q0 -41 33.5 -74t81.5 -33zM259 401q88 36 88 105q0 47 -29 70t-67 23q-39 0 -68.5 -22.5t-29.5 -64.5q0 -40 28 -66t78 -45z" />
    <glyph glyph-name="nine.tnum_lnum" horiz-adv-x="500" 
d="M145 -9l-50 81q81 37 136 85.5t92 121.5q-50 -12 -83 -12q-94 0 -149.5 52.5t-55.5 153.5q0 99 58.5 160t155.5 61q109 0 165 -65t56 -188q0 -155 -90 -272.5t-235 -177.5zM250 359q42 0 102 14q9 34 9 76q0 69 -26.5 111.5t-85.5 42.5q-52 0 -78 -33.5t-26 -91.5
q0 -51 28.5 -85t76.5 -34z" />
    <glyph glyph-name="zero.zero" horiz-adv-x="552" 
d="M279 -6q-64 0 -112 20.5t-74.5 55.5t-39 75.5t-12.5 86.5q0 96 63.5 165.5t174.5 69.5q110 0 171.5 -66.5t61.5 -168.5t-60.5 -170t-172.5 -68zM277 87q55 0 91 39t36 106q0 39 -17 71l-189 -188q34 -28 79 -28zM164 164l187 185q-32 23 -72 23q-54 0 -91 -36.5
t-37 -103.5q0 -42 13 -68z" />
    <glyph glyph-name="zero.tnum_onum" horiz-adv-x="500" 
d="M255 -6q-49 0 -89 14.5t-65 37.5t-41.5 54.5t-23.5 64t-7 67.5q0 92 60 163.5t165 71.5t163 -68t58 -167t-56.5 -168.5t-163.5 -69.5zM252 87q51 0 83 39t32 106q0 64 -32 102t-80 38q-51 0 -84 -37t-33 -103q0 -67 32 -106t82 -39z" />
    <glyph glyph-name="one.tnum_onum" horiz-adv-x="500" 
d="M257 0v352l-158 -67l-39 84l208 92h96v-461h-107z" />
    <glyph glyph-name="two.tnum_onum" horiz-adv-x="500" 
d="M85 0l-33 85q157 87 217 131.5t60 87.5q0 30 -23.5 50t-62.5 20q-70 0 -128 -53l-57 71q36 35 87.5 56t102.5 21q91 0 144.5 -45t53.5 -117q0 -108 -234 -210h239v-97h-366z" />
    <glyph glyph-name="three.tnum_onum" horiz-adv-x="500" 
d="M218 -233q-104 0 -189 58l44 83q76 -45 144 -45q53 0 88.5 30.5t35.5 85.5q0 109 -151 109l-42 -1v89h43q51 0 92.5 28.5t41.5 79.5q0 38 -28 63.5t-70 25.5q-60 0 -130 -34l-41 81q84 48 174 48q89 0 147 -45.5t58 -126.5q0 -110 -96 -158q116 -42 116 -163
q0 -93 -68 -150.5t-169 -57.5z" />
    <glyph glyph-name="four.tnum_onum" horiz-adv-x="500" 
d="M281 -202v206h-233l-37 76l248 380h130v-360h80v-96h-80v-206h-108zM123 100h158v248z" />
    <glyph glyph-name="five.tnum_onum" horiz-adv-x="500" 
d="M214 -234q-104 0 -183 54l48 87q79 -47 139 -47q61 0 95 32.5t34 95.5q0 117 -128 117q-33 0 -111 -12l-39 51l45 317h326v-97h-241l-23 -169q40 5 61 5q105 0 164.5 -51t59.5 -159q0 -101 -68 -162.5t-179 -61.5z" />
    <glyph glyph-name="six.tnum_onum" horiz-adv-x="500" 
d="M255 -6q-110 0 -165.5 64.5t-55.5 188.5q0 155 90 272.5t235 176.5l50 -81q-80 -36 -135.5 -84.5t-92.5 -121.5q50 12 83 12q94 0 149.5 -52.5t55.5 -153.5q0 -99 -58.5 -160t-155.5 -61zM255 85q52 0 78 33.5t26 91.5q0 51 -28.5 85t-76.5 34q-38 0 -102 -15
q-9 -34 -9 -75q0 -154 112 -154z" />
    <glyph glyph-name="seven.tnum_onum" horiz-adv-x="500" 
d="M181 -232l-103 31l267 563h-306v99h393l42 -67z" />
    <glyph glyph-name="eight.tnum_onum" horiz-adv-x="500" 
d="M249 -6q-92 0 -157 52.5t-65 138.5q0 120 123 176q-106 51 -106 148q0 70 53.5 127.5t154.5 57.5q96 0 150.5 -53.5t54.5 -125.5q0 -103 -103 -155q119 -55 119 -170q0 -86 -63.5 -141t-160.5 -55zM250 85q51 0 83 27.5t32 72.5q0 48 -30.5 76t-88.5 54
q-111 -45 -111 -123q0 -41 33.5 -74t81.5 -33zM259 401q88 36 88 105q0 47 -29 70t-67 23q-39 0 -68.5 -22.5t-29.5 -64.5q0 -40 28 -66t78 -45z" />
    <glyph glyph-name="nine.tnum_onum" horiz-adv-x="500" 
d="M144 -236l-50 81q81 37 136 85.5t93 121.5q-50 -12 -84 -12q-94 0 -149.5 52.5t-55.5 153.5q0 99 58.5 160t155.5 61q110 0 165.5 -65t55.5 -188q0 -155 -90 -272.5t-235 -177.5zM249 132q42 0 103 14q8 37 8 76q0 69 -26.5 111.5t-84.5 42.5q-52 0 -78 -33.5t-26 -91.5
q0 -51 28 -85t76 -34z" />
    <glyph glyph-name="registered.pnum_lnum" horiz-adv-x="778" 
d="M484 138l-102 160h-34v-154h-72v390h113q63 0 101 -26.5t38 -83.5q0 -76 -75 -113l105 -156zM396 -15q-147 0 -252 104t-105 250q0 147 105 250.5t252 103.5t251.5 -103.5t104.5 -250.5q0 -145 -105 -249.5t-251 -104.5zM396 49q119 0 201.5 85t82.5 205t-82.5 205.5
t-201.5 85.5t-201.5 -85t-82.5 -206q0 -120 82.5 -205t201.5 -85zM348 361h29q79 0 79 60q0 51 -76 51h-32v-111z" />
    <glyph glyph-name="Euro.pnum_lnum" horiz-adv-x="515" 
d="M304 -6q-132 0 -196 93.5t-64 256.5q0 164 69.5 257t194.5 93q100 0 163 -65l-75 -67q-36 36 -92 36q-55 0 -90.5 -38t-48.5 -107h214v-73h-223q-1 -12 -1 -36q0 -29 1 -44h223v-72h-211q29 -139 134 -139q64 0 106 42l73 -60q-72 -77 -177 -77z" />
    <glyph glyph-name="dollar.pnum_lnum" horiz-adv-x="519" 
d="M233 -67v62q-109 5 -187 78l64 71q54 -48 123 -53v226q-41 18 -63.5 30.5t-49.5 36t-39 56.5t-12 79q0 65 48 112t116 59v62h69v-59q83 -4 161 -52l-51 -82q-58 34 -110 37v-200q41 -18 67.5 -33t52 -39t38 -57t12.5 -77q0 -73 -48.5 -124.5t-121.5 -66.5v-66h-69z
M302 102q61 22 61 84q0 60 -61 96v-180zM233 428v162q-58 -24 -58 -76q0 -54 58 -86z" />
    <glyph glyph-name="sterling.pnum_lnum" horiz-adv-x="513" 
d="M62 0v74q46 23 74.5 66.5t28.5 95.5q0 46 -3 68h-102v92h88q-11 83 -11 91q0 93 57.5 149.5t146.5 56.5q71 0 130 -32l-36 -83q-48 23 -92 23q-45 0 -72.5 -32t-27.5 -77q0 -23 11 -96h150v-92h-137q4 -44 0 -69q-9 -90 -50 -143h270v-92h-425z" />
    <glyph glyph-name="florin.pnum_lnum" horiz-adv-x="431" 
d="M74 -7q-54 0 -104 25l33 78q1 -1 9.5 -5t21.5 -7.5t24 -3.5q64 0 71 60l24 202h-77v86h87l13 115q8 69 48.5 110t108.5 41q52 0 96 -21l-30 -79q-28 14 -62 14q-23 0 -41.5 -17.5t-23.5 -53.5l-13 -109h103v-86h-112l-24 -203q-8 -66 -47.5 -106t-104.5 -40z" />
    <glyph glyph-name="yen.pnum_lnum" horiz-adv-x="606" 
d="M251 0v170h-190v82h190v70h-190v82h127l-172 259l110 31l183 -287l184 287l104 -32l-173 -258h124v-82h-188v-70h188v-82h-188v-170h-109z" />
    <glyph glyph-name="threesup_fraction_eightinf" horiz-adv-x="755" 
d="M134 331q-61 0 -109 33l32 61q38 -22 77 -22q20 0 33 11.5t13 31.5q0 46 -55 46h-34v56h34q19 0 33 12t14 30q0 16 -11.5 25.5t-29.5 9.5q-32 0 -64 -17l-28 60q46 27 101 27q49 0 81.5 -25.5t32.5 -70.5q0 -43 -43 -74q52 -22 52 -80q0 -51 -37 -82.5t-92 -31.5z
M225 -35l-77 33l355 724l77 -33zM598 -4q-50 0 -85 29t-35 77q0 55 53 85q-45 29 -45 74q0 38 29 68t85 30q53 0 82 -27.5t29 -69.5q0 -41 -43 -75q51 -33 51 -83q0 -48 -34 -78t-87 -30zM599 66q18 0 29.5 10t11.5 26q0 37 -44 57q-40 -16 -40 -54q0 -14 13 -26.5t30 -12.5
zM604 213q28 16 28 43q0 17 -10 26t-22 9q-15 0 -25.5 -8.5t-10.5 -23.5q0 -31 40 -46z" />
    <glyph glyph-name="fivesup_fraction_eightinf" horiz-adv-x="755" 
d="M225 -35l-77 33l355 724l77 -33zM129 331q-54 0 -105 35l35 62q40 -25 71 -25q23 0 38 12.5t15 35.5q0 24 -17 35.5t-40 11.5q-26 0 -54 -4l-22 29l22 169h179v-72h-120l-7 -54q13 1 16 1q57 0 91.5 -28t34.5 -86q0 -54 -39 -88t-98 -34zM598 -4q-50 0 -85 29t-35 77
q0 55 53 85q-45 29 -45 74q0 38 29 68t85 30q53 0 82 -27.5t29 -69.5q0 -41 -43 -75q51 -33 51 -83q0 -48 -34 -78t-87 -30zM599 66q18 0 29.5 10t11.5 26q0 37 -44 57q-40 -16 -40 -54q0 -14 13 -26.5t30 -12.5zM604 213q28 16 28 43q0 17 -10 26t-22 9q-15 0 -25.5 -8.5
t-10.5 -23.5q0 -31 40 -46z" />
    <glyph glyph-name="sevensup_fraction_eightinf" horiz-adv-x="755" 
d="M225 -35l-77 33l355 724l77 -33zM598 -4q-50 0 -85 29t-35 77q0 55 53 85q-45 29 -45 74q0 38 29 68t85 30q53 0 82 -27.5t29 -69.5q0 -41 -43 -75q51 -33 51 -83q0 -48 -34 -78t-87 -30zM599 66q18 0 29.5 10t11.5 26q0 37 -44 57q-40 -16 -40 -54q0 -14 13 -26.5
t30 -12.5zM604 213q28 16 28 43q0 17 -10 26t-22 9q-15 0 -25.5 -8.5t-10.5 -23.5q0 -31 40 -46zM154 329l-75 22l128 267h-144v73h202l28 -43z" />
    <glyph glyph-name="afii61352.pnum_lnum" horiz-adv-x="1109" 
d="M728 226v66h340v-66h-340zM894 338q-77 0 -122 50.5t-45 127.5q0 74 48 125.5t127 51.5q76 0 121 -51t45 -127q0 -74 -48.5 -125.5t-125.5 -51.5zM897 424q28 0 50 22.5t22 70.5q0 47 -22 69t-49 22t-49.5 -22.5t-22.5 -69.5q0 -48 21 -70t50 -22zM78 0v688h119l372 -509
v509h109v-688h-113l-378 512v-512h-109z" />
    <glyph glyph-name="period.superior" horiz-adv-x="131" 
d="M66 323q-18 0 -30.5 12.5t-12.5 30.5q0 17 12.5 30t30.5 13t30 -12.5t12 -30.5t-12 -30.5t-30 -12.5z" />
    <glyph glyph-name="comma.superior" horiz-adv-x="131" 
d="M6 281l40 116h82l-63 -116h-59z" />
    <glyph glyph-name="dollar.superior" horiz-adv-x="260" 
d="M107 292v33q-52 7 -95 47l42 48q32 -27 59 -32v95q-27 12 -43.5 23t-30.5 34.5t-14 54.5q0 35 26.5 62t61.5 33v30h48v-29q35 -4 81 -34l-32 -50q-29 19 -55 24v-91q44 -19 67.5 -43t23.5 -67q0 -38 -27.5 -67.5t-63.5 -34.5v-36h-48zM155 391q23 11 23 37q0 23 -23 39
v-76zM113 558v68q-22 -13 -22 -31q0 -24 22 -37z" />
    <glyph glyph-name="cent.superior" horiz-adv-x="211" 
d="M103 293v33q-43 9 -68 42t-25 80q0 49 25.5 82.5t67.5 42.5v31h50v-29q28 -4 59 -23l-31 -52q-14 11 -28 15v-132q18 6 32 14l29 -46q-26 -23 -61 -26v-32h-50zM103 391v118q-26 -15 -26 -59t26 -59z" />
    <glyph glyph-name="equal.inferior" horiz-adv-x="294" 
d="M30 94v64h235v-64h-235zM30 185v63h235v-63h-235z" />
    <glyph glyph-name="minus.inferior" horiz-adv-x="276" 
d="M20 140v64h236v-64h-236z" />
    <glyph glyph-name="plus.inferior" horiz-adv-x="282" 
d="M106 56v84h-83v64h83v83h70v-83h84v-64h-84v-84h-70z" />
    <glyph glyph-name="period.inferior" horiz-adv-x="131" 
d="M66 -12q-18 0 -30.5 12.5t-12.5 30.5q0 17 12.5 30t30.5 13t30 -12.5t12 -30.5t-12 -30.5t-30 -12.5z" />
    <glyph glyph-name="comma.inferior" horiz-adv-x="131" 
d="M6 -54l40 116h82l-63 -116h-59z" />
    <glyph glyph-name="dollar.inferior" horiz-adv-x="260" 
d="M107 -43v33q-52 7 -95 47l42 48q32 -27 59 -32v95q-27 12 -43.5 23t-30.5 34.5t-14 54.5q0 35 26.5 62t61.5 33v30h48v-29q35 -4 81 -34l-32 -50q-29 19 -55 24v-91q44 -19 67.5 -43t23.5 -67q0 -38 -27.5 -67.5t-63.5 -34.5v-36h-48zM155 56q23 12 23 37q0 23 -23 39
v-76zM113 223v68q-22 -13 -22 -31q0 -24 22 -37z" />
    <glyph glyph-name="cent.inferior" horiz-adv-x="211" 
d="M103 -42v33q-43 9 -68 42t-25 80q0 49 25.5 82.5t67.5 42.5v31h50v-29q28 -4 59 -23l-31 -52q-14 11 -28 15v-132q18 6 32 14l29 -46q-26 -23 -61 -26v-32h-50zM103 56v118q-26 -15 -26 -59t26 -59z" />
    </font>
</defs>
</svg>
