<?xml version="1.0" standalone="no"?>
<!DOCTYPE svg PUBLIC "-//W3C//DTD SVG 1.1//EN" "http://www.w3.org/Graphics/SVG/1.1/DTD/svg11.dtd" >
<svg xmlns="http://www.w3.org/2000/svg" xmlns:xlink="http://www.w3.org/1999/xlink" version="1.1">
<metadata>
Created by FontForge 20170731 at Mon Sep  1 22:00:13 2008
 By Aleksey,,,
Copyright (c) 1999-2008 Typotheque.com All rights reserved.
</metadata>
<defs>
<font id="JigsawRegular" horiz-adv-x="500" >
  <font-face 
    font-family="Jigsaw Regular"
    font-weight="400"
    font-stretch="normal"
    units-per-em="1000"
    panose-1="2 0 0 0 0 0 0 0 0 0"
    ascent="710"
    descent="-290"
    x-height="460"
    cap-height="688"
    bbox="-122 -240 1141 913"
    underline-thickness="50"
    underline-position="-200"
    unicode-range="U+0020-FB03"
  />
<missing-glyph horiz-adv-x="410" 
 />
    <glyph glyph-name="fi" unicode="fi" horiz-adv-x="549" 
d="M108 0v391h-83v69h83v136q0 58 34 94.5t95 36.5q62 0 102 -22l-27 -63q-35 15 -66 15q-22 0 -41 -15t-19 -52v-130h270v-460h-79v391h-191v-391h-78zM416 557q-22 0 -37.5 16t-15.5 38t15.5 38t37.5 16t38 -16t16 -38q0 -23 -16 -38.5t-38 -15.5z" />
    <glyph glyph-name="f_f_i" unicode="ffi" horiz-adv-x="819" 
d="M108 0v390h-83v70h83v136q0 58 34 94.5t95 36.5q60 0 104 -22l-27 -63q-37 15 -68 15q-22 0 -41 -15t-19 -52v-130h192v136q0 58 34 94.5t95 36.5q62 0 102 -22l-27 -63q-35 15 -66 15q-22 0 -41 -15t-19 -52v-130h270v-460h-79v391h-190v-391h-79v391h-192v-391h-78z
M687 557q-23 0 -38.5 15.5t-15.5 38.5q0 22 16 38t38 16t38 -16t16 -38q0 -23 -15.5 -38.5t-38.5 -15.5z" />
    <glyph glyph-name="f_f_j" unicode="ffj" horiz-adv-x="819" 
d="M584 -239l-45 55q109 66 109 201v374h-191v-391h-79v391h-192v-391h-78v390h-83v70h83v136q0 58 34 94.5t95 36.5q60 0 104 -22l-27 -63q-37 15 -68 15q-22 0 -41 -15t-19 -52v-130h192v136q0 58 34 94.5t95 36.5q62 0 102 -22l-27 -63q-35 15 -66 15q-22 0 -41 -15
t-19 -52v-130h270v-455q0 -162 -142 -244zM687 557q-23 0 -38.5 15.5t-15.5 38.5q0 22 16 38t38 16t38 -16t16 -38q0 -23 -15.5 -38.5t-38.5 -15.5z" />
    <glyph glyph-name=".notdef" horiz-adv-x="410" 
 />
    <glyph glyph-name=".null" horiz-adv-x="0" 
 />
    <glyph glyph-name="nonmarkingreturn" horiz-adv-x="333" 
 />
    <glyph glyph-name="space" unicode=" " horiz-adv-x="191" 
 />
    <glyph glyph-name="exclam" unicode="!" horiz-adv-x="306" 
d="M153 -6q-23 0 -39 16t-16 39q0 22 16 38t39 16t39 -16t16 -38q0 -23 -16 -39t-39 -16zM112 174v514h82v-514h-82z" />
    <glyph glyph-name="quotedbl" unicode="&#x22;" horiz-adv-x="314" 
d="M59 541l-11 180h82l-12 -180h-59zM195 541l-11 180h82l-13 -180h-58z" />
    <glyph glyph-name="numbersign" unicode="#" horiz-adv-x="662" 
d="M129 0l28 198h-89v71h100l21 156h-95v71h105l26 192h78l-27 -192h151l27 192h77l-27 -192h90v-71h-99l-21 -156h96v-71h-107l-27 -198h-80l28 198h-149l-28 -198h-78zM245 269h150l21 156h-150z" />
    <glyph glyph-name="dollar" unicode="$" horiz-adv-x="495" 
d="M227 -67v62q-111 5 -177 63l47 58q59 -46 130 -52v138q-34 10 -58.5 20t-49.5 25.5t-38 37t-13 49.5q0 51 46 89t113 46v63h58v-62q84 -6 154 -52l-43 -62q-45 34 -111 41v-132q28 -9 47.5 -16t43.5 -18.5t38.5 -23.5t24.5 -29t10 -37q0 -60 -46 -98t-118 -47v-63h-58z
M227 283v113q-34 -4 -54.5 -20t-20.5 -41q0 -27 75 -52zM285 65q78 12 78 63q0 31 -78 56v-119z" />
    <glyph glyph-name="percent" unicode="%" horiz-adv-x="771" 
d="M186 342q-68 0 -112 47.5t-44 128.5q0 80 45 128t114 48q68 0 111 -48t43 -128t-45 -128t-112 -48zM187 409q32 0 54.5 29.5t22.5 80.5q0 52 -22 81t-54 29q-33 0 -55.5 -29t-22.5 -81q0 -50 22 -80t55 -30zM579 -6q-68 0 -112 47.5t-44 128.5q0 79 45 127t115 48
q68 0 111 -47.5t43 -128.5q0 -80 -45.5 -127.5t-112.5 -47.5zM580 60q32 0 54.5 29.5t22.5 80.5q0 52 -21.5 81t-54.5 29q-32 0 -55 -29t-23 -81q0 -50 22.5 -80t54.5 -30zM242 -33l-61 30l338 725l62 -28z" />
    <glyph glyph-name="ampersand" unicode="&#x26;" horiz-adv-x="667" 
d="M267 -7q-98 0 -158.5 56t-60.5 147q0 38 13 70t33 52.5t35.5 31.5t29.5 18q-96 53 -96 162q0 73 55 118.5t142 45.5q86 0 151 -49l-38 -62q-53 35 -115 35q-45 0 -75.5 -25.5t-30.5 -66.5q0 -62 43.5 -89t96.5 -27h347v-76h-107v-334h-85v50q-76 -57 -180 -57zM275 71
q94 0 172 64v199h-193q-115 -38 -115 -132q0 -60 41 -95.5t95 -35.5z" />
    <glyph glyph-name="quotesingle" unicode="'" horiz-adv-x="208" 
d="M74 541l-11 180h82l-12 -180h-59z" />
    <glyph glyph-name="parenleft" unicode="(" horiz-adv-x="372" 
d="M278 -233q-90 82 -141.5 203t-51.5 267q0 151 60 284.5t139 191.5l48 -50q-67 -52 -118 -171.5t-51 -254.5q0 -121 47 -237t117 -181z" />
    <glyph glyph-name="parenright" unicode=")" horiz-adv-x="372" 
d="M94 -233l-49 52q70 65 117 182t47 239q0 134 -50.5 252.5t-118.5 170.5l47 50q80 -58 140 -190t60 -283q0 -147 -51.5 -269t-141.5 -204z" />
    <glyph glyph-name="asterisk" unicode="*" horiz-adv-x="404" 
d="M155 358l-66 37l62 90l-108 -8v75l107 -8l-61 89l66 37l46 -97l47 98l66 -38l-62 -89l109 8v-75l-108 9l61 -91l-66 -38l-46 99zM201 470q18 0 31 13t13 31t-13 31t-31 13t-31 -13t-13 -31t13 -31t31 -13z" />
    <glyph glyph-name="plus" unicode="+" horiz-adv-x="495" 
d="M207 116v192h-188v74h188v186h81v-186h188v-74h-188v-192h-81z" />
    <glyph glyph-name="comma" unicode="," horiz-adv-x="228" 
d="M35 -89l58 183h97l-95 -183h-60z" />
    <glyph glyph-name="hyphen" unicode="-" horiz-adv-x="299" 
d="M18 220v76h263v-76h-263z" />
    <glyph glyph-name="period" unicode="." horiz-adv-x="228" 
d="M114 -6q-23 0 -40 17t-17 40t17 40t40 17t40 -17t17 -40t-17 -40t-40 -17z" />
    <glyph glyph-name="slash" unicode="/" horiz-adv-x="338" 
d="M68 -21l-71 25l272 706l71 -25z" />
    <glyph glyph-name="zero" unicode="0" horiz-adv-x="520" 
d="M263 -6q-60 0 -105 21t-69.5 56.5t-36.5 75.5t-12 83q0 92 57.5 164.5t164.5 72.5t162.5 -70.5t55.5 -165.5t-55 -166t-162 -71zM261 67q55 0 95.5 42t40.5 122q0 78 -40 119.5t-94 41.5q-55 0 -97 -41t-42 -121q0 -79 41 -121t96 -42z" />
    <glyph glyph-name="one" unicode="1" horiz-adv-x="336" 
d="M170 0v364l-112 -60l-36 65l161 91h71v-460h-84z" />
    <glyph glyph-name="two" unicode="2" horiz-adv-x="440" 
d="M56 0l-26 66q149 96 214 152.5t65 104.5q0 35 -25.5 53t-70.5 18q-74 0 -127 -51l-44 56q33 33 81 51.5t96 18.5q83 0 132 -37.5t49 -105.5q0 -115 -239 -247h238v-79h-343z" />
    <glyph glyph-name="three" unicode="3" horiz-adv-x="444" 
d="M181 -234q-89 0 -167 53l36 69q70 -44 135 -44q58 0 91.5 33t33.5 96q0 68 -46.5 96.5t-116.5 28.5l-31 -1v73h32q57 0 101.5 31.5t44.5 89.5q0 42 -28 71t-73 29q-62 0 -121 -35l-32 63q74 48 154 48q86 0 137.5 -45t51.5 -122q0 -58 -30 -100t-80 -60q129 -37 129 -172
q0 -87 -61.5 -144.5t-159.5 -57.5z" />
    <glyph glyph-name="four" unicode="4" horiz-adv-x="497" 
d="M302 -202v208h-264l-35 62l281 392h103v-376h82v-78h-82v-208h-85zM103 84h199v283z" />
    <glyph glyph-name="five" unicode="5" horiz-adv-x="459" 
d="M193 -234q-94 0 -173 49l39 72q82 -46 135 -46q67 0 102.5 36t35.5 106q0 75 -36.5 105.5t-102.5 30.5q-39 0 -96 -10l-38 45l38 306h304v-79h-236l-21 -191q37 6 63 6q215 0 215 -208q0 -93 -60.5 -157.5t-168.5 -64.5z" />
    <glyph glyph-name="six" unicode="6" 
d="M254 -7q-108 0 -162.5 67.5t-54.5 185.5q0 154 93.5 273.5t240.5 178.5l36 -69q-90 -37 -150.5 -90.5t-102.5 -138.5q58 14 102 14q92 0 149.5 -54.5t57.5 -148.5q0 -98 -57.5 -158t-151.5 -60zM254 66q58 0 89.5 39t31.5 101q0 55 -34.5 94.5t-87.5 39.5q-60 0 -120 -19
q-9 -36 -9 -85q0 -71 32.5 -120.5t97.5 -49.5z" />
    <glyph glyph-name="seven" unicode="7" horiz-adv-x="419" 
d="M141 -229l-82 25l256 583h-305v81h373l34 -54z" />
    <glyph glyph-name="eight" unicode="8" horiz-adv-x="502" 
d="M251 -6q-87 0 -149 53t-62 136q0 123 126 178q-109 55 -109 152q0 69 50.5 125t145.5 56q91 0 142 -53t51 -122q0 -108 -109 -160q125 -50 125 -171q0 -84 -60 -139t-151 -55zM251 67q55 0 91 32t36 84q0 55 -34.5 85.5t-97.5 54.5q-122 -43 -122 -133q0 -46 37 -84.5
t90 -38.5zM261 393q50 19 74.5 47t24.5 72q0 54 -33 81t-75 27q-43 0 -76.5 -26.5t-33.5 -75.5q0 -46 31.5 -75t87.5 -50z" />
    <glyph glyph-name="nine" unicode="9" horiz-adv-x="501" 
d="M129 -238l-36 69q90 37 150.5 90.5t102.5 138.5q-68 -14 -102 -14q-92 0 -149.5 55t-57.5 149q0 97 57.5 156.5t151.5 59.5q109 0 163 -67t54 -185q0 -154 -93 -273t-241 -179zM248 121q62 0 119 18q9 36 9 85q0 71 -32.5 120t-97.5 49q-57 0 -89 -38.5t-32 -99.5
q0 -56 34.5 -95t88.5 -39z" />
    <glyph glyph-name="colon" unicode=":" horiz-adv-x="228" 
d="M114 -6q-24 0 -41 17t-17 41q0 25 17 42t41 17t41 -17t17 -42q0 -24 -16.5 -41t-41.5 -17zM114 344q-24 0 -41 17.5t-17 41.5t17 41t41 17t41 -17t17 -41t-17 -41.5t-41 -17.5z" />
    <glyph glyph-name="semicolon" unicode=";" horiz-adv-x="228" 
d="M120 349q-24 0 -40.5 17.5t-16.5 41.5t16.5 41t40.5 17q25 0 42 -17t17 -41t-17 -41.5t-42 -17.5zM23 -89l58 183h98l-95 -183h-61z" />
    <glyph glyph-name="less" unicode="&#x3c;" horiz-adv-x="490" 
d="M367 90l-299 242l298 252l53 -55l-235 -197l238 -186z" />
    <glyph glyph-name="equal" unicode="=" horiz-adv-x="572" 
d="M70 220v72h432v-72h-432zM70 390v72h432v-72h-432z" />
    <glyph glyph-name="greater" unicode="&#x3e;" horiz-adv-x="490" 
d="M122 90l-54 56l239 186l-236 196l53 56l298 -252z" />
    <glyph glyph-name="question" unicode="?" horiz-adv-x="409" 
d="M112 176v179q68 0 110.5 33t42.5 97q0 65 -43 98.5t-110 33.5v76q105 0 173 -52.5t68 -156.5q0 -47 -18 -84.5t-44.5 -58.5t-51.5 -32t-46 -14v-119h-81zM153 -6q-23 0 -39 16t-16 39q0 22 16 38t39 16t39 -16t16 -38q0 -23 -16 -39t-39 -16z" />
    <glyph glyph-name="at" unicode="@" horiz-adv-x="799" 
d="M401 -122q-146 0 -244.5 96t-98.5 270q0 164 104 259.5t251 95.5q141 0 234.5 -85t93.5 -229q0 -74 -16 -127t-44 -79t-56.5 -37t-61.5 -11q-27 0 -56 13t-42 32q-58 -45 -113 -45q-52 0 -81.5 28.5t-29.5 74.5q0 58 43.5 87.5t128.5 50.5l45 10v31q0 62 -65 62
q-45 0 -101 -42l-33 48q74 57 139 57q126 0 126 -115v-214q21 -19 45 -19q43 0 75 46t32 147q0 110 -74 183t-187 73q-128 0 -209 -81t-81 -209q0 -43 8.5 -85t29.5 -83t51.5 -72t78 -50t106.5 -19q47 0 96 18l23 -55q-61 -25 -117 -25zM362 93q33 0 95 41v92l-37 -8
q-111 -28 -111 -76q0 -49 53 -49z" />
    <glyph glyph-name="A" unicode="A" horiz-adv-x="639" 
d="M94 -7l-81 17l273 678h73l267 -677l-87 -16l-84 219h-274zM211 289h215l-107 279z" />
    <glyph glyph-name="B" unicode="B" horiz-adv-x="545" 
d="M84 0v688h188q33 0 63.5 -7t62.5 -24.5t51 -53t19 -86.5q0 -98 -90 -150q37 -11 74 -54.5t37 -110.5q0 -105 -70 -153.5t-173 -48.5h-162zM169 76l73 1q75 0 117 28t42 101q0 54 -40.5 85.5t-102.5 31.5h-89v-247zM169 399h72q70 0 105 32.5t35 83.5q0 96 -124 96h-88
v-212z" />
    <glyph glyph-name="C" unicode="C" horiz-adv-x="559" 
d="M378 -6q-139 0 -235.5 94t-96.5 256q0 156 99.5 253t239.5 97q100 0 158 -39l-36 -68q-50 30 -132 30q-91 0 -167 -74.5t-76 -197.5q0 -117 70.5 -195.5t175.5 -78.5q79 0 135 27l34 -66q-64 -38 -169 -38z" />
    <glyph glyph-name="D" unicode="D" horiz-adv-x="702" 
d="M84 0v688h240q87 0 153.5 -28t104 -76.5t56 -106t18.5 -123.5q0 -153 -97 -253.5t-244 -100.5h-231zM169 76h126q47 0 92 14.5t87 45.5t68 89t26 135q0 66 -20.5 114.5t-49 74t-69.5 40.5t-70.5 18.5t-62.5 3.5h-127v-535z" />
    <glyph glyph-name="E" unicode="E" horiz-adv-x="510" 
d="M84 0v688h381v-77h-296v-220h274v-76h-274v-238h296v-77h-381z" />
    <glyph glyph-name="F" unicode="F" horiz-adv-x="489" 
d="M84 0v688h378v-77h-293v-220h271v-76h-271v-315h-85z" />
    <glyph glyph-name="G" unicode="G" horiz-adv-x="665" 
d="M378 -6q-145 0 -238.5 100t-93.5 244q0 150 100 253t248 103q114 0 193 -47l-39 -65q-60 35 -153 35q-116 0 -189 -80.5t-73 -197.5q0 -113 67.5 -190.5t179.5 -77.5q94 0 145 38v173h-170v73h253v-280q-88 -81 -230 -81z" />
    <glyph glyph-name="H" unicode="H" horiz-adv-x="697" 
d="M84 0v688h86v-294h358v294h85v-688h-85v317h-358v-317h-86z" />
    <glyph glyph-name="I" unicode="I" horiz-adv-x="253" 
d="M84 0v688h85v-688h-85z" />
    <glyph glyph-name="J" unicode="J" horiz-adv-x="253" 
d="M-87 -212v75q76 0 124 42.5t48 140.5v642h84v-651q0 -123 -68 -186t-188 -63z" />
    <glyph glyph-name="K" unicode="K" horiz-adv-x="595" 
d="M498 -7l-321 372l306 330l82 -32l-280 -293l296 -340zM84 0v688h86v-688h-86z" />
    <glyph glyph-name="L" unicode="L" horiz-adv-x="481" 
d="M84 0v688h85v-611h304v-77h-389z" />
    <glyph glyph-name="M" unicode="M" horiz-adv-x="874" 
d="M153 -5l-84 4l48 689h105l214 -542l233 542h96l41 -689l-85 -4l-29 562l-214 -502l-90 -1l-201 506z" />
    <glyph glyph-name="N" unicode="N" horiz-adv-x="748" 
d="M84 0v688h97l397 -559v559h85v-688h-96l-397 559v-559h-86z" />
    <glyph glyph-name="O" unicode="O" horiz-adv-x="771" 
d="M387 -6q-151 0 -246 97.5t-95 252.5q0 149 93.5 249.5t248.5 100.5q148 0 242.5 -102t94.5 -247q0 -156 -94 -253.5t-244 -97.5zM383 71q117 0 187 79t70 194q0 116 -68.5 194.5t-185.5 78.5t-185.5 -78.5t-68.5 -194.5q0 -110 68 -191.5t183 -81.5z" />
    <glyph glyph-name="P" unicode="P" horiz-adv-x="517" 
d="M84 0v688h181q58 0 103.5 -15.5t79 -59t33.5 -111.5q0 -95 -66 -157t-174 -62h-72v-283h-85zM169 357h60q84 0 124.5 41.5t40.5 102.5q0 110 -143 110h-82v-254z" />
    <glyph glyph-name="Q" unicode="Q" horiz-adv-x="775" 
d="M759 -6l-281 6q-42 -6 -91 -6q-152 0 -246.5 98t-94.5 252q0 149 93.5 249.5t248.5 100.5q148 0 242.5 -102t94.5 -247q0 -89 -32.5 -161.5t-94.5 -116.5l161 2v-75zM384 71q117 0 186.5 78.5t69.5 194.5t-68 194.5t-185 78.5t-186 -78t-69 -195q0 -111 68.5 -192
t183.5 -81z" />
    <glyph glyph-name="R" unicode="R" horiz-adv-x="536" 
d="M433 -8l-194 305h-70v-297h-85v688h178q26 0 49 -2.5t55.5 -13.5t56 -29t40 -53t16.5 -82q0 -76 -43 -127t-110 -72l195 -293zM169 373h57q89 0 127 38.5t38 94.5q0 34 -13 56.5t-36.5 32t-45.5 13t-51 3.5h-76v-238z" />
    <glyph glyph-name="S" unicode="S" horiz-adv-x="482" 
d="M232 -6q-116 0 -190 72l51 60q59 -55 134 -55q53 0 90 30t37 79q0 30 -9.5 53t-31.5 40t-39 26t-51 24q-6 3 -9 4q-80 36 -118 76t-38 121q0 72 59 121t134 49q51 0 89.5 -10.5t88.5 -42.5l-43 -65q-39 26 -67 33.5t-67 7.5t-74 -24.5t-35 -73.5q0 -18 3.5 -32.5
t15 -27.5t17 -19.5t27 -18t26.5 -14t32 -15.5q37 -17 55 -26t46 -28t41 -37.5t23.5 -49t10.5 -67.5q0 -80 -61.5 -135t-146.5 -55z" />
    <glyph glyph-name="T" unicode="T" horiz-adv-x="503" 
d="M211 0v611h-215v77h511v-77h-211v-611h-85z" />
    <glyph glyph-name="U" unicode="U" horiz-adv-x="672" 
d="M338 -7q-116 0 -191 61.5t-75 168.5v465h85v-456q0 -75 51.5 -118t132.5 -43t127.5 41t46.5 128v448h85v-464q0 -109 -76 -170t-186 -61z" />
    <glyph glyph-name="V" unicode="V" horiz-adv-x="638" 
d="M275 0l-262 675l86 19l220 -573l224 575l82 -19l-270 -677h-80z" />
    <glyph glyph-name="W" unicode="W" horiz-adv-x="905" 
d="M217 0l-203 678l88 16l158 -559l156 553h78l157 -558l159 564l81 -14l-203 -680h-78l-157 553l-157 -553h-79z" />
    <glyph glyph-name="X" unicode="X" horiz-adv-x="586" 
d="M94 -6l-81 25l229 327l-226 322l86 26l193 -278l192 278l78 -28l-222 -317l230 -328l-86 -27l-196 284z" />
    <glyph glyph-name="Y" unicode="Y" horiz-adv-x="548" 
d="M231 0v313l-232 352l81 28l196 -299l195 299l78 -29l-233 -351v-313h-85z" />
    <glyph glyph-name="Z" unicode="Z" horiz-adv-x="568" 
d="M61 0l-32 62l391 545h-373v77h458l31 -59l-394 -549h383v-76h-464z" />
    <glyph glyph-name="bracketleft" unicode="[" horiz-adv-x="287" 
d="M68 -240v961h201v-71h-121v-819h121v-71h-201z" />
    <glyph glyph-name="backslash" unicode="\" horiz-adv-x="337" 
d="M269 -21l-272 706l71 25l272 -706z" />
    <glyph glyph-name="bracketright" unicode="]" horiz-adv-x="287" 
d="M18 -240v71h121v819h-121v71h201v-961h-201z" />
    <glyph glyph-name="asciicircum" unicode="^" horiz-adv-x="598" 
d="M40 263l215 414h93l210 -414h-88l-172 342l-172 -342h-86z" />
    <glyph glyph-name="underscore" unicode="_" 
d="M0 -160v76h500v-76h-500z" />
    <glyph glyph-name="grave" unicode="`" horiz-adv-x="277" 
d="M194 517l-156 125l53 58l144 -141z" />
    <glyph glyph-name="a" unicode="a" horiz-adv-x="450" 
d="M369 -13l-65 60q-73 -53 -138 -53q-58 0 -92.5 32.5t-34.5 86.5q0 67 50 100.5t147 57.5l56 12v39q0 75 -79 75q-41 0 -116 -48l-38 56q85 61 157 61q66 0 110.5 -32.5t44.5 -101.5v-243l51 -48zM178 58q46 0 114 48v118l-48 -11q-127 -33 -127 -94q0 -32 17 -46.5
t44 -14.5z" />
    <glyph glyph-name="b" unicode="b" horiz-adv-x="524" 
d="M285 -6q-65 0 -133 57v-51h-78v721h79v-310q2 1 13.5 8.5t18.5 12t21 12t26 11.5t28.5 7.5t31.5 3.5q96 0 145 -68.5t49 -165.5q0 -93 -53 -165.5t-148 -72.5zM280 65q57 0 92.5 46.5t35.5 118.5q0 73 -32 118.5t-90 45.5q-65 0 -133 -59v-207q1 -1 11 -9.5t12.5 -10.5
l12.5 -10t15.5 -11t16 -8.5t18.5 -7.5t19 -4t22 -2z" />
    <glyph glyph-name="c" unicode="c" horiz-adv-x="417" 
d="M260 -6q-100 0 -159.5 66.5t-59.5 166.5q0 108 63.5 173.5t156.5 65.5q75 0 137 -39l-37 -63q-47 30 -96 30q-64 0 -104 -46t-40 -121t41 -118t103 -43q54 0 103 32l38 -62q-70 -42 -146 -42z" />
    <glyph glyph-name="d" unicode="d" horiz-adv-x="524" 
d="M239 -6q-96 0 -149 70.5t-53 164.5q0 95 50 166t144 71q19 0 37.5 -4t35 -11.5t27.5 -13t24.5 -14t16.5 -10.5v308h77v-721h-77v49q-73 -55 -133 -55zM244 65q12 0 23.5 2t23 7t19 8.5t19.5 12t15.5 11t15.5 12.5l12 10v207q-72 59 -133 59q-58 0 -90.5 -45.5
t-32.5 -118.5q0 -72 36 -118.5t92 -46.5z" />
    <glyph glyph-name="e" unicode="e" horiz-adv-x="450" 
d="M255 -6q-103 0 -159.5 64.5t-56.5 167.5t55 171.5t154 68.5q88 0 131 -57t43 -148v-44h-303q2 -65 39 -108.5t101 -43.5q59 0 115 30l8 -15l14 -32l8 -16q-65 -38 -149 -38zM123 279h220q0 50 -25 84.5t-74 34.5q-52 0 -83 -36.5t-38 -82.5z" />
    <glyph glyph-name="f" unicode="f" horiz-adv-x="306" 
d="M108 0v390h-83v70h83v136q0 58 34 94.5t95 36.5q22 0 42.5 -3.5t31 -7t20.5 -7.5l10 -4l-27 -64q-31 16 -68 16q-22 0 -41 -15t-19 -52v-130h110v-69h-110v-391h-78z" />
    <glyph glyph-name="g" unicode="g" horiz-adv-x="474" 
d="M221 -238q-85 0 -142.5 48t-57.5 121q0 40 18 73t45.5 51.5t53 29t45.5 12.5l2 49q-59 11 -98 55t-39 102q0 70 51 116.5t121 46.5q51 0 91 -25l154 27v-76h-103q29 -42 29 -89q0 -60 -38.5 -103t-98.5 -54l1 -49q23 -2 49.5 -12.5t54 -29t46 -51.5t18.5 -73
q0 -72 -59 -120.5t-143 -48.5zM221 -174q51 0 86.5 30.5t35.5 75.5t-35.5 75.5t-85.5 30.5t-86 -30.5t-36 -75.5t35 -75.5t86 -30.5zM220 208q38 0 65.5 27.5t27.5 67.5t-27.5 68t-66.5 28t-66.5 -28t-27.5 -68t28 -67.5t67 -27.5z" />
    <glyph glyph-name="h" unicode="h" horiz-adv-x="507" 
d="M74 0v721h79v-319q29 27 71.5 45.5t80.5 18.5q59 0 98 -33.5t39 -87.5v-345h-78v318q0 74 -73 74q-60 0 -138 -73v-319h-79z" />
    <glyph glyph-name="i" unicode="i" horiz-adv-x="249" 
d="M124 557q-22 0 -38 15.5t-16 38.5t16 38.5t38 15.5t38 -15.5t16 -38.5t-16 -38.5t-38 -15.5zM84 0v460h79v-460h-79z" />
    <glyph glyph-name="j" unicode="j" horiz-adv-x="249" 
d="M124 557q-22 0 -38 15.5t-16 38.5t16 38.5t38 15.5t38 -16t16 -38t-16 -38t-38 -16zM21 -233l-45 55q109 66 109 201v437h78v-448q0 -163 -142 -245z" />
    <glyph glyph-name="k" unicode="k" horiz-adv-x="458" 
d="M369 -7l-213 265l206 207l74 -29l-187 -179l199 -236zM74 0v721h79v-721h-79z" />
    <glyph glyph-name="l" unicode="l" horiz-adv-x="227" 
d="M74 0v721h79v-721h-79z" />
    <glyph glyph-name="m" unicode="m" horiz-adv-x="757" 
d="M74 0v460h79v-57q70 63 147 63q42 0 71 -18.5t41 -48.5q75 67 156 67q61 0 92.5 -35t31.5 -85v-346h-78v335q0 31 -17.5 44.5t-41.5 13.5q-36 0 -74.5 -23t-56.5 -43v-327h-79v335q0 31 -18 44.5t-41 13.5q-38 0 -79 -25t-54 -42v-326h-79z" />
    <glyph glyph-name="n" unicode="n" horiz-adv-x="507" 
d="M74 0v460h79v-59q71 65 146 65q69 0 106 -34.5t37 -90.5v-341h-78v319q0 75 -73 75q-39 0 -79 -25.5t-59 -45.5v-323h-79z" />
    <glyph glyph-name="o" unicode="o" horiz-adv-x="511" 
d="M258 -6q-108 0 -166 70t-58 165q0 41 13.5 81.5t39 76t70 58t100.5 22.5q46 0 83.5 -15t62.5 -39t42 -55.5t24.5 -63.5t7.5 -64q0 -41 -13 -81t-38.5 -75.5t-69 -57.5t-98.5 -22zM256 65q55 0 97.5 41.5t42.5 123.5q0 81 -43 122.5t-95 41.5q-53 0 -98 -40.5t-45 -124.5
q0 -78 42.5 -121t98.5 -43z" />
    <glyph glyph-name="p" unicode="p" horiz-adv-x="524" 
d="M74 -239v699h79v-49q2 1 13.5 8.5t18.5 12t21 12t26 11.5t28.5 7.5t31.5 3.5q96 0 145 -68.5t49 -165.5q0 -94 -53 -166t-148 -72q-63 0 -132 51v-284h-79zM280 65q56 0 92 46.5t36 118.5q0 73 -32.5 118.5t-90.5 45.5q-62 0 -132 -60v-210q67 -59 127 -59z" />
    <glyph glyph-name="q" unicode="q" horiz-adv-x="523" 
d="M371 -239v288q-73 -55 -132 -55q-95 0 -148.5 71.5t-53.5 164.5q0 95 50 165.5t144 70.5q19 0 37 -4t35 -11.5t27.5 -13t25 -14.5t15.5 -10v47h78v-699h-78zM243 65q26 0 55 13.5t39.5 21.5t33.5 28v206q-70 60 -133 60q-58 0 -90 -45.5t-32 -118.5q0 -72 35.5 -118.5
t91.5 -46.5z" />
    <glyph glyph-name="r" unicode="r" horiz-adv-x="342" 
d="M75 0v460h79v-62q62 69 116 69q36 0 74 -17l-33 -74q-25 14 -58 14q-26 0 -55 -23.5t-44 -50.5v-316h-79z" />
    <glyph glyph-name="s" unicode="s" horiz-adv-x="363" 
d="M172 -6q-82 0 -136 38l36 62q44 -30 98 -30q33 0 54.5 16t21.5 44t-23 46.5t-73 41.5q-54 26 -79.5 55t-25.5 79q0 56 44.5 88t97.5 32q77 0 128 -37l-36 -60q-36 27 -91 27q-27 0 -46 -13t-19 -35q0 -9 1.5 -16t6 -13l7.5 -10t11.5 -9.5t12.5 -7.5t15 -8t15 -8
q2 -1 21.5 -10.5t24 -12.5t21 -13t22.5 -16t17 -18t15.5 -22.5t8.5 -26t4 -32.5q0 -61 -46.5 -96t-107.5 -35z" />
    <glyph glyph-name="t" unicode="t" horiz-adv-x="326" 
d="M213 -6q-114 0 -114 126v270h-78v70h77v93h79v-93h120v-69h-119v-261q0 -65 48 -65q15 0 29 3.5t25 8.5l12 5l24 -64q-48 -24 -103 -24z" />
    <glyph glyph-name="u" unicode="u" horiz-adv-x="504" 
d="M209 -6q-69 0 -106 34.5t-37 90.5v341h78v-319q0 -75 74 -75q38 0 76 25t57 47v322h79v-460h-79v60q-74 -66 -142 -66z" />
    <glyph glyph-name="v" unicode="v" horiz-adv-x="446" 
d="M179 0l-170 448l79 18l136 -372l139 371l74 -17l-174 -448h-84z" />
    <glyph glyph-name="w" unicode="w" horiz-adv-x="726" 
d="M166 0l-157 448l76 18l123 -368l118 362h76l118 -362l123 368l74 -15l-159 -451h-80l-115 348l-117 -348h-80z" />
    <glyph glyph-name="x" unicode="x" horiz-adv-x="448" 
d="M438 18l-77 -25l-141 187l-136 -186l-76 24l170 218l-158 208l81 22l127 -172l127 172l78 -23l-164 -205z" />
    <glyph glyph-name="y" unicode="y" horiz-adv-x="461" 
d="M45 -238q-22 0 -34 1v70q9 -1 27 -1q38 0 68 21t44 56l43 106l-182 432l79 18l145 -355l142 355l74 -18l-226 -553q-55 -132 -180 -132z" />
    <glyph glyph-name="z" unicode="z" horiz-adv-x="408" 
d="M52 0l-28 53l247 336h-232v71h316l21 -57l-244 -331h232v-72h-312z" />
    <glyph glyph-name="braceleft" unicode="{" horiz-adv-x="328" 
d="M259 -240q-139 0 -139 132v211q0 57 -17 80t-76 24v67q58 1 75.5 27.5t17.5 86.5v201q0 132 139 132h37v-75h-35q-40 0 -51 -20.5t-11 -67.5v-183q0 -53 -14 -85.5t-55 -49.5q42 -12 55.5 -42t13.5 -82v-193q0 -43 11.5 -65.5t50.5 -22.5h35v-75h-37z" />
    <glyph glyph-name="bar" unicode="|" horiz-adv-x="236" 
d="M77 -178v939h79v-939h-79z" />
    <glyph glyph-name="braceright" unicode="}" horiz-adv-x="328" 
d="M34 -239v75h35q39 0 50.5 22t11.5 66v192q0 52 13.5 81.5t55.5 41.5q-41 17 -55 50t-14 86v183q0 47 -11 67.5t-51 20.5h-35v75h38q138 0 138 -132v-201q0 -60 17.5 -86.5t75.5 -27.5v-67q-59 -1 -76 -24t-17 -80v-210q0 -67 -33.5 -99.5t-104.5 -32.5h-38z" />
    <glyph glyph-name="asciitilde" unicode="~" horiz-adv-x="538" 
d="M359 272q-43 0 -105 34t-87 34q-23 0 -52.5 -18t-50.5 -40l-46 48q68 91 155 91q43 0 104.5 -33.5t84.5 -33.5q58 0 104 55l54 -45q-72 -92 -161 -92z" />
    <glyph glyph-name="uni00A0" unicode="&#xa0;" horiz-adv-x="191" 
 />
    <glyph glyph-name="exclamdown" unicode="&#xa1;" horiz-adv-x="306" 
d="M153 390q-23 0 -39 16t-16 38q0 23 16 39t39 16t39 -16t16 -39q0 -22 -16 -38t-39 -16zM113 -195v513h81v-513h-81z" />
    <glyph glyph-name="cent" unicode="&#xa2;" horiz-adv-x="417" 
d="M222 -67v64q-83 13 -132 77t-49 153q0 97 51 159.5t130 76.5v60h58v-58q67 -4 118 -38l-37 -63q-37 25 -81 29v-326q48 4 88 31l38 -62q-61 -36 -126 -41v-62h-58zM222 73v314q-47 -14 -74 -56.5t-27 -103.5t28 -101t73 -53z" />
    <glyph glyph-name="sterling" unicode="&#xa3;" horiz-adv-x="490" 
d="M68 0v61q67 58 72 129h-72v67h69v29q0 90 53.5 137.5t140.5 47.5q69 0 118 -27l-30 -71q-42 22 -86 22q-51 0 -80.5 -28.5t-29.5 -76.5q0 -3 0.5 -15.5t0.5 -17.5h107v-67h-111q-9 -75 -57 -115h301v-75h-396z" />
    <glyph glyph-name="currency" unicode="&#xa4;" horiz-adv-x="502" 
d="M77 138l-40 41l68 66q-36 43 -36 107q0 66 35 107l-67 67l40 39l70 -69q49 30 104 30q63 0 104 -29l69 70l41 -42l-66 -67q34 -37 34 -106q0 -67 -36 -108l67 -66l-40 -42l-69 70q-51 -27 -104 -27q-58 0 -103 28zM251 240q56 0 84 31t28 81q1 48 -28 80.5t-84 32.5
t-84 -32t-29 -81q0 -48 30 -80t83 -32z" />
    <glyph glyph-name="yen" unicode="&#xa5;" horiz-adv-x="570" 
d="M249 0v63h-191v63h191v69h-191v63h138l-127 192l79 31l146 -221l147 219l77 -33l-131 -188h133v-63h-186v-69h186v-63h-186v-63h-85z" />
    <glyph glyph-name="brokenbar" unicode="&#xa6;" horiz-adv-x="231" 
d="M72 -178v394h83v-394h-83zM72 383v378h83v-378h-83z" />
    <glyph glyph-name="section" unicode="&#xa7;" horiz-adv-x="458" 
d="M228 -122q-107 0 -184 65l47 60q33 -25 63 -37.5t75 -12.5q41 0 71 19.5t30 51.5q0 28 -29.5 50.5t-72 39.5t-85 37.5t-72 56t-29.5 82.5q0 37 19 71t36.5 49t33.5 25q-21 14 -32.5 23t-27 35t-15.5 58q0 63 48 103t128 40q37 0 68 -8t46 -16t43 -25l-45 -63
q-49 36 -110 36q-42 0 -68 -16.5t-26 -47.5q0 -26 28 -47t68 -37.5t80 -36t68 -53.5t28 -80q0 -80 -98 -141q59 -34 80 -67q18 -28 18 -61q0 -68 -50 -110.5t-134 -42.5zM238 196q91 44 92 97q0 15 -7.5 28t-16.5 22t-26.5 19t-26.5 14t-29 12t-22 9q-25 -11 -51.5 -38
t-26.5 -63q0 -14 6.5 -27t15 -21.5t24 -18t24.5 -14t25 -11.5t19 -8z" />
    <glyph glyph-name="dieresis" unicode="&#xa8;" horiz-adv-x="321" 
d="M73 555q-23 0 -38.5 15.5t-15.5 38.5q0 22 16 38t38 16t38 -16t16 -38q0 -23 -15.5 -38.5t-38.5 -15.5zM248 555q-23 0 -39 16t-16 38t16.5 38t38.5 16t38 -16t16 -38q0 -23 -16 -38.5t-38 -15.5z" />
    <glyph glyph-name="copyright" unicode="&#xa9;" horiz-adv-x="788" 
d="M413 134q-80 0 -140 55t-60 147q0 89 60.5 145.5t143.5 56.5q59 0 103 -27l-29 -52q-32 19 -79 19q-50 0 -91 -38.5t-41 -103.5q0 -61 38.5 -102t94.5 -41q42 0 82 18l28 -51q-47 -26 -110 -26zM406 -23q-148 0 -253.5 105t-105.5 253q0 149 105.5 254t253.5 105
t253.5 -105t105.5 -254q0 -148 -105.5 -253t-253.5 -105zM406 36q122 0 207.5 88t85.5 211q0 124 -85.5 212t-207.5 88t-207.5 -88t-85.5 -212q0 -123 85.5 -211t207.5 -88z" />
    <glyph glyph-name="ordfeminine" unicode="&#xaa;" horiz-adv-x="396" 
d="M294 331l-47 43q-54 -35 -98 -35t-71 25.5t-27 66.5q0 25 12 45t25.5 31.5t42 22t41.5 14t45 10.5q9 2 13 3v23q0 43 -47 43q-36 0 -84 -37l-37 57q24 18 37.5 26.5t37 16t49.5 7.5q50 0 84.5 -25t34.5 -80v-167l40 -38zM159 402q25 0 71 30v68q-16 -4 -23 -6
q-82 -20 -82 -57q0 -35 34 -35z" />
    <glyph glyph-name="guillemotleft" unicode="&#xab;" horiz-adv-x="491" 
d="M192 38l-126 176l126 176l58 -38l-100 -138l100 -137zM366 38l-126 176l126 176l59 -38l-101 -138l101 -137z" />
    <glyph glyph-name="logicalnot" unicode="&#xac;" 
d="M387 116v191h-356v73h434v-264h-78z" />
    <glyph glyph-name="registered" unicode="&#xae;" horiz-adv-x="530" 
d="M309 416l-50 79h-16v-73h-39v201h50q82 0 82 -59q0 -44 -36 -60q9 -12 23.5 -35t23.5 -36zM265 330q-76 0 -129.5 54t-53.5 129q0 77 53.5 131t129.5 54t130 -54t54 -131q0 -75 -54 -129t-130 -54zM265 368q59 0 101 42.5t42 102.5q0 61 -42 104t-101 43t-101 -43
t-42 -104q0 -60 42 -102.5t101 -42.5zM243 529h13q38 0 38 33q0 12 -9.5 19.5t-21.5 7.5h-20v-60z" />
    <glyph glyph-name="macron" unicode="&#xaf;" horiz-adv-x="289" 
d="M30 548v68h229v-68h-229z" />
    <glyph glyph-name="degree" unicode="&#xb0;" horiz-adv-x="353" 
d="M174 445q-52 0 -89 36.5t-37 89.5t37 90.5t89 37.5q53 0 90.5 -37.5t37.5 -90.5q0 -52 -37.5 -89t-90.5 -37zM174 504q28 0 47.5 20t19.5 47q0 28 -19.5 48t-47.5 20q-26 0 -45.5 -20t-19.5 -48q0 -27 19.5 -47t45.5 -20z" />
    <glyph glyph-name="plusminus" unicode="&#xb1;" horiz-adv-x="496" 
d="M208 170v188h-185v74h185v188h80v-188h185v-74h-185v-188h-80zM23 0v75h450v-75h-450z" />
    <glyph glyph-name="twosuperior" unicode="&#xb2;" horiz-adv-x="318" 
d="M54 335l-16 46q169 143 169 206q0 18 -14.5 32.5t-39.5 14.5q-42 0 -69 -33l-39 40q40 52 114 52q51 0 82.5 -26.5t31.5 -76.5q-1 -79 -142 -195h140v-60h-217z" />
    <glyph glyph-name="threesuperior" unicode="&#xb3;" horiz-adv-x="293" 
d="M134 331q-59 0 -99 30l25 52q36 -22 76 -22q23 0 37 13t14 38q0 27 -19.5 40t-47.5 13h-29v51h29q23 0 41 13.5t18 36.5q0 17 -12 28.5t-31 11.5q-34 0 -66 -17l-24 48q42 26 95 26q47 0 76.5 -25t29.5 -67q0 -46 -44 -76q53 -26 53 -85q0 -46 -34.5 -77.5t-87.5 -31.5z
" />
    <glyph glyph-name="acute" unicode="&#xb4;" horiz-adv-x="277" 
d="M79 517l-41 42l143 141l54 -58z" />
    <glyph glyph-name="mu" unicode="&#xb5;" horiz-adv-x="506" 
d="M67 -184v644h79v-319q0 -75 73 -75q27 0 58 16t47.5 29.5t28.5 26.5v322h78v-460h-78v60q-72 -66 -142 -66q-39 0 -65 13v-191h-79z" />
    <glyph glyph-name="mu" unicode="&#x3bc;" horiz-adv-x="506" 
d="M67 -184v644h79v-319q0 -75 73 -75q27 0 58 16t47.5 29.5t28.5 26.5v322h78v-460h-78v60q-72 -66 -142 -66q-39 0 -65 13v-191h-79z" />
    <glyph glyph-name="paragraph" unicode="&#xb6;" horiz-adv-x="532" 
d="M365 -184v783h-50v-322l-70 -1q-30 0 -64.5 12.5t-68.5 36.5t-56 67.5t-22 97.5q0 52 19 90.5t50.5 58t65 28t70.5 8.5h211v-859h-85zM236 354v245q-51 -2 -84.5 -27.5t-33.5 -79.5q0 -40 15 -69t38 -42.5t37.5 -19t27.5 -7.5z" />
    <glyph glyph-name="periodcentered" unicode="&#xb7;" horiz-adv-x="283" 
d="M141 288q-23 0 -39.5 17t-16.5 40t16.5 39.5t39.5 16.5t39.5 -16.5t16.5 -39.5t-16.5 -40t-39.5 -17z" />
    <glyph glyph-name="cedilla" unicode="&#xb8;" horiz-adv-x="224" 
d="M56 -231l-28 49q32 14 43.5 27t11.5 31q0 30 -37 65l35 83l59 -18l-21 -50q37 -35 37 -82q0 -36 -28.5 -64.5t-71.5 -40.5z" />
    <glyph glyph-name="onesuperior" unicode="&#xb9;" horiz-adv-x="209" 
d="M90 335v277q-12 -6 -32.5 -19t-24.5 -15l-33 49l104 63h50v-355h-64z" />
    <glyph glyph-name="ordmasculine" unicode="&#xba;" horiz-adv-x="396" 
d="M197 339q-79 0 -120.5 52.5t-41.5 123.5q0 69 44 123t122 54t119.5 -53t41.5 -123t-43.5 -123.5t-121.5 -53.5zM198 410q33 0 59 25.5t26 80.5q0 53 -25.5 79.5t-57.5 26.5t-59 -26t-27 -80t25.5 -80t58.5 -26z" />
    <glyph glyph-name="guillemotright" unicode="&#xbb;" horiz-adv-x="491" 
d="M125 38l-59 39l101 137l-101 138l59 38l125 -176zM300 38l-60 39l101 137l-101 138l60 38l125 -176z" />
    <glyph glyph-name="onequarter" unicode="&#xbc;" horiz-adv-x="756" 
d="M141 335v277q-12 -6 -32.5 -19t-24.5 -15l-33 49l104 63h50v-355h-64zM225 -33l-63 29l346 725l63 -27zM597 0v95h-124l-23 41l132 214h80v-196h40v-59h-40v-95h-65zM521 154h76l1 132z" />
    <glyph glyph-name="onehalf" unicode="&#xbd;" horiz-adv-x="773" 
d="M491 0l-16 46q169 143 169 206q0 18 -14.5 32.5t-39.5 14.5q-42 0 -69 -33l-39 40q40 52 114 52q51 0 82.5 -26.5t31.5 -76.5q-1 -79 -142 -195h140v-60h-217zM143 335v277q-12 -6 -32.5 -19t-24.5 -15l-33 49l104 63h50v-355h-64zM225 -33l-63 29l346 725l63 -27z" />
    <glyph glyph-name="threequarters" unicode="&#xbe;" horiz-adv-x="753" 
d="M139 331q-59 0 -99 30l25 52q36 -22 76 -22q23 0 37 13t14 38q0 27 -19.5 40t-47.5 13h-29v51h29q23 0 41 13.5t18 36.5q0 17 -12 28.5t-31 11.5q-34 0 -66 -17l-24 48q42 26 95 26q47 0 76.5 -25t29.5 -67q0 -46 -44 -76q53 -26 53 -85q0 -46 -34.5 -77.5t-87.5 -31.5z
M227 -33l-63 29l346 725l63 -27zM595 0v95h-124l-23 41l132 214h80v-196h40v-59h-40v-95h-65zM519 154h76l1 132z" />
    <glyph glyph-name="questiondown" unicode="&#xbf;" horiz-adv-x="409" 
d="M299 -200q-107 2 -174 53.5t-67 155.5q0 47 18 84.5t44.5 58.5t51.5 32t46 14v120h81v-180q-68 0 -110.5 -32.5t-42.5 -96.5q0 -66 43 -99t110 -33v-77zM259 390q-23 0 -39 16t-16 39t16 39t39 16t39 -16t16 -39t-16 -39t-39 -16z" />
    <glyph glyph-name="Agrave" unicode="&#xc0;" horiz-adv-x="639" 
d="M94 -7l-81 17l273 678h73l267 -677l-87 -16l-84 219h-274zM211 289h215l-107 279zM362 716l-166 112l50 61l153 -127z" />
    <glyph glyph-name="Aacute" unicode="&#xc1;" horiz-adv-x="639" 
d="M94 -7l-81 17l273 678h73l267 -677l-87 -16l-84 219h-274zM211 289h215l-107 279zM290 716l-37 45l153 128l50 -62z" />
    <glyph glyph-name="Acircumflex" unicode="&#xc2;" horiz-adv-x="639" 
d="M218 717l-48 51l149 113l149 -113l-48 -51l-101 83zM94 -7l-81 17l273 678h73l267 -677l-87 -16l-84 219h-274zM211 289h215l-107 279z" />
    <glyph glyph-name="Atilde" unicode="&#xc3;" horiz-adv-x="639" 
d="M94 -7l-81 17l273 678h73l267 -677l-87 -16l-84 219h-274zM211 289h215l-107 279zM478 802q-38 -74 -94 -74q-23 0 -61 20.5t-52 20.5q-35 0 -56 -40l-43 33q15 31 41 51t56 20q19 0 58 -20t52 -20q19 0 30.5 9.5t22.5 29.5z" />
    <glyph glyph-name="Adieresis" unicode="&#xc4;" horiz-adv-x="639" 
d="M232 732q-22 0 -38 16t-16 38t16 38t38 16t38 -16t16 -38t-16 -38t-38 -16zM407 732q-23 0 -39 16t-16 38t16.5 38t38.5 16t38 -16t16 -38t-15.5 -38t-38.5 -16zM94 -7l-81 17l273 678h73l267 -677l-87 -16l-84 219h-274zM211 289h215l-107 279z" />
    <glyph glyph-name="Aring" unicode="&#xc5;" horiz-adv-x="639" 
d="M94 -6l-81 17l271 671q-31 9 -49.5 33.5t-18.5 58.5q0 44 30.5 71.5t76.5 27.5t76.5 -27.5t30.5 -71.5q0 -34 -18.5 -58.5t-48.5 -33.5l263 -670l-86 -17l-85 219h-274zM323 724q19 0 32.5 14.5t13.5 35.5t-13.5 35t-32.5 14t-32 -14t-13 -35t13 -35.5t32 -14.5zM211 289
h215l-107 279z" />
    <glyph glyph-name="AE" unicode="&#xc6;" horiz-adv-x="845" 
d="M75 -7l-79 20l410 675h394v-77h-295v-220h273v-76h-273v-238h295v-77h-380v214h-212zM251 289h169v280z" />
    <glyph glyph-name="Ccedilla" unicode="&#xc7;" horiz-adv-x="559" 
d="M333 -231l-28 49q32 14 43.5 27t11.5 31q0 30 -37 65l22 55q-127 10 -213 103t-86 245q0 156 99.5 253t239.5 97q100 0 158 -39l-36 -68q-50 30 -132 30q-91 0 -167 -74.5t-76 -197.5q0 -117 70.5 -195.5t175.5 -78.5q79 0 135 27l34 -66q-51 -31 -135 -37l-17 -39
q38 -36 38 -82q0 -36 -28.5 -64.5t-71.5 -40.5z" />
    <glyph glyph-name="Egrave" unicode="&#xc8;" horiz-adv-x="510" 
d="M84 0v688h381v-77h-296v-220h274v-76h-274v-238h296v-77h-381zM315 716l-166 112l50 61l153 -127z" />
    <glyph glyph-name="Eacute" unicode="&#xc9;" horiz-adv-x="510" 
d="M84 0v688h381v-77h-296v-220h274v-76h-274v-238h296v-77h-381zM226 716l-37 45l153 128l50 -62z" />
    <glyph glyph-name="Ecircumflex" unicode="&#xca;" horiz-adv-x="510" 
d="M84 0v688h381v-77h-296v-220h274v-76h-274v-238h296v-77h-381zM175 717l-48 51l149 113l149 -113l-48 -51l-101 83z" />
    <glyph glyph-name="Edieresis" unicode="&#xcb;" horiz-adv-x="510" 
d="M184 732q-22 0 -38 16t-16 38t16 38t38 16t38 -16t16 -38t-16 -38t-38 -16zM359 732q-23 0 -39 16t-16 38t16.5 38t38.5 16t38 -16t16 -38t-15.5 -38t-38.5 -16zM84 0v688h381v-77h-296v-220h274v-76h-274v-238h296v-77h-381z" />
    <glyph glyph-name="Igrave" unicode="&#xcc;" horiz-adv-x="253" 
d="M84 0v688h85v-688h-85zM159 716l-166 112l50 61l153 -127z" />
    <glyph glyph-name="Iacute" unicode="&#xcd;" horiz-adv-x="253" 
d="M84 0v688h85v-688h-85zM91 716l-37 45l153 128l50 -62z" />
    <glyph glyph-name="Icircumflex" unicode="&#xce;" horiz-adv-x="253" 
d="M25 717l-48 51l149 113l149 -113l-48 -51l-101 83zM84 0v688h85v-688h-85z" />
    <glyph glyph-name="Idieresis" unicode="&#xcf;" horiz-adv-x="253" 
d="M39 732q-23 0 -38.5 16t-15.5 38t16 38t38 16t38 -16t16 -38t-15.5 -38t-38.5 -16zM214 732q-23 0 -39 16t-16 38t16.5 38t38.5 16t38 -16t16 -38t-16 -38t-38 -16zM84 0v688h85v-688h-85z" />
    <glyph glyph-name="Eth" unicode="&#xd0;" horiz-adv-x="702" 
d="M85 0v323h-75v58h75v307h240q87 0 153 -28t103.5 -76.5t56 -106t18.5 -123.5q0 -153 -98.5 -253.5t-245.5 -100.5h-227zM169 77h123q47 0 92.5 14.5t88.5 45.5t69.5 88.5t26.5 134.5q0 66 -20.5 114.5t-49 74t-69.5 40.5t-70.5 18.5t-62.5 3.5h-128v-230h127v-58h-127
v-246z" />
    <glyph glyph-name="Ntilde" unicode="&#xd1;" horiz-adv-x="748" 
d="M84 0v688h97l397 -559v559h85v-688h-96l-397 559v-559h-86zM528 802q-38 -74 -94 -74q-23 0 -61 20.5t-52 20.5q-35 0 -56 -40l-43 33q15 31 41 51t56 20q19 0 58 -20t52 -20q19 0 30.5 9.5t22.5 29.5z" />
    <glyph glyph-name="Ograve" unicode="&#xd2;" horiz-adv-x="771" 
d="M427 716l-166 112l50 61l153 -127zM387 -6q-151 0 -246 97.5t-95 252.5q0 149 93.5 249.5t248.5 100.5q148 0 242.5 -102t94.5 -247q0 -156 -94 -253.5t-244 -97.5zM383 71q117 0 187 79t70 194q0 116 -68.5 194.5t-185.5 78.5t-185.5 -78.5t-68.5 -194.5
q0 -110 68 -191.5t183 -81.5z" />
    <glyph glyph-name="Oacute" unicode="&#xd3;" horiz-adv-x="771" 
d="M348 716l-37 45l153 128l50 -62zM387 -6q-151 0 -246 97.5t-95 252.5q0 149 93.5 249.5t248.5 100.5q148 0 242.5 -102t94.5 -247q0 -156 -94 -253.5t-244 -97.5zM383 71q117 0 187 79t70 194q0 116 -68.5 194.5t-185.5 78.5t-185.5 -78.5t-68.5 -194.5q0 -110 68 -191.5
t183 -81.5z" />
    <glyph glyph-name="Ocircumflex" unicode="&#xd4;" horiz-adv-x="771" 
d="M286 717l-48 51l149 113l149 -113l-48 -51l-101 83zM387 -6q-151 0 -246 97.5t-95 252.5q0 149 93.5 249.5t248.5 100.5q148 0 242.5 -102t94.5 -247q0 -156 -94 -253.5t-244 -97.5zM383 71q117 0 187 79t70 194q0 116 -68.5 194.5t-185.5 78.5t-185.5 -78.5
t-68.5 -194.5q0 -110 68 -191.5t183 -81.5z" />
    <glyph glyph-name="Otilde" unicode="&#xd5;" horiz-adv-x="771" 
d="M387 -6q-151 0 -246 97.5t-95 252.5q0 149 93.5 249.5t248.5 100.5q148 0 242.5 -102t94.5 -247q0 -156 -94 -253.5t-244 -97.5zM383 71q117 0 187 79t70 194q0 116 -68.5 194.5t-185.5 78.5t-185.5 -78.5t-68.5 -194.5q0 -110 68 -191.5t183 -81.5zM541 802
q-38 -74 -94 -74q-23 0 -61 20.5t-52 20.5q-35 0 -56 -40l-43 33q15 31 41 51t56 20q19 0 58 -20t52 -20q19 0 30.5 9.5t22.5 29.5z" />
    <glyph glyph-name="Odieresis" unicode="&#xd6;" horiz-adv-x="771" 
d="M301 732q-23 0 -38.5 16t-15.5 38t16 38t38 16t38 -16t16 -38t-15.5 -38t-38.5 -16zM476 732q-23 0 -39 16t-16 38t16.5 38t38.5 16t38 -16t16 -38t-16 -38t-38 -16zM387 -6q-151 0 -246 97.5t-95 252.5q0 149 93.5 249.5t248.5 100.5q148 0 242.5 -102t94.5 -247
q0 -156 -94 -253.5t-244 -97.5zM383 71q117 0 187 79t70 194q0 116 -68.5 194.5t-185.5 78.5t-185.5 -78.5t-68.5 -194.5q0 -110 68 -191.5t183 -81.5z" />
    <glyph glyph-name="multiply" unicode="&#xd7;" horiz-adv-x="491" 
d="M105 141l-52 52l141 140l-141 141l52 52l140 -141l141 141l52 -52l-142 -140l142 -141l-52 -52l-141 141z" />
    <glyph glyph-name="Oslash" unicode="&#xd8;" horiz-adv-x="771" 
d="M387 -6q-131 0 -222 75l-72 -74l-48 44l74 78q-73 92 -73 227q0 149 93.5 249.5t248.5 100.5q125 0 214 -75l72 74l49 -45l-74 -77q76 -98 76 -226q0 -156 -94 -253.5t-244 -97.5zM383 71q117 0 187 79t70 194q0 97 -48 168l-369 -383q66 -58 160 -58zM180 179l367 383
q-66 55 -161 55q-117 0 -185.5 -78.5t-68.5 -194.5q0 -93 48 -165z" />
    <glyph glyph-name="Ugrave" unicode="&#xd9;" horiz-adv-x="672" 
d="M338 -7q-116 0 -191 61.5t-75 168.5v465h85v-456q0 -75 51.5 -118t132.5 -43t127.5 41t46.5 128v448h85v-464q0 -109 -76 -170t-186 -61zM391 716l-166 112l50 61l153 -127z" />
    <glyph glyph-name="Uacute" unicode="&#xda;" horiz-adv-x="672" 
d="M338 -7q-116 0 -191 61.5t-75 168.5v465h85v-456q0 -75 51.5 -118t132.5 -43t127.5 41t46.5 128v448h85v-464q0 -109 -76 -170t-186 -61zM303 716l-37 45l153 128l50 -62z" />
    <glyph glyph-name="Ucircumflex" unicode="&#xdb;" horiz-adv-x="672" 
d="M338 -7q-116 0 -191 61.5t-75 168.5v465h85v-456q0 -75 51.5 -118t132.5 -43t127.5 41t46.5 128v448h85v-464q0 -109 -76 -170t-186 -61zM240 717l-48 51l149 113l149 -113l-48 -51l-101 83z" />
    <glyph glyph-name="Udieresis" unicode="&#xdc;" horiz-adv-x="672" 
d="M254 732q-22 0 -38 16t-16 38t16 38t38 16t38 -16t16 -38t-16 -38t-38 -16zM429 732q-23 0 -39 16t-16 38t16.5 38t38.5 16t38 -16t16 -38t-15.5 -38t-38.5 -16zM338 -7q-116 0 -191 61.5t-75 168.5v465h85v-456q0 -75 51.5 -118t132.5 -43t127.5 41t46.5 128v448h85
v-464q0 -109 -76 -170t-186 -61z" />
    <glyph glyph-name="Yacute" unicode="&#xdd;" horiz-adv-x="548" 
d="M231 0v313l-232 352l81 28l196 -299l195 299l78 -29l-233 -351v-313h-85zM240 716l-37 45l153 128l50 -62z" />
    <glyph glyph-name="Thorn" unicode="&#xde;" horiz-adv-x="517" 
d="M84 0v688h84v-133h97q40 0 76.5 -9.5t69 -29.5t51.5 -58t19 -89q0 -95 -66 -157t-174 -62h-72v-150h-85zM169 224h60q84 0 124.5 41.5t40.5 102.5q0 110 -143 110h-82v-254z" />
    <glyph glyph-name="germandbls" unicode="&#xdf;" horiz-adv-x="527" 
d="M323 -6q-68 0 -110 30l38 63q31 -22 72 -22q32 0 53.5 19t21.5 54q0 27 -18.5 47t-45 34.5t-53 31t-45 46t-18.5 70.5q0 34 12.5 59.5t30 40.5t35.5 28.5t30.5 32t12.5 41.5q0 40 -27.5 61t-64.5 21q-41 0 -68.5 -28t-27.5 -74v-549h-77v553q0 80 51 124t121 44
q89 0 132 -46.5t43 -103.5q0 -33 -12.5 -58.5t-30.5 -41.5t-36 -29.5t-30.5 -30.5t-12.5 -37q0 -24 18.5 -43.5t45.5 -35.5t54 -34.5t45.5 -49.5t18.5 -72q0 -63 -47 -104t-111 -41z" />
    <glyph glyph-name="agrave" unicode="&#xe0;" horiz-adv-x="450" 
d="M369 -13l-65 60q-73 -53 -138 -53q-58 0 -92.5 32.5t-34.5 86.5q0 67 50 100.5t147 57.5l56 12v39q0 75 -79 75q-41 0 -116 -48l-38 56q85 61 157 61q66 0 110.5 -32.5t44.5 -101.5v-243l51 -48zM178 58q46 0 114 48v118l-48 -11q-127 -33 -127 -94q0 -32 17 -46.5
t44 -14.5zM260 517l-156 125l53 58l144 -141z" />
    <glyph glyph-name="aacute" unicode="&#xe1;" horiz-adv-x="450" 
d="M369 -13l-65 60q-73 -53 -138 -53q-58 0 -92.5 32.5t-34.5 86.5q0 67 50 100.5t147 57.5l56 12v39q0 75 -79 75q-41 0 -116 -48l-38 56q85 61 157 61q66 0 110.5 -32.5t44.5 -101.5v-243l51 -48zM178 58q46 0 114 48v118l-48 -11q-127 -33 -127 -94q0 -32 17 -46.5
t44 -14.5zM199 517l-41 42l143 141l54 -58z" />
    <glyph glyph-name="acircumflex" unicode="&#xe2;" horiz-adv-x="450" 
d="M119 525l-48 52l150 113l148 -113l-48 -52l-100 84zM369 -13l-65 60q-73 -53 -138 -53q-58 0 -92.5 32.5t-34.5 86.5q0 67 50 100.5t147 57.5l56 12v39q0 75 -79 75q-41 0 -116 -48l-38 56q85 61 157 61q66 0 110.5 -32.5t44.5 -101.5v-243l51 -48zM178 58q46 0 114 48
v118l-48 -11q-127 -33 -127 -94q0 -32 17 -46.5t44 -14.5z" />
    <glyph glyph-name="atilde" unicode="&#xe3;" horiz-adv-x="450" 
d="M369 -13l-65 60q-73 -53 -138 -53q-58 0 -92.5 32.5t-34.5 86.5q0 67 50 100.5t147 57.5l56 12v39q0 75 -79 75q-41 0 -116 -48l-38 56q85 61 157 61q66 0 110.5 -32.5t44.5 -101.5v-243l51 -48zM178 58q46 0 114 48v118l-48 -11q-127 -33 -127 -94q0 -32 17 -46.5
t44 -14.5zM374 625q-13 -29 -39 -51.5t-59 -22.5q-22 0 -58.5 20t-50.5 20q-36 0 -56 -40l-43 33q13 31 39.5 52t56.5 21q22 0 58 -20.5t53 -20.5q19 0 30 9.5t23 29.5z" />
    <glyph glyph-name="adieresis" unicode="&#xe4;" horiz-adv-x="450" 
d="M129 555q-23 0 -38.5 15.5t-15.5 38.5q0 22 16 38t38 16t38 -16t16 -38q0 -23 -15.5 -38.5t-38.5 -15.5zM304 555q-23 0 -39 16t-16 38t16.5 38t38.5 16t38 -16t16 -38q0 -23 -16 -38.5t-38 -15.5zM369 -13l-65 60q-73 -53 -138 -53q-58 0 -92.5 32.5t-34.5 86.5
q0 67 50 100.5t147 57.5l56 12v39q0 75 -79 75q-41 0 -116 -48l-38 56q85 61 157 61q66 0 110.5 -32.5t44.5 -101.5v-243l51 -48zM178 58q46 0 114 48v118l-48 -11q-127 -33 -127 -94q0 -32 17 -46.5t44 -14.5z" />
    <glyph glyph-name="aring" unicode="&#xe5;" horiz-adv-x="450" 
d="M369 -13l-65 60q-73 -53 -138 -53q-58 0 -92.5 32.5t-34.5 86.5q0 67 50 100.5t147 57.5l56 12v39q0 75 -79 75q-41 0 -116 -48l-38 56q85 61 157 61q66 0 110.5 -32.5t44.5 -101.5v-243l51 -48zM178 58q46 0 114 48v118l-48 -11q-127 -33 -127 -94q0 -32 17 -46.5
t44 -14.5zM218 518q-44 0 -73.5 27t-29.5 70t29.5 69.5t73.5 26.5t73.5 -26.5t29.5 -69.5t-29.5 -70t-73.5 -27zM218 564q19 0 33 15t14 36t-14 35.5t-33 14.5t-33 -14.5t-14 -35.5t14 -36t33 -15z" />
    <glyph glyph-name="ae" unicode="&#xe6;" horiz-adv-x="697" 
d="M160 -6q-57 0 -91.5 32.5t-34.5 86.5q0 67 50 100.5t147 57.5l56 12v40q0 73 -80 73q-43 0 -116 -47l-38 56q85 61 158 61q97 0 135 -63q55 63 147 63q88 0 131.5 -57t43.5 -148v-44h-302q2 -66 38 -110t100 -44q55 0 115 32l7 -15l16 -32l8 -16q-65 -38 -150 -38
q-111 0 -171 79q-88 -79 -169 -79zM172 60q48 0 115 46v118l-49 -11q-126 -33 -126 -94q0 -59 60 -59zM369 279h219q0 50 -25 84.5t-73 34.5q-52 0 -83 -36.5t-38 -82.5z" />
    <glyph glyph-name="ccedilla" unicode="&#xe7;" horiz-adv-x="417" 
d="M205 -231l-28 49q32 14 43.5 27t11.5 31q0 30 -37 65l24 57q-82 12 -130 76t-48 153q0 108 63.5 173.5t156.5 65.5q75 0 137 -39l-37 -63q-47 30 -96 30q-64 0 -104 -46t-40 -121t41 -118t103 -43q54 0 103 32l38 -62q-57 -35 -122 -40l-16 -40q37 -35 37 -82
q0 -36 -28.5 -64.5t-71.5 -40.5z" />
    <glyph glyph-name="egrave" unicode="&#xe8;" horiz-adv-x="450" 
d="M255 -6q-103 0 -159.5 64.5t-56.5 167.5t55 171.5t154 68.5q88 0 131 -57t43 -148v-44h-303q2 -65 39 -108.5t101 -43.5q59 0 115 30l8 -15l14 -32l8 -16q-65 -38 -149 -38zM123 279h220q0 50 -25 84.5t-74 34.5q-52 0 -83 -36.5t-38 -82.5zM268 517l-156 125l53 58
l144 -141z" />
    <glyph glyph-name="eacute" unicode="&#xe9;" horiz-adv-x="450" 
d="M204 517l-41 42l143 141l54 -58zM255 -6q-103 0 -159.5 64.5t-56.5 167.5t55 171.5t154 68.5q88 0 131 -57t43 -148v-44h-303q2 -65 39 -108.5t101 -43.5q59 0 115 30l8 -15l14 -32l8 -16q-65 -38 -149 -38zM123 279h220q0 50 -25 84.5t-74 34.5q-52 0 -83 -36.5
t-38 -82.5z" />
    <glyph glyph-name="ecircumflex" unicode="&#xea;" horiz-adv-x="450" 
d="M145 525l-48 52l150 113l148 -113l-48 -52l-100 84zM255 -6q-103 0 -159.5 64.5t-56.5 167.5t55 171.5t154 68.5q88 0 131 -57t43 -148v-44h-303q2 -65 39 -108.5t101 -43.5q59 0 115 30l8 -15l14 -32l8 -16q-65 -38 -149 -38zM123 279h220q0 50 -25 84.5t-74 34.5
q-52 0 -83 -36.5t-38 -82.5z" />
    <glyph glyph-name="edieresis" unicode="&#xeb;" horiz-adv-x="450" 
d="M158 555q-22 0 -38 15.5t-16 38.5q0 22 16 38t38 16t38 -16t16 -38q0 -23 -16 -38.5t-38 -15.5zM333 555q-23 0 -39 16t-16 38t16.5 38t38.5 16t38 -16t16 -38q0 -23 -15.5 -38.5t-38.5 -15.5zM255 -6q-103 0 -159.5 64.5t-56.5 167.5t55 171.5t154 68.5q88 0 131 -57
t43 -148v-44h-303q2 -65 39 -108.5t101 -43.5q59 0 115 30l8 -15l14 -32l8 -16q-65 -38 -149 -38zM123 279h220q0 50 -25 84.5t-74 34.5q-52 0 -83 -36.5t-38 -82.5z" />
    <glyph glyph-name="igrave" unicode="&#xec;" horiz-adv-x="249" 
d="M85 0v460h78v-460h-78zM167 517l-156 125l53 58l144 -141z" />
    <glyph glyph-name="iacute" unicode="&#xed;" horiz-adv-x="249" 
d="M85 0v460h78v-460h-78zM84 517l-41 42l143 141l54 -58z" />
    <glyph glyph-name="icircumflex" unicode="&#xee;" horiz-adv-x="249" 
d="M85 0v460h78v-460h-78zM23 525l-48 52l150 113l148 -113l-48 -52l-100 84z" />
    <glyph glyph-name="idieresis" unicode="&#xef;" horiz-adv-x="249" 
d="M85 0v460h78v-460h-78zM38 555q-22 0 -38 15.5t-16 38.5q0 22 16 38t38 16t38 -16t16 -38q0 -23 -16 -38.5t-38 -15.5zM213 555q-23 0 -39 16t-16 38t16.5 38t38.5 16t38 -16t16 -38q0 -23 -15.5 -38.5t-38.5 -15.5z" />
    <glyph glyph-name="eth" unicode="&#xf0;" horiz-adv-x="522" 
d="M256 -6q-102 0 -160.5 67.5t-58.5 177.5q0 96 53.5 161.5t144.5 65.5q73 0 137 -53q-16 76 -69 148l-87 -54l-30 48l78 49q-41 48 -65 64l58 53q24 -12 78 -72l89 55l32 -48l-82 -51q99 -143 99 -323q0 -77 -20 -139.5t-70.5 -105.5t-126.5 -43zM253 64q74 0 107.5 62
t33.5 147q0 24 -3 45q-76 76 -152 76q-52 0 -87 -39.5t-35 -118.5q0 -81 37.5 -126.5t98.5 -45.5z" />
    <glyph glyph-name="ntilde" unicode="&#xf1;" horiz-adv-x="507" 
d="M411 625q-13 -29 -39 -51.5t-59 -22.5q-22 0 -58.5 20t-50.5 20q-36 0 -56 -40l-43 33q13 31 39.5 52t56.5 21q22 0 58.5 -20.5t52.5 -20.5q19 0 30 9.5t23 29.5zM74 0v460h79v-59q71 65 146 65q69 0 106 -34.5t37 -90.5v-341h-78v319q0 75 -73 75q-39 0 -79 -25.5
t-59 -45.5v-323h-79z" />
    <glyph glyph-name="ograve" unicode="&#xf2;" horiz-adv-x="511" 
d="M292 517l-156 125l53 58l144 -141zM258 -6q-108 0 -166 70t-58 165q0 41 13.5 81.5t39 76t70 58t100.5 22.5q46 0 83.5 -15t62.5 -39t42 -55.5t24.5 -63.5t7.5 -64q0 -41 -13 -81t-38.5 -75.5t-69 -57.5t-98.5 -22zM256 65q55 0 97.5 41.5t42.5 123.5q0 81 -43 122.5
t-95 41.5q-53 0 -98 -40.5t-45 -124.5q0 -78 42.5 -121t98.5 -43z" />
    <glyph glyph-name="oacute" unicode="&#xf3;" horiz-adv-x="511" 
d="M227 517l-41 42l143 141l54 -58zM258 -6q-108 0 -166 70t-58 165q0 41 13.5 81.5t39 76t70 58t100.5 22.5q46 0 83.5 -15t62.5 -39t42 -55.5t24.5 -63.5t7.5 -64q0 -41 -13 -81t-38.5 -75.5t-69 -57.5t-98.5 -22zM256 65q55 0 97.5 41.5t42.5 123.5q0 81 -43 122.5
t-95 41.5q-53 0 -98 -40.5t-45 -124.5q0 -78 42.5 -121t98.5 -43z" />
    <glyph glyph-name="ocircumflex" unicode="&#xf4;" horiz-adv-x="511" 
d="M156 525l-48 52l150 113l148 -113l-48 -52l-100 84zM258 -6q-108 0 -166 70t-58 165q0 41 13.5 81.5t39 76t70 58t100.5 22.5q46 0 83.5 -15t62.5 -39t42 -55.5t24.5 -63.5t7.5 -64q0 -41 -13 -81t-38.5 -75.5t-69 -57.5t-98.5 -22zM256 65q55 0 97.5 41.5t42.5 123.5
q0 81 -43 122.5t-95 41.5q-53 0 -98 -40.5t-45 -124.5q0 -78 42.5 -121t98.5 -43z" />
    <glyph glyph-name="otilde" unicode="&#xf5;" horiz-adv-x="511" 
d="M258 -6q-108 0 -166 70t-58 165q0 41 13.5 81.5t39 76t70 58t100.5 22.5q46 0 83.5 -15t62.5 -39t42 -55.5t24.5 -63.5t7.5 -64q0 -41 -13 -81t-38.5 -75.5t-69 -57.5t-98.5 -22zM256 65q55 0 97.5 41.5t42.5 123.5q0 81 -43 122.5t-95 41.5q-53 0 -98 -40.5t-45 -124.5
q0 -78 42.5 -121t98.5 -43zM408 625q-13 -29 -39 -51.5t-59 -22.5q-22 0 -58.5 20t-50.5 20q-36 0 -56 -40l-43 33q13 31 39.5 52t56.5 21q22 0 58 -20.5t53 -20.5q19 0 30 9.5t23 29.5z" />
    <glyph glyph-name="odieresis" unicode="&#xf6;" horiz-adv-x="511" 
d="M169 555q-23 0 -38.5 15.5t-15.5 38.5q0 22 16 38t38 16t38 -16t16 -38q0 -23 -15.5 -38.5t-38.5 -15.5zM344 555q-23 0 -39 16t-16 38t16.5 38t38.5 16t38 -16t16 -38q0 -23 -16 -38.5t-38 -15.5zM258 -6q-108 0 -166 70t-58 165q0 41 13.5 81.5t39 76t70 58t100.5 22.5
q46 0 83.5 -15t62.5 -39t42 -55.5t24.5 -63.5t7.5 -64q0 -41 -13 -81t-38.5 -75.5t-69 -57.5t-98.5 -22zM256 65q55 0 97.5 41.5t42.5 123.5q0 81 -43 122.5t-95 41.5q-53 0 -98 -40.5t-45 -124.5q0 -78 42.5 -121t98.5 -43z" />
    <glyph glyph-name="divide" unicode="&#xf7;" horiz-adv-x="473" 
d="M236 106q-24 0 -41 17t-17 41t17 41t41 17t41 -17t17 -40q0 -25 -17 -42t-41 -17zM236 465q-24 0 -41 17t-17 42q0 23 17 40.5t41 17.5t41 -17.5t17 -40.5q0 -25 -17 -42t-41 -17zM20 306v74h433v-74h-433z" />
    <glyph glyph-name="oslash" unicode="&#xf8;" horiz-adv-x="511" 
d="M78 -8l-45 39l45 51q-44 63 -44 147q0 41 13.5 81.5t39 76t70 58t100.5 22.5q75 0 130 -40l44 51l44 -40l-47 -54q49 -65 49 -154q0 -41 -13 -81t-38.5 -75.5t-69 -57.5t-98.5 -22q-82 0 -139 44zM256 65q55 0 97.5 41t42.5 124q0 56 -24 93l-201 -227q38 -31 85 -31z
M135 144l199 226q-34 24 -76 24q-53 0 -98 -40.5t-45 -124.5q0 -48 20 -85z" />
    <glyph glyph-name="ugrave" unicode="&#xf9;" horiz-adv-x="504" 
d="M209 -6q-69 0 -106 34.5t-37 90.5v341h78v-319q0 -75 74 -75q38 0 76 25t57 47v322h79v-460h-79v60q-74 -66 -142 -66zM275 517l-156 125l53 58l144 -141z" />
    <glyph glyph-name="uacute" unicode="&#xfa;" horiz-adv-x="504" 
d="M232 517l-41 42l143 141l54 -58zM209 -6q-69 0 -106 34.5t-37 90.5v341h78v-319q0 -75 74 -75q38 0 76 25t57 47v322h79v-460h-79v60q-74 -66 -142 -66z" />
    <glyph glyph-name="ucircumflex" unicode="&#xfb;" horiz-adv-x="504" 
d="M146 525l-48 52l150 113l148 -113l-48 -52l-100 84zM209 -6q-69 0 -106 34.5t-37 90.5v341h78v-319q0 -75 74 -75q38 0 76 25t57 47v322h79v-460h-79v60q-74 -66 -142 -66z" />
    <glyph glyph-name="udieresis" unicode="&#xfc;" horiz-adv-x="504" 
d="M160 555q-22 0 -38 15.5t-16 38.5q0 22 16 38t38 16t38 -16t16 -38q0 -23 -16 -38.5t-38 -15.5zM335 555q-23 0 -39 16t-16 38t16.5 38t38.5 16t38 -16t16 -38q0 -23 -15.5 -38.5t-38.5 -15.5zM209 -6q-69 0 -106 34.5t-37 90.5v341h78v-319q0 -75 74 -75q38 0 76 25
t57 47v322h79v-460h-79v60q-74 -66 -142 -66z" />
    <glyph glyph-name="yacute" unicode="&#xfd;" horiz-adv-x="461" 
d="M45 -238q-22 0 -34 1v70q9 -1 27 -1q38 0 68 21t44 56l43 106l-182 432l79 18l145 -355l142 355l74 -18l-226 -553q-55 -132 -180 -132zM220 517l-41 42l143 141l54 -58z" />
    <glyph glyph-name="thorn" unicode="&#xfe;" horiz-adv-x="526" 
d="M77 -239v960h79v-310q2 1 13.5 8.5t18.5 12t21 12t26 11.5t28.5 7.5t31.5 3.5q96 0 145 -68.5t49 -165.5q0 -93 -53 -165.5t-149 -72.5q-63 0 -132 54v-287h-78zM283 65q56 0 92 46.5t36 118.5q0 73 -32.5 118.5t-89.5 45.5q-69 0 -133 -59v-210q68 -60 127 -60z" />
    <glyph glyph-name="ydieresis" unicode="&#xff;" horiz-adv-x="461" 
d="M45 -238q-22 0 -34 1v70q9 -1 27 -1q38 0 68 21t44 56l43 106l-182 432l79 18l145 -355l142 355l74 -18l-226 -553q-55 -132 -180 -132zM147 555q-23 0 -38.5 15.5t-15.5 38.5q0 22 16 38t38 16t38 -16t16 -38q0 -23 -15.5 -38.5t-38.5 -15.5zM322 555q-23 0 -39 16
t-16 38t16.5 38t38.5 16t38 -16t16 -38q0 -23 -16 -38.5t-38 -15.5z" />
    <glyph glyph-name="Amacron" unicode="&#x100;" horiz-adv-x="639" 
d="M94 -7l-81 17l273 678h73l267 -677l-87 -16l-84 219h-274zM211 289h215l-107 279zM206 749v68h229v-68h-229z" />
    <glyph glyph-name="amacron" unicode="&#x101;" horiz-adv-x="450" 
d="M369 -13l-65 60q-73 -53 -138 -53q-58 0 -92.5 32.5t-34.5 86.5q0 67 50 100.5t147 57.5l56 12v39q0 75 -79 75q-41 0 -116 -48l-38 56q85 61 157 61q66 0 110.5 -32.5t44.5 -101.5v-243l51 -48zM178 58q46 0 114 48v118l-48 -11q-127 -33 -127 -94q0 -32 17 -46.5
t44 -14.5zM107 548v68h229v-68h-229z" />
    <glyph glyph-name="Abreve" unicode="&#x102;" horiz-adv-x="639" 
d="M94 -7l-81 17l273 678h73l267 -677l-87 -16l-84 219h-274zM211 289h215l-107 279zM322 723q-60 0 -97.5 33.5t-45.5 62.5l52 25l3 -4q2 -3 4.5 -6.5t7 -9t10 -10.5t12.5 -10t15 -8.5t18 -6t21 -2.5q27 0 49.5 14t30.5 25.5t11 17.5l51 -24q-9 -29 -45.5 -63t-96.5 -34z
" />
    <glyph glyph-name="abreve" unicode="&#x103;" horiz-adv-x="450" 
d="M369 -13l-65 60q-73 -53 -138 -53q-58 0 -92.5 32.5t-34.5 86.5q0 67 50 100.5t147 57.5l56 12v39q0 75 -79 75q-41 0 -116 -48l-38 56q85 61 157 61q66 0 110.5 -32.5t44.5 -101.5v-243l51 -48zM178 58q46 0 114 48v118l-48 -11q-127 -33 -127 -94q0 -32 17 -46.5
t44 -14.5zM218 544q-60 0 -97.5 33.5t-45.5 62.5l52 25l3 -3q2 -4 4.5 -7.5t7 -9t10 -10.5t12.5 -10t15 -8.5t18 -6t21 -2.5q27 0 49.5 14t30.5 25.5t11 17.5l51 -24q-9 -29 -45.5 -63t-96.5 -34z" />
    <glyph glyph-name="Aogonek" unicode="&#x104;" horiz-adv-x="639" 
d="M570 -191q-48 0 -74 24.5t-26 65.5q0 55 65 107l-80 208h-274l-87 -221l-80 20l272 675h73l266 -675q-82 -54 -82 -109q0 -16 11 -26t29 -10q24 0 39 6l9 -54q-29 -11 -61 -11zM211 289h215l-107 279z" />
    <glyph glyph-name="aogonek" unicode="&#x105;" horiz-adv-x="450" 
d="M415 -179q-29 -11 -62 -11q-48 0 -74 24.5t-26 65.5q0 60 82 118l-31 29q-73 -53 -138 -53q-58 0 -92.5 32.5t-34.5 86.5q0 67 50 100.5t147 57.5l56 12v39q0 75 -79 75q-41 0 -116 -48l-38 56q85 61 157 61q66 0 110.5 -32.5t44.5 -101.5v-243l60 -59
q-105 -69 -105 -125q0 -16 11 -26t29 -10q25 0 40 6zM292 224l-59 -14q-116 -30 -116 -91q0 -32 17 -46.5t44 -14.5q46 0 114 48v118z" />
    <glyph glyph-name="Cacute" unicode="&#x106;" horiz-adv-x="559" 
d="M347 716l-37 45l153 128l50 -62zM378 -6q-139 0 -235.5 94t-96.5 256q0 156 99.5 253t239.5 97q100 0 158 -39l-36 -68q-50 30 -132 30q-91 0 -167 -74.5t-76 -197.5q0 -117 70.5 -195.5t175.5 -78.5q79 0 135 27l34 -66q-64 -38 -169 -38z" />
    <glyph glyph-name="cacute" unicode="&#x107;" horiz-adv-x="417" 
d="M216 517l-41 42l143 141l54 -58zM260 -6q-100 0 -159.5 66.5t-59.5 166.5q0 108 63.5 173.5t156.5 65.5q75 0 137 -39l-37 -63q-47 30 -96 30q-64 0 -104 -46t-40 -121t41 -118t103 -43q54 0 103 32l38 -62q-70 -42 -146 -42z" />
    <glyph glyph-name="Ccircumflex" unicode="&#x108;" horiz-adv-x="559" 
d="M282 717l-48 51l149 113l149 -113l-48 -51l-101 83zM378 -6q-139 0 -235.5 94t-96.5 256q0 156 99.5 253t239.5 97q100 0 158 -39l-36 -68q-50 30 -132 30q-91 0 -167 -74.5t-76 -197.5q0 -117 70.5 -195.5t175.5 -78.5q79 0 135 27l34 -66q-64 -38 -169 -38z" />
    <glyph glyph-name="ccircumflex" unicode="&#x109;" horiz-adv-x="417" 
d="M162 525l-48 52l150 113l148 -113l-48 -52l-100 84zM260 -6q-100 0 -159.5 66.5t-59.5 166.5q0 108 63.5 173.5t156.5 65.5q75 0 137 -39l-37 -63q-47 30 -96 30q-64 0 -104 -46t-40 -121t41 -118t103 -43q54 0 103 32l38 -62q-70 -42 -146 -42z" />
    <glyph glyph-name="Cdotaccent" unicode="&#x10a;" horiz-adv-x="559" 
d="M378 -6q-139 0 -235.5 94t-96.5 256q0 156 99.5 253t239.5 97q100 0 158 -39l-36 -68q-50 30 -132 30q-91 0 -167 -74.5t-76 -197.5q0 -117 70.5 -195.5t175.5 -78.5q79 0 135 27l34 -66q-64 -38 -169 -38zM383 734q-23 0 -39 16t-16 38t16 38t39 16t38.5 -16t15.5 -38
t-15.5 -38t-38.5 -16z" />
    <glyph glyph-name="cdotaccent" unicode="&#x10b;" horiz-adv-x="417" 
d="M260 -6q-100 0 -159.5 66.5t-59.5 166.5q0 108 63.5 173.5t156.5 65.5q75 0 137 -39l-37 -63q-47 30 -96 30q-64 0 -104 -46t-40 -121t41 -118t103 -43q54 0 103 32l38 -62q-70 -42 -146 -42zM263 557q-23 0 -38.5 15.5t-15.5 38.5t15.5 38.5t38.5 15.5t38.5 -15.5
t15.5 -38.5t-15.5 -38.5t-38.5 -15.5z" />
    <glyph glyph-name="Ccaron" unicode="&#x10c;" horiz-adv-x="559" 
d="M379 716l-149 113l48 51l101 -83l101 83l48 -51zM378 -6q-139 0 -235.5 94t-96.5 256q0 156 99.5 253t239.5 97q100 0 158 -39l-36 -68q-50 30 -132 30q-91 0 -167 -74.5t-76 -197.5q0 -117 70.5 -195.5t175.5 -78.5q79 0 135 27l34 -66q-64 -38 -169 -38z" />
    <glyph glyph-name="ccaron" unicode="&#x10d;" horiz-adv-x="417" 
d="M262 526l-150 113l48 51l102 -83l100 83l48 -51zM260 -6q-100 0 -159.5 66.5t-59.5 166.5q0 108 63.5 173.5t156.5 65.5q75 0 137 -39l-37 -63q-47 30 -96 30q-64 0 -104 -46t-40 -121t41 -118t103 -43q54 0 103 32l38 -62q-70 -42 -146 -42z" />
    <glyph glyph-name="Dcaron" unicode="&#x10e;" horiz-adv-x="702" 
d="M312 716l-149 113l48 51l101 -83l101 83l48 -51zM84 0v688h240q87 0 153.5 -28t104 -76.5t56 -106t18.5 -123.5q0 -153 -97 -253.5t-244 -100.5h-231zM169 76h126q47 0 92 14.5t87 45.5t68 89t26 135q0 66 -20.5 114.5t-49 74t-69.5 40.5t-70.5 18.5t-62.5 3.5h-127v-535
z" />
    <glyph glyph-name="dcaron" unicode="&#x10f;" horiz-adv-x="570" 
d="M495 551l29 170h81l-52 -170h-58zM239 -6q-96 0 -149 70.5t-53 164.5q0 95 50 166t144 71q19 0 37.5 -4t35 -11.5t27.5 -13t24.5 -14t16.5 -10.5v308h77v-721h-77v49q-73 -55 -133 -55zM244 65q12 0 23.5 2t23 7t19 8.5t19.5 12t15.5 11t15.5 12.5l12 10v207
q-72 59 -133 59q-58 0 -90.5 -45.5t-32.5 -118.5q0 -72 36 -118.5t92 -46.5z" />
    <glyph glyph-name="Dcroat" unicode="&#x110;" horiz-adv-x="702" 
d="M85 0v323h-75v58h75v307h240q87 0 153 -28t103.5 -76.5t56 -106t18.5 -123.5q0 -153 -98.5 -253.5t-245.5 -100.5h-227zM169 77h123q47 0 92.5 14.5t88.5 45.5t69.5 88.5t26.5 134.5q0 66 -20.5 114.5t-49 74t-69.5 40.5t-70.5 18.5t-62.5 3.5h-128v-230h127v-58h-127
v-246z" />
    <glyph glyph-name="dcroat" unicode="&#x111;" horiz-adv-x="524" 
d="M239 -6q-96 0 -149 70.5t-53 164.5q0 95 50 166t144 71q19 0 37.5 -4t35 -11.5t27.5 -13t24.5 -14t16.5 -10.5v133h-122v62h122v113h77v-113h63v-62h-63v-546h-77v49q-73 -55 -133 -55zM244 65q12 0 23.5 2t23 7t19 8.5t19.5 12t15.5 11t15.5 12.5l12 10v207
q-72 59 -133 59q-58 0 -90.5 -45.5t-32.5 -118.5q0 -72 36 -118.5t92 -46.5z" />
    <glyph glyph-name="Emacron" unicode="&#x112;" horiz-adv-x="510" 
d="M84 0v688h381v-77h-296v-220h274v-76h-274v-238h296v-77h-381zM160 749v68h229v-68h-229z" />
    <glyph glyph-name="emacron" unicode="&#x113;" horiz-adv-x="450" 
d="M134 548v68h229v-68h-229zM255 -6q-103 0 -159.5 64.5t-56.5 167.5t55 171.5t154 68.5q88 0 131 -57t43 -148v-44h-303q2 -65 39 -108.5t101 -43.5q59 0 115 30l8 -15l14 -32l8 -16q-65 -38 -149 -38zM123 279h220q0 50 -25 84.5t-74 34.5q-52 0 -83 -36.5t-38 -82.5z
" />
    <glyph glyph-name="Ebreve" unicode="&#x114;" horiz-adv-x="510" 
d="M84 0v688h381v-77h-296v-220h274v-76h-274v-238h296v-77h-381zM280 722q-60 0 -97.5 33.5t-45.5 62.5l52 25l3 -3q2 -4 4.5 -7.5t7 -9t10 -10.5t12.5 -10t15 -8.5t18 -6t21 -2.5q27 0 49.5 14t30.5 25.5t11 17.5l51 -24q-9 -29 -45.5 -63t-96.5 -34z" />
    <glyph glyph-name="ebreve" unicode="&#x115;" horiz-adv-x="450" 
d="M255 -6q-103 0 -159.5 64.5t-56.5 167.5t55 171.5t154 68.5q88 0 131 -57t43 -148v-44h-303q2 -65 39 -108.5t101 -43.5q59 0 115 30l8 -15l14 -32l8 -16q-65 -38 -149 -38zM123 279h220q0 50 -25 84.5t-74 34.5q-52 0 -83 -36.5t-38 -82.5zM248 544q-60 0 -97.5 33.5
t-45.5 62.5l52 25l3 -3q2 -4 4.5 -7.5t7 -9t10 -10.5t12.5 -10t15 -8.5t18 -6t21 -2.5q27 0 49.5 14t30.5 25.5t11 17.5l51 -24q-9 -29 -45.5 -63t-96.5 -34z" />
    <glyph glyph-name="Edotaccent" unicode="&#x116;" horiz-adv-x="510" 
d="M84 0v688h381v-77h-296v-220h274v-76h-274v-238h296v-77h-381zM278 734q-23 0 -39 16t-16 38t16 38t39 16q22 0 38 -16t16 -38t-16 -38t-38 -16z" />
    <glyph glyph-name="edotaccent" unicode="&#x117;" horiz-adv-x="450" 
d="M255 -6q-103 0 -159.5 64.5t-56.5 167.5t55 171.5t154 68.5q88 0 131 -57t43 -148v-44h-303q2 -65 39 -108.5t101 -43.5q59 0 115 30l8 -15l14 -32l8 -16q-65 -38 -149 -38zM123 279h220q0 50 -25 84.5t-74 34.5q-52 0 -83 -36.5t-38 -82.5zM247 557q-23 0 -38.5 15.5
t-15.5 38.5t15.5 38.5t38.5 15.5t38.5 -15.5t15.5 -38.5t-15.5 -38.5t-38.5 -15.5z" />
    <glyph glyph-name="Eogonek" unicode="&#x118;" horiz-adv-x="510" 
d="M416 -191q-48 0 -74 24.5t-26 65.5q0 51 66 101h-298v688h381v-77h-296v-220h274v-76h-274v-238h296v-77q-76 -44 -76 -96q0 -16 11 -26t29 -10q25 0 40 6l9 -54q-29 -11 -62 -11z" />
    <glyph glyph-name="eogonek" unicode="&#x119;" horiz-adv-x="450" 
d="M372 -180q-29 -11 -62 -11q-48 0 -74 24.5t-26 65.5q0 48 52 96q-104 -5 -163.5 60.5t-59.5 170.5q0 103 55 171.5t154 68.5q88 0 131 -57t43 -148v-44h-303q2 -65 39 -108.5t101 -43.5q59 0 115 30l8 -15l14 -32l8 -16q-19 -11 -35 -17q-86 -54 -86 -111q0 -16 11 -26
t30 -10q24 0 39 6zM123 279h220q0 50 -25 84.5t-74 34.5q-52 0 -83 -36.5t-38 -82.5z" />
    <glyph glyph-name="Ecaron" unicode="&#x11a;" horiz-adv-x="510" 
d="M280 716l-149 113l48 51l101 -83l101 83l48 -51zM84 0v688h381v-77h-296v-220h274v-76h-274v-238h296v-77h-381z" />
    <glyph glyph-name="ecaron" unicode="&#x11b;" horiz-adv-x="450" 
d="M245 526l-150 113l48 51l102 -83l100 83l48 -51zM255 -6q-103 0 -159.5 64.5t-56.5 167.5t55 171.5t154 68.5q88 0 131 -57t43 -148v-44h-303q2 -65 39 -108.5t101 -43.5q59 0 115 30l8 -15l14 -32l8 -16q-65 -38 -149 -38zM123 279h220q0 50 -25 84.5t-74 34.5
q-52 0 -83 -36.5t-38 -82.5z" />
    <glyph glyph-name="Gcircumflex" unicode="&#x11c;" horiz-adv-x="665" 
d="M298 717l-48 51l149 113l149 -113l-48 -51l-101 83zM378 -6q-145 0 -238.5 100t-93.5 244q0 150 100 253t248 103q114 0 193 -47l-39 -65q-60 35 -153 35q-116 0 -189 -80.5t-73 -197.5q0 -113 67.5 -190.5t179.5 -77.5q94 0 145 38v173h-170v73h253v-280
q-88 -81 -230 -81z" />
    <glyph glyph-name="gcircumflex" unicode="&#x11d;" horiz-adv-x="474" 
d="M119 525l-48 52l150 113l148 -113l-48 -52l-100 84zM221 -238q-85 0 -142.5 48t-57.5 121q0 40 18 73t45.5 51.5t53 29t45.5 12.5l2 49q-59 11 -98 55t-39 102q0 70 51 116.5t121 46.5q51 0 91 -25l154 27v-76h-103q29 -42 29 -89q0 -60 -38.5 -103t-98.5 -54l1 -49
q23 -2 49.5 -12.5t54 -29t46 -51.5t18.5 -73q0 -72 -59 -120.5t-143 -48.5zM221 -174q51 0 86.5 30.5t35.5 75.5t-35.5 75.5t-85.5 30.5t-86 -30.5t-36 -75.5t35 -75.5t86 -30.5zM220 208q38 0 65.5 27.5t27.5 67.5t-27.5 68t-66.5 28t-66.5 -28t-27.5 -68t28 -67.5
t67 -27.5z" />
    <glyph glyph-name="Gbreve" unicode="&#x11e;" horiz-adv-x="665" 
d="M378 -6q-145 0 -238.5 100t-93.5 244q0 150 100 253t248 103q114 0 193 -47l-39 -65q-60 35 -153 35q-116 0 -189 -80.5t-73 -197.5q0 -113 67.5 -190.5t179.5 -77.5q94 0 145 38v173h-170v73h253v-280q-88 -81 -230 -81zM388 722q-60 0 -97.5 33.5t-45.5 62.5l52 25
l3 -3q2 -4 4.5 -7.5t7 -9t10 -10.5t12.5 -10t15 -8.5t18 -6t21 -2.5q27 0 49.5 14t30.5 25.5t11 17.5l51 -24q-9 -29 -45.5 -63t-96.5 -34z" />
    <glyph glyph-name="gbreve" unicode="&#x11f;" horiz-adv-x="474" 
d="M221 -238q-85 0 -142.5 48t-57.5 121q0 40 18 73t45.5 51.5t53 29t45.5 12.5l2 49q-59 11 -98 55t-39 102q0 70 51 116.5t121 46.5q51 0 91 -25l154 27v-76h-103q29 -42 29 -89q0 -60 -38.5 -103t-98.5 -54l1 -49q23 -2 49.5 -12.5t54 -29t46 -51.5t18.5 -73
q0 -72 -59 -120.5t-143 -48.5zM221 -174q51 0 86.5 30.5t35.5 75.5t-35.5 75.5t-85.5 30.5t-86 -30.5t-36 -75.5t35 -75.5t86 -30.5zM220 208q38 0 65.5 27.5t27.5 67.5t-27.5 68t-66.5 28t-66.5 -28t-27.5 -68t28 -67.5t67 -27.5zM220 544q-60 0 -97.5 33.5t-45.5 62.5
l52 25l3 -3q2 -4 4.5 -7.5t7 -9t10 -10.5t12.5 -10t15 -8.5t18 -6t21 -2.5q27 0 49.5 14t30.5 25.5t11 17.5l51 -24q-9 -29 -45.5 -63t-96.5 -34z" />
    <glyph glyph-name="Gdotaccent" unicode="&#x120;" horiz-adv-x="665" 
d="M378 -6q-145 0 -238.5 100t-93.5 244q0 150 100 253t248 103q114 0 193 -47l-39 -65q-60 35 -153 35q-116 0 -189 -80.5t-73 -197.5q0 -113 67.5 -190.5t179.5 -77.5q94 0 145 38v173h-170v73h253v-280q-88 -81 -230 -81zM395 734q-23 0 -39 16t-16 38t16 38t39 16
t38.5 -16t15.5 -38t-15.5 -38t-38.5 -16z" />
    <glyph glyph-name="gdotaccent" unicode="&#x121;" horiz-adv-x="474" 
d="M221 -238q-85 0 -142.5 48t-57.5 121q0 40 18 73t45.5 51.5t53 29t45.5 12.5l2 49q-59 11 -98 55t-39 102q0 70 51 116.5t121 46.5q51 0 91 -25l154 27v-76h-103q29 -42 29 -89q0 -60 -38.5 -103t-98.5 -54l1 -49q23 -2 49.5 -12.5t54 -29t46 -51.5t18.5 -73
q0 -72 -59 -120.5t-143 -48.5zM221 -174q51 0 86.5 30.5t35.5 75.5t-35.5 75.5t-85.5 30.5t-86 -30.5t-36 -75.5t35 -75.5t86 -30.5zM220 208q38 0 65.5 27.5t27.5 67.5t-27.5 68t-66.5 28t-66.5 -28t-27.5 -68t28 -67.5t67 -27.5zM218 557q-22 0 -38 15.5t-16 38.5t16 38.5
t38 15.5t38 -15.5t16 -38.5t-16 -38.5t-38 -15.5z" />
    <glyph glyph-name="Gcommaaccent" unicode="&#x122;" horiz-adv-x="665" 
d="M324 -201l29 170h81l-52 -170h-58zM378 -6q-145 0 -238.5 100t-93.5 244q0 150 100 253t248 103q114 0 193 -47l-39 -65q-60 35 -153 35q-116 0 -189 -80.5t-73 -197.5q0 -113 67.5 -190.5t179.5 -77.5q94 0 145 38v173h-170v73h253v-280q-88 -81 -230 -81z" />
    <glyph glyph-name="gcommaaccent" unicode="&#x123;" horiz-adv-x="474" 
d="M221 -238q-85 0 -142.5 48t-57.5 121q0 40 18 73t45.5 51.5t53 29t45.5 12.5l2 49q-59 11 -98 55t-39 102q0 70 51 116.5t121 46.5q51 0 91 -25l154 27v-76h-103q29 -42 29 -89q0 -60 -38.5 -103t-98.5 -54l1 -49q23 -2 49.5 -12.5t54 -29t46 -51.5t18.5 -73
q0 -72 -59 -120.5t-143 -48.5zM221 -174q51 0 86.5 30.5t35.5 75.5t-35.5 75.5t-85.5 30.5t-86 -30.5t-36 -75.5t35 -75.5t86 -30.5zM220 208q38 0 65.5 27.5t27.5 67.5t-27.5 68t-66.5 28t-66.5 -28t-27.5 -68t28 -67.5t67 -27.5zM186 514l52 170h58l-29 -170h-81z" />
    <glyph glyph-name="Hcircumflex" unicode="&#x124;" horiz-adv-x="697" 
d="M247 717l-48 51l149 113l149 -113l-48 -51l-101 83zM84 0v688h86v-294h358v294h85v-688h-85v317h-358v-317h-86z" />
    <glyph glyph-name="hcircumflex" unicode="&#x125;" horiz-adv-x="507" 
d="M12 717l-48 51l149 113l149 -113l-48 -51l-101 83zM74 0v721h79v-319q29 27 71.5 45.5t80.5 18.5q59 0 98 -33.5t39 -87.5v-345h-78v318q0 74 -73 74q-60 0 -138 -73v-319h-79z" />
    <glyph glyph-name="Hbar" unicode="&#x126;" horiz-adv-x="697" 
d="M84 0v493h-67v62h67v133h86v-133h358v133h85v-133h66v-62h-66v-493h-85v317h-358v-317h-86zM170 394h358v99h-358v-99z" />
    <glyph glyph-name="hbar" unicode="&#x127;" horiz-adv-x="507" 
d="M74 0v546h-59v62h59v113h79v-113h109v-62h-109v-144q29 27 71.5 45.5t80.5 18.5q59 0 98 -33.5t39 -87.5v-345h-78v318q0 74 -73 74q-60 0 -138 -73v-319h-79z" />
    <glyph glyph-name="Itilde" unicode="&#x128;" horiz-adv-x="253" 
d="M84 0v688h85v-688h-85zM278 802q-38 -74 -94 -74q-23 0 -61 20.5t-52 20.5q-35 0 -56 -40l-43 33q15 31 41 51t56 20q19 0 58 -20t52 -20q19 0 30.5 9.5t22.5 29.5z" />
    <glyph glyph-name="itilde" unicode="&#x129;" horiz-adv-x="249" 
d="M85 0v460h78v-460h-78zM276 625q-13 -29 -39 -51.5t-59 -22.5q-22 0 -58.5 20t-50.5 20q-36 0 -56 -40l-43 33q13 31 39.5 52t56.5 21q22 0 58 -20.5t53 -20.5q19 0 30 9.5t23 29.5z" />
    <glyph glyph-name="Imacron" unicode="&#x12a;" horiz-adv-x="253" 
d="M84 0v688h85v-688h-85zM14 749v68h229v-68h-229z" />
    <glyph glyph-name="imacron" unicode="&#x12b;" horiz-adv-x="249" 
d="M85 0v460h78v-460h-78zM10 548v68h229v-68h-229z" />
    <glyph glyph-name="Ibreve" unicode="&#x12c;" horiz-adv-x="253" 
d="M84 0v688h85v-688h-85zM127 722q-60 0 -97.5 33.5t-45.5 62.5l52 25l2 -3q3 -4 5.5 -7.5t7 -9t10 -10.5t12.5 -10t15 -8.5t18 -6t21 -2.5q27 0 49.5 14t30.5 25.5t11 17.5l51 -24q-9 -29 -45.5 -63t-96.5 -34z" />
    <glyph glyph-name="ibreve" unicode="&#x12d;" horiz-adv-x="249" 
d="M85 0v460h78v-460h-78zM124 544q-60 0 -97.5 33.5t-45.5 62.5l52 25l3 -3q2 -4 4.5 -7.5t7 -9t10 -10.5t12.5 -10t15 -8.5t18 -6t21 -2.5q27 0 49.5 14t30.5 25.5t11 17.5l51 -24q-9 -29 -45.5 -63t-96.5 -34z" />
    <glyph glyph-name="Iogonek" unicode="&#x12e;" horiz-adv-x="253" 
d="M132 -191q-48 0 -74 24.5t-26 65.5q0 49 52 96v693h85v-688q-64 -49 -64 -96q0 -16 11 -26t30 -10q24 0 39 6l9 -54q-29 -11 -62 -11z" />
    <glyph glyph-name="iogonek" unicode="&#x12f;" horiz-adv-x="249" 
d="M127 -191q-48 0 -74 24.5t-26 65.5q0 51 57 101v460h79v-460q-63 -48 -63 -96q0 -16 11 -26t29 -10q25 0 40 6l8 -54q-28 -11 -61 -11zM124 557q-22 0 -38 15.5t-16 38.5t16 38.5t38 15.5t38 -15.5t16 -38.5t-16 -38.5t-38 -15.5z" />
    <glyph glyph-name="Idotaccent" unicode="&#x130;" horiz-adv-x="253" 
d="M84 0v688h85v-688h-85zM127 734q-23 0 -39 16t-16 38t16 38t39 16t38.5 -16t15.5 -38t-15.5 -38t-38.5 -16z" />
    <glyph glyph-name="dotlessi" unicode="&#x131;" horiz-adv-x="249" 
d="M85 0v460h78v-460h-78z" />
    <glyph glyph-name="IJ" unicode="&#x132;" 
d="M84 0v688h85v-688h-85zM159 -212v75q76 0 124 42.5t48 140.5v642h84v-651q0 -123 -68 -186t-188 -63z" />
    <glyph glyph-name="ij" unicode="&#x133;" horiz-adv-x="477" 
d="M124 557q-22 0 -38 15.5t-16 38.5t16 38.5t38 15.5t38 -15.5t16 -38.5t-16 -38.5t-38 -15.5zM84 0v460h79v-460h-79zM352 557q-22 0 -38 15.5t-16 38.5t16 38.5t38 15.5t38 -16t16 -38t-16 -38t-38 -16zM249 -233l-45 55q109 66 109 201v437h78v-448q0 -163 -142 -245z
" />
    <glyph glyph-name="Jcircumflex" unicode="&#x134;" horiz-adv-x="253" 
d="M24 717l-48 51l149 113l149 -113l-48 -51l-101 83zM-87 -212v75q76 0 124 42.5t48 140.5v642h84v-651q0 -123 -68 -186t-188 -63z" />
    <glyph glyph-name="jcircumflex" unicode="&#x135;" horiz-adv-x="249" 
d="M23 525l-48 52l150 113l148 -113l-48 -52l-100 84zM21 -233l-45 55q109 66 109 201v437h78v-448q0 -163 -142 -245z" />
    <glyph glyph-name="Kcommaaccent" unicode="&#x136;" horiz-adv-x="595" 
d="M258 -201l29 170h81l-52 -170h-58zM498 -7l-321 372l306 330l82 -32l-280 -293l296 -340zM84 0v688h86v-688h-86z" />
    <glyph glyph-name="kcommaaccent" unicode="&#x137;" horiz-adv-x="458" 
d="M189 -201l29 170h81l-52 -170h-58zM369 -7l-213 265l206 207l74 -29l-187 -179l199 -236zM74 0v721h79v-721h-79z" />
    <glyph glyph-name="Lacute" unicode="&#x139;" horiz-adv-x="481" 
d="M92 716l-37 45l153 128l50 -62zM84 0v688h85v-611h304v-77h-389z" />
    <glyph glyph-name="lacute" unicode="&#x13a;" horiz-adv-x="227" 
d="M78 740l-37 45l153 128l50 -62zM74 0v721h79v-721h-79z" />
    <glyph glyph-name="Lcommaaccent" unicode="&#x13b;" horiz-adv-x="481" 
d="M229 -201l29 170h81l-52 -170h-58zM84 0v688h85v-611h304v-77h-389z" />
    <glyph glyph-name="lcommaaccent" unicode="&#x13c;" horiz-adv-x="227" 
d="M48 -201l29 170h81l-52 -170h-58zM74 0v721h79v-721h-79z" />
    <glyph glyph-name="Lcaron" unicode="&#x13d;" horiz-adv-x="481" 
d="M253 551l29 170h81l-52 -170h-58zM84 0v688h85v-611h304v-77h-389z" />
    <glyph glyph-name="lcaron" unicode="&#x13e;" horiz-adv-x="284" 
d="M207 551l29 170h81l-52 -170h-58zM74 0v721h79v-721h-79z" />
    <glyph glyph-name="Ldot" unicode="&#x13f;" horiz-adv-x="481" 
d="M84 0v688h85v-611h304v-77h-389zM361 309q-23 0 -39.5 17t-16.5 40t16.5 39.5t39.5 16.5t39.5 -16.5t16.5 -39.5t-16.5 -40t-39.5 -17z" />
    <glyph glyph-name="ldot" unicode="&#x140;" horiz-adv-x="351" 
d="M74 0v721h79v-721h-79zM287 288q-23 0 -39.5 17t-16.5 40t16.5 39.5t39.5 16.5t39.5 -16.5t16.5 -39.5t-16.5 -40t-39.5 -17z" />
    <glyph glyph-name="Lslash" unicode="&#x141;" horiz-adv-x="484" 
d="M88 0v320l-69 -38v64l69 37v305h85v-260l100 54v-64l-100 -54v-287h303v-77h-388z" />
    <glyph glyph-name="lslash" unicode="&#x142;" horiz-adv-x="243" 
d="M79 0v323l-79 -43v64l79 42v335h79v-293l88 48v-65l-88 -47v-364h-79z" />
    <glyph glyph-name="Nacute" unicode="&#x143;" horiz-adv-x="748" 
d="M363 716l-37 45l153 128l50 -62zM84 0v688h97l397 -559v559h85v-688h-96l-397 559v-559h-86z" />
    <glyph glyph-name="nacute" unicode="&#x144;" horiz-adv-x="507" 
d="M216 517l-41 42l143 141l54 -58zM74 0v460h79v-59q71 65 146 65q69 0 106 -34.5t37 -90.5v-341h-78v319q0 75 -73 75q-39 0 -79 -25.5t-59 -45.5v-323h-79z" />
    <glyph glyph-name="Ncommaaccent" unicode="&#x145;" horiz-adv-x="748" 
d="M312 -201l29 170h81l-52 -170h-58zM84 0v688h97l397 -559v559h85v-688h-96l-397 559v-559h-86z" />
    <glyph glyph-name="ncommaaccent" unicode="&#x146;" horiz-adv-x="507" 
d="M198 -201l29 170h81l-52 -170h-58zM74 0v460h79v-59q71 65 146 65q69 0 106 -34.5t37 -90.5v-341h-78v319q0 75 -73 75q-39 0 -79 -25.5t-59 -45.5v-323h-79z" />
    <glyph glyph-name="Ncaron" unicode="&#x147;" horiz-adv-x="748" 
d="M378 716l-149 113l48 51l101 -83l101 83l48 -51zM84 0v688h97l397 -559v559h85v-688h-96l-397 559v-559h-86z" />
    <glyph glyph-name="ncaron" unicode="&#x148;" horiz-adv-x="507" 
d="M262 526l-150 113l48 51l102 -83l100 83l48 -51zM74 0v460h79v-59q71 65 146 65q69 0 106 -34.5t37 -90.5v-341h-78v319q0 75 -73 75q-39 0 -79 -25.5t-59 -45.5v-323h-79z" />
    <glyph glyph-name="napostrophe" unicode="&#x149;" horiz-adv-x="507" 
d="M-53 522l72 200h79l-84 -200h-67zM74 0v460h79v-59q71 65 146 65q69 0 106 -34.5t37 -90.5v-341h-78v319q0 75 -73 75q-39 0 -79 -25.5t-59 -45.5v-323h-79z" />
    <glyph glyph-name="Eng" unicode="&#x14a;" horiz-adv-x="748" 
d="M407 -212v75q148 0 168 137h-12l-393 559v-559h-86v688h97l397 -561v561h85v-651q0 -123 -68 -186t-188 -63z" />
    <glyph glyph-name="eng" unicode="&#x14b;" horiz-adv-x="507" 
d="M300 -233l-45 55q109 66 109 201v296q0 75 -73 75q-39 0 -79 -25.5t-59 -45.5v-323h-79v460h79v-59q71 65 146 65q69 0 106 -34.5t37 -90.5v-329q0 -163 -142 -245z" />
    <glyph glyph-name="Omacron" unicode="&#x14c;" horiz-adv-x="771" 
d="M274 749v68h229v-68h-229zM387 -6q-151 0 -246 97.5t-95 252.5q0 149 93.5 249.5t248.5 100.5q148 0 242.5 -102t94.5 -247q0 -156 -94 -253.5t-244 -97.5zM383 71q117 0 187 79t70 194q0 116 -68.5 194.5t-185.5 78.5t-185.5 -78.5t-68.5 -194.5q0 -110 68 -191.5
t183 -81.5z" />
    <glyph glyph-name="omacron" unicode="&#x14d;" horiz-adv-x="511" 
d="M141 548v68h229v-68h-229zM258 -6q-108 0 -166 70t-58 165q0 41 13.5 81.5t39 76t70 58t100.5 22.5q46 0 83.5 -15t62.5 -39t42 -55.5t24.5 -63.5t7.5 -64q0 -41 -13 -81t-38.5 -75.5t-69 -57.5t-98.5 -22zM256 65q55 0 97.5 41.5t42.5 123.5q0 81 -43 122.5t-95 41.5
q-53 0 -98 -40.5t-45 -124.5q0 -78 42.5 -121t98.5 -43z" />
    <glyph glyph-name="Obreve" unicode="&#x14e;" horiz-adv-x="771" 
d="M387 -6q-151 0 -246 97.5t-95 252.5q0 149 93.5 249.5t248.5 100.5q148 0 242.5 -102t94.5 -247q0 -156 -94 -253.5t-244 -97.5zM383 71q117 0 187 79t70 194q0 116 -68.5 194.5t-185.5 78.5t-185.5 -78.5t-68.5 -194.5q0 -110 68 -191.5t183 -81.5zM386 722
q-60 0 -97.5 33.5t-45.5 62.5l52 25l3 -3q2 -4 4.5 -7.5t7 -9t10 -10.5t12.5 -10t15 -8.5t18 -6t21 -2.5q27 0 49.5 14t30.5 25.5t11 17.5l51 -24q-9 -29 -45.5 -63t-96.5 -34z" />
    <glyph glyph-name="obreve" unicode="&#x14f;" horiz-adv-x="511" 
d="M258 -6q-108 0 -166 70t-58 165q0 41 13.5 81.5t39 76t70 58t100.5 22.5q46 0 83.5 -15t62.5 -39t42 -55.5t24.5 -63.5t7.5 -64q0 -41 -13 -81t-38.5 -75.5t-69 -57.5t-98.5 -22zM256 65q55 0 97.5 41.5t42.5 123.5q0 81 -43 122.5t-95 41.5q-53 0 -98 -40.5t-45 -124.5
q0 -78 42.5 -121t98.5 -43zM256 544q-60 0 -97.5 33.5t-45.5 62.5l52 25l3 -3q2 -4 4.5 -7.5t7 -9t10 -10.5t12.5 -10t15 -8.5t18 -6t21 -2.5q27 0 49.5 14t30.5 25.5t11 17.5l51 -24q-9 -29 -45.5 -63t-96.5 -34z" />
    <glyph glyph-name="Ohungarumlaut" unicode="&#x150;" horiz-adv-x="771" 
d="M278 716l-40 42l147 135l53 -58zM470 716l-37 45l154 128l49 -62zM387 -6q-151 0 -246 97.5t-95 252.5q0 149 93.5 249.5t248.5 100.5q148 0 242.5 -102t94.5 -247q0 -156 -94 -253.5t-244 -97.5zM383 71q117 0 187 79t70 194q0 116 -68.5 194.5t-185.5 78.5
t-185.5 -78.5t-68.5 -194.5q0 -110 68 -191.5t183 -81.5z" />
    <glyph glyph-name="ohungarumlaut" unicode="&#x151;" horiz-adv-x="511" 
d="M146 536l-44 39l134 148l58 -53zM328 536l-41 43l143 139l54 -57zM258 -6q-108 0 -166 70t-58 165q0 41 13.5 81.5t39 76t70 58t100.5 22.5q46 0 83.5 -15t62.5 -39t42 -55.5t24.5 -63.5t7.5 -64q0 -41 -13 -81t-38.5 -75.5t-69 -57.5t-98.5 -22zM256 65q55 0 97.5 41.5
t42.5 123.5q0 81 -43 122.5t-95 41.5q-53 0 -98 -40.5t-45 -124.5q0 -78 42.5 -121t98.5 -43z" />
    <glyph glyph-name="OE" unicode="&#x152;" horiz-adv-x="869" 
d="M387 -6q-151 0 -246 97.5t-95 252.5q0 149 93.5 249.5t248.5 100.5q34 0 64 -6h372v-77h-296v-220h274v-76h-274v-238h296v-77h-368q-33 -6 -69 -6zM383 71q23 0 61 6v534q-36 6 -58 6q-117 0 -185.5 -78.5t-68.5 -194.5q0 -110 68 -191.5t183 -81.5z" />
    <glyph glyph-name="oe" unicode="&#x153;" horiz-adv-x="806" 
d="M759 32q-70 -38 -151 -38q-122 0 -178 93q-63 -93 -176 -93q-107 0 -165.5 70t-58.5 165q0 41 13.5 81.5t39.5 76t70.5 58t99.5 22.5q119 0 179 -95q56 94 169 94q88 0 132 -57t44 -148v-44h-303q2 -66 38 -109t100 -43q61 0 115 30l8 -15l16 -32zM252 65q53 0 96.5 40.5
t43.5 124.5q0 82 -42.5 123t-95.5 41t-97.5 -40.5t-44.5 -124.5q0 -78 42.5 -121t97.5 -43zM477 279h220q0 50 -25.5 84.5t-73.5 34.5q-52 0 -83 -36.5t-38 -82.5z" />
    <glyph glyph-name="Racute" unicode="&#x154;" horiz-adv-x="536" 
d="M200 716l-37 45l153 128l50 -62zM433 -8l-194 305h-70v-297h-85v688h178q26 0 49 -2.5t55.5 -13.5t56 -29t40 -53t16.5 -82q0 -76 -43 -127t-110 -72l195 -293zM169 373h57q89 0 127 38.5t38 94.5q0 34 -13 56.5t-36.5 32t-45.5 13t-51 3.5h-76v-238z" />
    <glyph glyph-name="racute" unicode="&#x155;" horiz-adv-x="342" 
d="M152 517l-41 42l143 141l54 -58zM75 0v460h79v-62q62 69 116 69q36 0 74 -17l-33 -74q-25 14 -58 14q-26 0 -55 -23.5t-44 -50.5v-316h-79z" />
    <glyph glyph-name="Rcommaaccent" unicode="&#x156;" horiz-adv-x="536" 
d="M230 -201l29 170h81l-52 -170h-58zM433 -8l-194 305h-70v-297h-85v688h178q26 0 49 -2.5t55.5 -13.5t56 -29t40 -53t16.5 -82q0 -76 -43 -127t-110 -72l195 -293zM169 373h57q89 0 127 38.5t38 94.5q0 34 -13 56.5t-36.5 32t-45.5 13t-51 3.5h-76v-238z" />
    <glyph glyph-name="rcommaaccent" unicode="&#x157;" horiz-adv-x="342" 
d="M55 -201l29 170h81l-52 -170h-58zM75 0v460h79v-62q62 69 116 69q36 0 74 -17l-33 -74q-25 14 -58 14q-26 0 -55 -23.5t-44 -50.5v-316h-79z" />
    <glyph glyph-name="Rcaron" unicode="&#x158;" horiz-adv-x="536" 
d="M251 716l-149 113l48 51l101 -83l101 83l48 -51zM433 -8l-194 305h-70v-297h-85v688h178q26 0 49 -2.5t55.5 -13.5t56 -29t40 -53t16.5 -82q0 -76 -43 -127t-110 -72l195 -293zM169 373h57q89 0 127 38.5t38 94.5q0 34 -13 56.5t-36.5 32t-45.5 13t-51 3.5h-76v-238z" />
    <glyph glyph-name="rcaron" unicode="&#x159;" horiz-adv-x="342" 
d="M185 526l-150 113l48 51l102 -83l100 83l48 -51zM75 0v460h79v-62q62 69 116 69q36 0 74 -17l-33 -74q-25 14 -58 14q-26 0 -55 -23.5t-44 -50.5v-316h-79z" />
    <glyph glyph-name="Sacute" unicode="&#x15a;" horiz-adv-x="482" 
d="M230 716l-37 45l153 128l50 -62zM232 -6q-116 0 -190 72l51 60q59 -55 134 -55q53 0 90 30t37 79q0 30 -9.5 53t-31.5 40t-39 26t-51 24q-6 3 -9 4q-80 36 -118 76t-38 121q0 72 59 121t134 49q51 0 89.5 -10.5t88.5 -42.5l-43 -65q-39 26 -67 33.5t-67 7.5t-74 -24.5
t-35 -73.5q0 -18 3.5 -32.5t15 -27.5t17 -19.5t27 -18t26.5 -14t32 -15.5q37 -17 55 -26t46 -28t41 -37.5t23.5 -49t10.5 -67.5q0 -80 -61.5 -135t-146.5 -55z" />
    <glyph glyph-name="sacute" unicode="&#x15b;" horiz-adv-x="363" 
d="M140 517l-41 42l143 141l54 -58zM172 -6q-82 0 -136 38l36 62q44 -30 98 -30q33 0 54.5 16t21.5 44t-23 46.5t-73 41.5q-54 26 -79.5 55t-25.5 79q0 56 44.5 88t97.5 32q77 0 128 -37l-36 -60q-36 27 -91 27q-27 0 -46 -13t-19 -35q0 -9 1.5 -16t6 -13l7.5 -10t11.5 -9.5
t12.5 -7.5t15 -8t15 -8q2 -1 21.5 -10.5t24 -12.5t21 -13t22.5 -16t17 -18t15.5 -22.5t8.5 -26t4 -32.5q0 -61 -46.5 -96t-107.5 -35z" />
    <glyph glyph-name="Scircumflex" unicode="&#x15c;" horiz-adv-x="482" 
d="M161 717l-48 51l149 113l149 -113l-48 -51l-101 83zM232 -6q-116 0 -190 72l51 60q59 -55 134 -55q53 0 90 30t37 79q0 30 -9.5 53t-31.5 40t-39 26t-51 24q-6 3 -9 4q-80 36 -118 76t-38 121q0 72 59 121t134 49q51 0 89.5 -10.5t88.5 -42.5l-43 -65q-39 26 -67 33.5
t-67 7.5t-74 -24.5t-35 -73.5q0 -18 3.5 -32.5t15 -27.5t17 -19.5t27 -18t26.5 -14t32 -15.5q37 -17 55 -26t46 -28t41 -37.5t23.5 -49t10.5 -67.5q0 -80 -61.5 -135t-146.5 -55z" />
    <glyph glyph-name="scircumflex" unicode="&#x15d;" horiz-adv-x="363" 
d="M83 525l-48 52l150 113l148 -113l-48 -52l-100 84zM172 -6q-82 0 -136 38l36 62q44 -30 98 -30q33 0 54.5 16t21.5 44t-23 46.5t-73 41.5q-54 26 -79.5 55t-25.5 79q0 56 44.5 88t97.5 32q77 0 128 -37l-36 -60q-36 27 -91 27q-27 0 -46 -13t-19 -35q0 -9 1.5 -16t6 -13
l7.5 -10t11.5 -9.5t12.5 -7.5t15 -8t15 -8q2 -1 21.5 -10.5t24 -12.5t21 -13t22.5 -16t17 -18t15.5 -22.5t8.5 -26t4 -32.5q0 -61 -46.5 -96t-107.5 -35z" />
    <glyph glyph-name="Scedilla" unicode="&#x15e;" horiz-adv-x="482" 
d="M196 -231l-29 49q32 14 43.5 27t11.5 31q0 30 -37 65l22 54q-99 6 -165 71l51 60q59 -55 134 -55q53 0 90 30t37 79q0 30 -9.5 53t-31.5 40t-39 26t-51 24q-6 3 -9 4q-80 36 -118 76t-38 121q0 72 59 121t134 49q51 0 89.5 -10.5t88.5 -42.5l-43 -65q-43 28 -69.5 34.5
t-67.5 6.5q-36 0 -71 -25.5t-35 -72.5q0 -18 3.5 -32.5t15 -27.5t17 -19.5t27 -18t26.5 -14t32 -15.5q37 -17 55 -26t46 -28t41 -37.5t23.5 -49t10.5 -67.5q0 -70 -47 -121t-117 -64l-18 -43q37 -35 37 -82q0 -36 -28.5 -64.5t-70.5 -40.5z" />
    <glyph glyph-name="scedilla" unicode="&#x15f;" horiz-adv-x="363" 
d="M126 -231l-28 49q32 14 43.5 27t11.5 31q0 30 -37 65l23 55q-59 6 -103 36l36 62q44 -30 98 -30q33 0 54.5 16t21.5 44t-23 46.5t-73 41.5q-54 26 -79.5 55t-25.5 79q0 56 44.5 88t97.5 32q77 0 128 -37l-36 -60q-36 27 -91 27q-27 0 -46 -13t-19 -35q0 -9 1.5 -16t6 -13
l7.5 -10t11.5 -9.5t12.5 -7.5t15 -8t15 -8q2 -1 21.5 -10.5t24 -12.5t21 -13t22.5 -16t17 -18t15.5 -22.5t8.5 -26t4 -32.5q0 -52 -35 -85.5t-85 -42.5l-17 -41q37 -35 37 -82q0 -36 -28.5 -64.5t-71.5 -40.5z" />
    <glyph glyph-name="Scaron" unicode="&#x160;" horiz-adv-x="482" 
d="M232 -6q-116 0 -190 72l51 60q59 -55 134 -55q53 0 90 30t37 79q0 30 -9.5 53t-31.5 40t-39 26t-51 24q-6 3 -9 4q-80 36 -118 76t-38 121q0 72 59 121t134 49q51 0 89.5 -10.5t88.5 -42.5l-43 -65q-43 28 -69.5 34.5t-67.5 6.5q-36 0 -71 -25.5t-35 -72.5
q0 -18 3.5 -32.5t15 -27.5t17 -19.5t27 -18t26.5 -14t32 -15.5q37 -17 55 -26t46 -28t41 -37.5t23.5 -49t10.5 -67.5q0 -80 -61.5 -135t-146.5 -55zM253 716l-149 113l48 51l101 -83l101 83l48 -51z" />
    <glyph glyph-name="scaron" unicode="&#x161;" horiz-adv-x="363" 
d="M182 526l-150 113l48 51l102 -83l100 83l48 -51zM172 -6q-82 0 -136 38l36 62q44 -30 98 -30q33 0 54.5 16t21.5 44t-23 46.5t-73 41.5q-54 26 -79.5 55t-25.5 79q0 56 44.5 88t97.5 32q77 0 128 -37l-36 -60q-36 27 -91 27q-27 0 -46 -13t-19 -35q0 -9 1.5 -16t6 -13
l7.5 -10t11.5 -9.5t12.5 -7.5t15 -8t15 -8q2 -1 21.5 -10.5t24 -12.5t21 -13t22.5 -16t17 -18t15.5 -22.5t8.5 -26t4 -32.5q0 -61 -46.5 -96t-107.5 -35z" />
    <glyph glyph-name="Tcommaaccent" unicode="&#x162;" horiz-adv-x="503" 
d="M189 -201l29 170h81l-52 -170h-58zM211 0v611h-215v77h511v-77h-211v-611h-85z" />
    <glyph glyph-name="tcommaaccent" unicode="&#x163;" horiz-adv-x="326" 
d="M155 -201l29 170h81l-52 -170h-58zM213 -6q-114 0 -114 126v270h-78v70h77v93h79v-93h120v-69h-119v-261q0 -65 48 -65q15 0 29 3.5t25 8.5l12 5l24 -64q-48 -24 -103 -24z" />
    <glyph glyph-name="Tcaron" unicode="&#x164;" horiz-adv-x="503" 
d="M255 716l-149 113l48 51l101 -83l101 83l48 -51zM211 0v611h-215v77h511v-77h-211v-611h-85z" />
    <glyph glyph-name="tcaron" unicode="&#x165;" horiz-adv-x="334" 
d="M238 542l29 170h81l-52 -170h-58zM213 -6q-114 0 -114 126v270h-78v70h77v93h79v-93h120v-69h-119v-261q0 -65 48 -65q15 0 29 3.5t25 8.5l12 5l24 -64q-48 -24 -103 -24z" />
    <glyph glyph-name="Tbar" unicode="&#x166;" horiz-adv-x="503" 
d="M211 0v386h-153v62h153v163h-215v77h511v-77h-211v-163h153v-62h-153v-386h-85z" />
    <glyph glyph-name="tbar" unicode="&#x167;" horiz-adv-x="326" 
d="M213 -6q-114 0 -114 126v145h-78v63h78v62h-78v70h77v93h79v-93h120v-69h-119v-63h78v-63h-78v-135q0 -65 48 -65q15 0 29 3.5t25 8.5l12 5l24 -64q-48 -24 -103 -24z" />
    <glyph glyph-name="Utilde" unicode="&#x168;" horiz-adv-x="672" 
d="M338 -7q-116 0 -191 61.5t-75 168.5v465h85v-456q0 -75 51.5 -118t132.5 -43t127.5 41t46.5 128v448h85v-464q0 -109 -76 -170t-186 -61zM497 802q-38 -74 -94 -74q-23 0 -61 20.5t-52 20.5q-35 0 -56 -40l-43 33q15 31 41 51t56 20q19 0 58 -20t52 -20q19 0 30.5 9.5
t22.5 29.5z" />
    <glyph glyph-name="utilde" unicode="&#x169;" horiz-adv-x="504" 
d="M209 -6q-69 0 -106 34.5t-37 90.5v341h78v-319q0 -75 74 -75q38 0 76 25t57 47v322h79v-460h-79v60q-74 -66 -142 -66zM402 625q-13 -29 -39 -51.5t-59 -22.5q-22 0 -58.5 20t-50.5 20q-36 0 -56 -40l-43 33q13 31 39.5 52t56.5 21q22 0 58 -20.5t53 -20.5q19 0 30 9.5
t23 29.5z" />
    <glyph glyph-name="Umacron" unicode="&#x16a;" horiz-adv-x="672" 
d="M338 -7q-116 0 -191 61.5t-75 168.5v465h85v-456q0 -75 51.5 -118t132.5 -43t127.5 41t46.5 128v448h85v-464q0 -109 -76 -170t-186 -61zM222 749v68h229v-68h-229z" />
    <glyph glyph-name="umacron" unicode="&#x16b;" horiz-adv-x="504" 
d="M209 -6q-69 0 -106 34.5t-37 90.5v341h78v-319q0 -75 74 -75q38 0 76 25t57 47v322h79v-460h-79v60q-74 -66 -142 -66zM134 548v68h229v-68h-229z" />
    <glyph glyph-name="Ubreve" unicode="&#x16c;" horiz-adv-x="672" 
d="M338 -7q-116 0 -191 61.5t-75 168.5v465h85v-456q0 -75 51.5 -118t132.5 -43t127.5 41t46.5 128v448h85v-464q0 -109 -76 -170t-186 -61zM339 722q-60 0 -97.5 33.5t-45.5 62.5l52 25l2 -3q3 -4 5.5 -7.5t7 -9t10 -10.5t12.5 -10t15 -8.5t18 -6t21 -2.5q27 0 49.5 14
t30.5 25.5t11 17.5l51 -24q-9 -29 -45.5 -63t-96.5 -34z" />
    <glyph glyph-name="ubreve" unicode="&#x16d;" horiz-adv-x="504" 
d="M209 -6q-69 0 -106 34.5t-37 90.5v341h78v-319q0 -75 74 -75q38 0 76 25t57 47v322h79v-460h-79v60q-74 -66 -142 -66zM252 544q-60 0 -97.5 33.5t-45.5 62.5l52 25l3 -3q2 -4 4.5 -7.5t7 -9t10 -10.5t12.5 -10t15 -8.5t18 -6t21 -2.5q27 0 49.5 14t30.5 25.5t11 17.5
l51 -24q-9 -29 -45.5 -63t-96.5 -34z" />
    <glyph glyph-name="Uring" unicode="&#x16e;" horiz-adv-x="672" 
d="M337 680q-44 0 -73.5 27t-29.5 70t29.5 69.5t73.5 26.5t73.5 -26.5t29.5 -69.5t-29.5 -70t-73.5 -27zM337 726q19 0 33 15t14 36t-14 35.5t-33 14.5t-33 -14.5t-14 -35.5t14 -36t33 -15zM338 -7q-116 0 -191 61.5t-75 168.5v465h85v-456q0 -75 51.5 -118t132.5 -43
t127.5 41t46.5 128v448h85v-464q0 -109 -76 -170t-186 -61z" />
    <glyph glyph-name="uring" unicode="&#x16f;" horiz-adv-x="504" 
d="M251 518q-44 0 -73.5 27t-29.5 70t29.5 69.5t73.5 26.5t73.5 -26.5t29.5 -69.5t-29.5 -70t-73.5 -27zM251 564q19 0 33 15t14 36t-14 35.5t-33 14.5t-33 -14.5t-14 -35.5t14 -36t33 -15zM209 -6q-69 0 -106 34.5t-37 90.5v341h78v-319q0 -75 74 -75q38 0 76 25t57 47v322
h79v-460h-79v60q-74 -66 -142 -66z" />
    <glyph glyph-name="Uhungarumlaut" unicode="&#x170;" horiz-adv-x="672" 
d="M338 -7q-116 0 -191 61.5t-75 168.5v465h85v-456q0 -75 51.5 -118t132.5 -43t127.5 41t46.5 128v448h85v-464q0 -109 -76 -170t-186 -61zM230 716l-40 42l147 135l53 -58zM422 716l-37 45l154 128l49 -62z" />
    <glyph glyph-name="uhungarumlaut" unicode="&#x171;" horiz-adv-x="504" 
d="M209 -6q-69 0 -106 34.5t-37 90.5v341h78v-319q0 -75 74 -75q38 0 76 25t57 47v322h79v-460h-79v60q-74 -66 -142 -66zM155 536l-44 39l134 148l58 -53zM337 536l-41 43l143 139l54 -57z" />
    <glyph glyph-name="Uogonek" unicode="&#x172;" horiz-adv-x="672" 
d="M371 -191q-48 0 -73.5 24.5t-25.5 65.5q0 49 50 95q-110 4 -180 65t-70 164v465h85v-456q0 -75 51.5 -118t132.5 -43t127.5 41t46.5 128v448h85v-464q0 -91 -53.5 -149t-138.5 -75q-63 -46 -63 -96q0 -16 11 -26t29 -10q24 0 39 6l9 -54q-29 -11 -62 -11z" />
    <glyph glyph-name="uogonek" unicode="&#x173;" horiz-adv-x="504" 
d="M394 -191q-48 0 -74 24.5t-26 65.5q0 51 57 101v60q-74 -66 -142 -66q-69 0 -106 34.5t-37 90.5v341h78v-319q0 -75 74 -75q38 0 76 25t57 47v322h79v-460q-63 -48 -63 -96q0 -16 11 -26t29 -10q25 0 40 6l8 -54q-29 -11 -61 -11z" />
    <glyph glyph-name="Wcircumflex" unicode="&#x174;" horiz-adv-x="905" 
d="M353 717l-48 51l149 113l149 -113l-48 -51l-101 83zM217 0l-203 678l88 16l158 -559l156 553h78l157 -558l159 564l81 -14l-203 -680h-78l-157 553l-157 -553h-79z" />
    <glyph glyph-name="wcircumflex" unicode="&#x175;" horiz-adv-x="726" 
d="M261 525l-48 52l150 113l148 -113l-48 -52l-100 84zM166 0l-157 448l76 18l123 -368l118 362h76l118 -362l123 368l74 -15l-159 -451h-80l-115 348l-117 -348h-80z" />
    <glyph glyph-name="Ycircumflex" unicode="&#x176;" horiz-adv-x="548" 
d="M231 0v313l-232 352l81 28l196 -299l195 299l78 -29l-233 -351v-313h-85zM174 717l-48 51l149 113l149 -113l-48 -51l-101 83z" />
    <glyph glyph-name="ycircumflex" unicode="&#x177;" horiz-adv-x="461" 
d="M45 -238q-22 0 -34 1v70q9 -1 27 -1q38 0 68 21t44 56l43 106l-182 432l79 18l145 -355l142 355l74 -18l-226 -553q-55 -132 -180 -132zM134 525l-48 52l150 113l148 -113l-48 -52l-100 84z" />
    <glyph glyph-name="Ydieresis" unicode="&#x178;" horiz-adv-x="548" 
d="M231 0v313l-232 352l81 28l196 -299l195 299l78 -29l-233 -351v-313h-85zM189 732q-23 0 -38.5 16t-15.5 38t16 38t38 16t38 -16t16 -38t-15.5 -38t-38.5 -16zM364 732q-23 0 -39 16t-16 38t16.5 38t38.5 16t38 -16t16 -38t-16 -38t-38 -16z" />
    <glyph glyph-name="Zacute" unicode="&#x179;" horiz-adv-x="568" 
d="M263 716l-37 45l153 128l50 -62zM61 0l-32 62l391 545h-373v77h458l31 -59l-394 -549h383v-76h-464z" />
    <glyph glyph-name="zacute" unicode="&#x17a;" horiz-adv-x="408" 
d="M162 517l-41 42l143 141l54 -58zM52 0l-28 53l247 336h-232v71h316l21 -57l-244 -331h232v-72h-312z" />
    <glyph glyph-name="Zdotaccent" unicode="&#x17b;" horiz-adv-x="568" 
d="M61 0l-32 62l391 545h-373v77h458l31 -59l-394 -549h383v-76h-464zM289 734q-23 0 -39 16t-16 38t16 38t39 16t38.5 -16t15.5 -38t-15.5 -38t-38.5 -16z" />
    <glyph glyph-name="zdotaccent" unicode="&#x17c;" horiz-adv-x="408" 
d="M52 0l-28 53l247 336h-232v71h316l21 -57l-244 -331h232v-72h-312zM209 557q-23 0 -38.5 15.5t-15.5 38.5t15.5 38.5t38.5 15.5t38.5 -15.5t15.5 -38.5t-15.5 -38.5t-38.5 -15.5z" />
    <glyph glyph-name="Zcaron" unicode="&#x17d;" horiz-adv-x="568" 
d="M284 716l-149 113l48 51l101 -83l101 83l48 -51zM61 0l-32 62l391 545h-373v77h458l31 -59l-394 -549h383v-76h-464z" />
    <glyph glyph-name="zcaron" unicode="&#x17e;" horiz-adv-x="408" 
d="M209 526l-150 113l48 51l102 -83l100 83l48 -51zM52 0l-28 53l247 336h-232v71h316l21 -57l-244 -331h232v-72h-312z" />
    <glyph glyph-name="florin" unicode="&#x192;" horiz-adv-x="382" 
d="M52 -6q-52 0 -90 20l26 66q5 -4 21 -10t27 -6q72 0 81 68l8 80h-77v67h83l5 56q7 61 45 99t98 38q49 0 89 -18l-26 -67q-27 15 -62 15q-22 0 -42.5 -16.5t-24.5 -55.5l-6 -51h104v-67h-110l-6 -78q-7 -64 -43.5 -102t-99.5 -38z" />
    <glyph glyph-name="uni01D3" unicode="&#x1d3;" horiz-adv-x="672" 
d="M340 716l-149 113l48 51l101 -83l101 83l48 -51zM338 -7q-116 0 -191 61.5t-75 168.5v465h85v-456q0 -75 51.5 -118t132.5 -43t127.5 41t46.5 128v448h85v-464q0 -109 -76 -170t-186 -61z" />
    <glyph glyph-name="uni01D4" unicode="&#x1d4;" horiz-adv-x="504" 
d="M246 526l-150 113l48 51l102 -83l100 83l48 -51zM209 -6q-69 0 -106 34.5t-37 90.5v341h78v-319q0 -75 74 -75q38 0 76 25t57 47v322h79v-460h-79v60q-74 -66 -142 -66z" />
    <glyph glyph-name="AEmacron" unicode="&#x1e2;" horiz-adv-x="845" 
d="M75 -7l-79 20l410 675h394v-77h-295v-220h273v-76h-273v-238h295v-77h-380v214h-212zM251 289h169v280zM479 749v68h229v-68h-229z" />
    <glyph glyph-name="aemacron" unicode="&#x1e3;" horiz-adv-x="697" 
d="M160 -6q-57 0 -91.5 32.5t-34.5 86.5q0 67 50 100.5t147 57.5l56 12v40q0 73 -80 73q-43 0 -116 -47l-38 56q85 61 158 61q97 0 135 -63q55 63 147 63q88 0 131.5 -57t43.5 -148v-44h-302q2 -66 38 -110t100 -44q55 0 115 32l7 -15l16 -32l8 -16q-65 -38 -150 -38
q-111 0 -171 79q-88 -79 -169 -79zM172 60q48 0 115 46v118l-49 -11q-126 -33 -126 -94q0 -59 60 -59zM369 279h219q0 50 -25 84.5t-73 34.5q-52 0 -83 -36.5t-38 -82.5zM236 548v68h229v-68h-229z" />
    <glyph glyph-name="AEacute" unicode="&#x1fc;" horiz-adv-x="845" 
d="M536 716l-37 45l153 128l50 -62zM75 -7l-79 20l410 675h394v-77h-295v-220h273v-76h-273v-238h295v-77h-380v214h-212zM251 289h169v280z" />
    <glyph glyph-name="aeacute" unicode="&#x1fd;" horiz-adv-x="697" 
d="M318 517l-41 42l143 141l54 -58zM160 -6q-57 0 -91.5 32.5t-34.5 86.5q0 67 50 100.5t147 57.5l56 12v40q0 73 -80 73q-43 0 -116 -47l-38 56q85 61 158 61q97 0 135 -63q55 63 147 63q88 0 131.5 -57t43.5 -148v-44h-302q2 -66 38 -110t100 -44q55 0 115 32l7 -15
l16 -32l8 -16q-65 -38 -150 -38q-111 0 -171 79q-88 -79 -169 -79zM172 60q48 0 115 46v118l-49 -11q-126 -33 -126 -94q0 -59 60 -59zM369 279h219q0 50 -25 84.5t-73 34.5q-52 0 -83 -36.5t-38 -82.5z" />
    <glyph glyph-name="Oslashacute" unicode="&#x1fe;" horiz-adv-x="771" 
d="M387 -6q-131 0 -222 75l-72 -74l-48 44l74 78q-73 92 -73 227q0 149 93.5 249.5t248.5 100.5q125 0 214 -75l72 74l49 -45l-74 -77q76 -98 76 -226q0 -156 -94 -253.5t-244 -97.5zM383 71q117 0 187 79t70 194q0 97 -48 168l-369 -383q66 -58 160 -58zM180 179l367 383
q-66 55 -161 55q-117 0 -185.5 -78.5t-68.5 -194.5q0 -93 48 -165zM351 716l-37 45l153 128l50 -62z" />
    <glyph glyph-name="oslashacute" unicode="&#x1ff;" horiz-adv-x="511" 
d="M78 -8l-45 39l45 51q-44 63 -44 147q0 41 13.5 81.5t39 76t70 58t100.5 22.5q75 0 130 -40l44 51l44 -40l-47 -54q49 -65 49 -154q0 -41 -13 -81t-38.5 -75.5t-69 -57.5t-98.5 -22q-82 0 -139 44zM256 65q55 0 97.5 41t42.5 124q0 56 -24 93l-201 -227q38 -31 85 -31z
M135 144l199 226q-34 24 -76 24q-53 0 -98 -40.5t-45 -124.5q0 -48 20 -85zM216 517l-41 42l143 141l54 -58z" />
    <glyph glyph-name="Scommaaccent" unicode="&#x218;" horiz-adv-x="482" 
d="M169 -201l29 170h81l-52 -170h-58zM232 -6q-116 0 -190 72l51 60q59 -55 134 -55q53 0 90 30t37 79q0 30 -9.5 53t-31.5 40t-39 26t-51 24q-6 3 -9 4q-80 36 -118 76t-38 121q0 72 59 121t134 49q51 0 89.5 -10.5t88.5 -42.5l-43 -65q-39 26 -67 33.5t-67 7.5t-74 -24.5
t-35 -73.5q0 -18 3.5 -32.5t15 -27.5t17 -19.5t27 -18t26.5 -14t32 -15.5q37 -17 55 -26t46 -28t41 -37.5t23.5 -49t10.5 -67.5q0 -80 -61.5 -135t-146.5 -55z" />
    <glyph glyph-name="scommaaccent" unicode="&#x219;" horiz-adv-x="363" 
d="M115 -201l29 170h81l-52 -170h-58zM172 -6q-82 0 -136 38l36 62q44 -30 98 -30q33 0 54.5 16t21.5 44t-23 46.5t-73 41.5q-54 26 -79.5 55t-25.5 79q0 56 44.5 88t97.5 32q77 0 128 -37l-36 -60q-36 27 -91 27q-27 0 -46 -13t-19 -35q0 -9 1.5 -16t6 -13l7.5 -10
t11.5 -9.5t12.5 -7.5t15 -8t15 -8q2 -1 21.5 -10.5t24 -12.5t21 -13t22.5 -16t17 -18t15.5 -22.5t8.5 -26t4 -32.5q0 -61 -46.5 -96t-107.5 -35z" />
    <glyph glyph-name="uni021A" unicode="&#x21a;" horiz-adv-x="503" 
d="M193 -201l29 170h81l-52 -170h-58zM211 0v611h-215v77h511v-77h-211v-611h-85z" />
    <glyph glyph-name="uni021B" unicode="&#x21b;" horiz-adv-x="326" 
d="M148 -201l29 170h81l-52 -170h-58zM213 -6q-114 0 -114 126v270h-78v70h77v93h79v-93h120v-69h-119v-261q0 -65 48 -65q15 0 29 3.5t25 8.5l12 5l24 -64q-48 -24 -103 -24z" />
    <glyph glyph-name="Ymacron" unicode="&#x232;" horiz-adv-x="548" 
d="M231 0v313l-232 352l81 28l196 -299l195 299l78 -29l-233 -351v-313h-85zM162 749v68h229v-68h-229z" />
    <glyph glyph-name="ymacron" unicode="&#x233;" horiz-adv-x="461" 
d="M45 -238q-22 0 -34 1v70q9 -1 27 -1q38 0 68 21t44 56l43 106l-182 432l79 18l145 -355l142 355l74 -18l-226 -553q-55 -132 -180 -132zM120 548v68h229v-68h-229z" />
    <glyph glyph-name="dotlessj" unicode="&#x237;" horiz-adv-x="249" 
d="M21 -233l-45 55q109 66 109 201v437h78v-448q0 -163 -142 -245z" />
    <glyph glyph-name="circumflex" unicode="&#x2c6;" horiz-adv-x="342" 
d="M71 525l-48 52l150 113l148 -113l-48 -52l-100 84z" />
    <glyph glyph-name="caron" unicode="&#x2c7;" horiz-adv-x="346" 
d="M173 526l-150 113l48 51l102 -83l100 83l48 -51z" />
    <glyph glyph-name="breve" unicode="&#x2d8;" horiz-adv-x="331" 
d="M167 544q-60 0 -97.5 33.5t-45.5 62.5l52 25l2 -3q3 -4 5.5 -7.5t7 -9t10 -10.5t12.5 -10t15 -8.5t18 -6t21 -2.5q27 0 49.5 14t30.5 25.5t11 17.5l51 -24q-9 -29 -45.5 -63t-96.5 -34z" />
    <glyph glyph-name="dotaccent" unicode="&#x2d9;" horiz-adv-x="264" 
d="M132 557q-22 0 -38 15.5t-16 38.5t16 38.5t38 15.5t38 -15.5t16 -38.5t-16 -38.5t-38 -15.5z" />
    <glyph glyph-name="ring" unicode="&#x2da;" horiz-adv-x="270" 
d="M135 518q-44 0 -73.5 27t-29.5 70t29.5 69.5t73.5 26.5t73.5 -26.5t29.5 -69.5t-29.5 -70t-73.5 -27zM135 564q19 0 33 15t14 36t-14 35.5t-33 14.5t-33 -14.5t-14 -35.5t14 -36t33 -15z" />
    <glyph glyph-name="ogonek" unicode="&#x2db;" horiz-adv-x="229" 
d="M135 -191q-48 0 -74 24.5t-26 65.5q0 46 40 85t91 66l33 -31q-91 -56 -91 -115q0 -16 11 -26t29 -10q24 0 39 6l9 -54q-29 -11 -61 -11z" />
    <glyph glyph-name="tilde" unicode="&#x2dc;" horiz-adv-x="364" 
d="M332 625q-13 -29 -39 -51.5t-59 -22.5q-22 0 -58.5 20t-50.5 20q-36 0 -56 -40l-43 33q13 31 39.5 52t56.5 21q22 0 58 -20.5t53 -20.5q19 0 30 9.5t23 29.5z" />
    <glyph glyph-name="hungarumlaut" unicode="&#x2dd;" horiz-adv-x="469" 
d="M87 536l-44 39l134 148l58 -53zM269 536l-41 43l143 139l54 -57z" />
    <glyph glyph-name="Omega" unicode="&#x3a9;" horiz-adv-x="771" 
d="M58 0v75h115q-53 43 -86.5 111.5t-33.5 157.5q0 149 93 249t247 100t246 -100t92 -249q0 -88 -32.5 -156.5t-82.5 -112.5h111v-75h-254v83q13 3 32 13t44.5 31.5t46.5 49.5t35.5 72t14.5 94q0 116 -68 195t-185 79t-185.5 -78.5t-68.5 -194.5q0 -61 20.5 -112.5t51 -81
t55.5 -46t42 -21.5v-83h-250z" />
    <glyph glyph-name="Omega" unicode="&#x2126;" horiz-adv-x="771" 
d="M58 0v75h115q-53 43 -86.5 111.5t-33.5 157.5q0 149 93 249t247 100t246 -100t92 -249q0 -88 -32.5 -156.5t-82.5 -112.5h111v-75h-254v83q13 3 32 13t44.5 31.5t46.5 49.5t35.5 72t14.5 94q0 116 -68 195t-185 79t-185.5 -78.5t-68.5 -194.5q0 -61 20.5 -112.5t51 -81
t55.5 -46t42 -21.5v-83h-250z" />
    <glyph glyph-name="pi" unicode="&#x3c0;" horiz-adv-x="641" 
d="M515 -6q-50 0 -85 30.5t-35 98.5v269h-183v-392h-77v392h-76v68h492v-68h-80v-269q0 -24 13 -40t36 -16q24 0 51 11l19 -67q-28 -17 -75 -17z" />
    <glyph glyph-name="uni1E46" unicode="&#x1e46;" horiz-adv-x="748" 
d="M384 -194q-22 0 -38 16t-16 38t16 38t38 16t38 -16t16 -38t-16 -38t-38 -16zM84 0v688h97l397 -559v559h85v-688h-96l-397 559v-559h-86z" />
    <glyph glyph-name="uni1E47" unicode="&#x1e47;" horiz-adv-x="507" 
d="M263 -196q-23 0 -38.5 16t-15.5 38t15.5 38t38.5 16t38.5 -16t15.5 -38t-15.5 -38t-38.5 -16zM74 0v460h79v-59q71 65 146 65q69 0 106 -34.5t37 -90.5v-341h-78v319q0 75 -73 75q-39 0 -79 -25.5t-59 -45.5v-323h-79z" />
    <glyph glyph-name="uni1E62" unicode="&#x1e62;" horiz-adv-x="482" 
d="M232 -6q-116 0 -190 72l51 60q59 -55 134 -55q53 0 90 30t37 79q0 30 -9.5 53t-31.5 40t-39 26t-51 24q-6 3 -9 4q-80 36 -118 76t-38 121q0 72 59 121t134 49q51 0 89.5 -10.5t88.5 -42.5l-43 -65q-39 26 -67 33.5t-67 7.5t-74 -24.5t-35 -73.5q0 -18 3.5 -32.5
t15 -27.5t17 -19.5t27 -18t26.5 -14t32 -15.5q37 -17 55 -26t46 -28t41 -37.5t23.5 -49t10.5 -67.5q0 -80 -61.5 -135t-146.5 -55zM239 -196q-23 0 -38.5 16t-15.5 38t15.5 38t38.5 16t38.5 -16t15.5 -38t-15.5 -38t-38.5 -16z" />
    <glyph glyph-name="uni1E63" unicode="&#x1e63;" horiz-adv-x="363" 
d="M172 -6q-82 0 -136 38l36 62q44 -30 98 -30q33 0 54.5 16t21.5 44t-23 46.5t-73 41.5q-54 26 -79.5 55t-25.5 79q0 56 44.5 88t97.5 32q77 0 128 -37l-36 -60q-36 27 -91 27q-27 0 -46 -13t-19 -35q0 -9 1.5 -16t6 -13l7.5 -10t11.5 -9.5t12.5 -7.5t15 -8t15 -8
q2 -1 21.5 -10.5t24 -12.5t21 -13t22.5 -16t17 -18t15.5 -22.5t8.5 -26t4 -32.5q0 -61 -46.5 -96t-107.5 -35zM169 -195q-23 0 -38.5 15.5t-15.5 38.5t15.5 38.5t38.5 15.5t38.5 -15.5t15.5 -38.5t-15.5 -38.5t-38.5 -15.5z" />
    <glyph glyph-name="Wgrave" unicode="&#x1e80;" horiz-adv-x="905" 
d="M217 0l-203 678l88 16l158 -559l156 553h78l157 -558l159 564l81 -14l-203 -680h-78l-157 553l-157 -553h-79zM497 716l-166 112l50 61l153 -127z" />
    <glyph glyph-name="wgrave" unicode="&#x1e81;" horiz-adv-x="726" 
d="M166 0l-157 448l76 18l123 -368l118 362h76l118 -362l123 368l74 -15l-159 -451h-80l-115 348l-117 -348h-80zM410 517l-156 125l53 58l144 -141z" />
    <glyph glyph-name="Wacute" unicode="&#x1e82;" horiz-adv-x="905" 
d="M417 716l-37 45l153 128l50 -62zM217 0l-203 678l88 16l158 -559l156 553h78l157 -558l159 564l81 -14l-203 -680h-78l-157 553l-157 -553h-79z" />
    <glyph glyph-name="wacute" unicode="&#x1e83;" horiz-adv-x="726" 
d="M330 517l-41 42l143 141l54 -58zM166 0l-157 448l76 18l123 -368l118 362h76l118 -362l123 368l74 -15l-159 -451h-80l-115 348l-117 -348h-80z" />
    <glyph glyph-name="Wdieresis" unicode="&#x1e84;" horiz-adv-x="905" 
d="M366 732q-22 0 -38 16t-16 38t16 38t38 16t38 -16t16 -38t-16 -38t-38 -16zM541 732q-23 0 -39 16t-16 38t16.5 38t38.5 16t38 -16t16 -38t-15.5 -38t-38.5 -16zM217 0l-203 678l88 16l158 -559l156 553h78l157 -558l159 564l81 -14l-203 -680h-78l-157 553l-157 -553
h-79z" />
    <glyph glyph-name="wdieresis" unicode="&#x1e85;" horiz-adv-x="726" 
d="M274 555q-22 0 -38 15.5t-16 38.5q0 22 16 38t38 16t38 -16t16 -38q0 -23 -16 -38.5t-38 -15.5zM449 555q-23 0 -39 16t-16 38t16.5 38t38.5 16t38 -16t16 -38q0 -23 -15.5 -38.5t-38.5 -15.5zM166 0l-157 448l76 18l123 -368l118 362h76l118 -362l123 368l74 -15
l-159 -451h-80l-115 348l-117 -348h-80z" />
    <glyph glyph-name="uni1EBC" unicode="&#x1ebc;" horiz-adv-x="510" 
d="M84 0v688h381v-77h-296v-220h274v-76h-274v-238h296v-77h-381zM423 802q-38 -74 -94 -74q-23 0 -61 20.5t-52 20.5q-35 0 -56 -40l-43 33q15 31 41 51t56 20q19 0 58 -20t52 -20q19 0 30.5 9.5t22.5 29.5z" />
    <glyph glyph-name="uni1EBD" unicode="&#x1ebd;" horiz-adv-x="450" 
d="M255 -6q-103 0 -159.5 64.5t-56.5 167.5t55 171.5t154 68.5q88 0 131 -57t43 -148v-44h-303q2 -65 39 -108.5t101 -43.5q59 0 115 30l8 -15l14 -32l8 -16q-65 -38 -149 -38zM123 279h220q0 50 -25 84.5t-74 34.5q-52 0 -83 -36.5t-38 -82.5zM394 625q-13 -29 -39 -51.5
t-59 -22.5q-22 0 -58.5 20t-50.5 20q-36 0 -56 -40l-43 33q13 31 39.5 52t56.5 21q22 0 58 -20.5t53 -20.5q19 0 30 9.5t23 29.5z" />
    <glyph glyph-name="Ygrave" unicode="&#x1ef2;" horiz-adv-x="548" 
d="M231 0v313l-232 352l81 28l196 -299l195 299l78 -29l-233 -351v-313h-85zM316 716l-166 112l50 61l153 -127z" />
    <glyph glyph-name="ygrave" unicode="&#x1ef3;" horiz-adv-x="461" 
d="M45 -238q-22 0 -34 1v70q9 -1 27 -1q38 0 68 21t44 56l43 106l-182 432l79 18l145 -355l142 355l74 -18l-226 -553q-55 -132 -180 -132zM262 517l-156 125l53 58l144 -141z" />
    <glyph glyph-name="uni2012" unicode="&#x2012;" horiz-adv-x="504" 
d="M-13 310v67h530v-67h-530z" />
    <glyph glyph-name="endash" unicode="&#x2013;" 
d="M30 196v67h440v-67h-440z" />
    <glyph glyph-name="emdash" unicode="&#x2014;" horiz-adv-x="756" 
d="M30 196v67h696v-67h-696z" />
    <glyph glyph-name="quoteleft" unicode="&#x2018;" horiz-adv-x="218" 
d="M41 523l83 200h67l-72 -200h-78z" />
    <glyph glyph-name="quoteright" unicode="&#x2019;" horiz-adv-x="218" 
d="M37 522l72 200h79l-84 -200h-67z" />
    <glyph glyph-name="quotesinglbase" unicode="&#x201a;" horiz-adv-x="204" 
d="M19 -117l72 200h79l-84 -200h-67z" />
    <glyph glyph-name="quotedblleft" unicode="&#x201c;" horiz-adv-x="354" 
d="M41 523l83 200h67l-72 -200h-78zM173 523l84 200h67l-72 -200h-79z" />
    <glyph glyph-name="quotedblright" unicode="&#x201d;" horiz-adv-x="354" 
d="M42 524l72 200h78l-83 -200h-67zM174 524l72 200h79l-84 -200h-67z" />
    <glyph glyph-name="quotedblbase" unicode="&#x201e;" horiz-adv-x="368" 
d="M30 -117l72 199h79l-84 -199h-67zM162 -117l72 199h79l-84 -199h-67z" />
    <glyph glyph-name="dagger" unicode="&#x2020;" horiz-adv-x="514" 
d="M213 -114v508h-186v70h185v228h82v-228h192v-69h-192v-509h-81z" />
    <glyph glyph-name="daggerdbl" unicode="&#x2021;" horiz-adv-x="514" 
d="M213 -114v287h-186v70h186v151h-186v70h185v228h82v-228h192v-69h-192v-152h192v-70h-192v-287h-81z" />
    <glyph glyph-name="bullet" unicode="&#x2022;" horiz-adv-x="486" 
d="M243 149q-61 0 -104 43t-43 103q0 61 43 104t104 43t104 -43t43 -104q0 -60 -43 -103t-104 -43z" />
    <glyph glyph-name="ellipsis" unicode="&#x2026;" horiz-adv-x="708" 
d="M125 -6q-23 0 -40 17t-17 40t17 40t40 17t39.5 -17t16.5 -40t-16.5 -40t-39.5 -17zM354 -6q-23 0 -40 17t-17 40t17 39.5t40 16.5t39.5 -16.5t16.5 -39.5t-16.5 -40t-39.5 -17zM583 -6q-23 0 -39.5 17t-16.5 40t16.5 40t39.5 17q24 0 40.5 -17t16.5 -40t-16.5 -40
t-40.5 -17z" />
    <glyph glyph-name="perthousand" unicode="&#x2030;" horiz-adv-x="1114" 
d="M186 342q-68 0 -112 47.5t-44 128.5q0 80 45 128t114 48q68 0 111 -48t43 -128t-45 -128t-112 -48zM187 409q32 0 54.5 29.5t22.5 80.5q0 52 -22 81t-54 29q-33 0 -55.5 -29t-22.5 -81q0 -50 22 -80t55 -30zM579 -6q-68 0 -112 47.5t-44 128.5q0 79 45 127t115 48
q68 0 111 -47.5t43 -128.5q0 -80 -45.5 -127.5t-112.5 -47.5zM580 60q32 0 54.5 29.5t22.5 80.5q0 52 -21.5 81t-54.5 29q-32 0 -55 -29t-23 -81q0 -50 22.5 -80t54.5 -30zM927 -6q-68 0 -112 47.5t-44 128.5q0 79 45 127t114 48q68 0 111 -47.5t43 -128.5q0 -80 -45 -127.5
t-112 -47.5zM928 60q32 0 54 29.5t22 80.5q0 52 -21.5 81t-53.5 29q-33 0 -55.5 -29t-22.5 -81q0 -50 22 -80t55 -30zM244 -33l-67 31l338 726l67 -31z" />
    <glyph glyph-name="guilsinglleft" unicode="&#x2039;" horiz-adv-x="316" 
d="M192 38l-126 176l126 176l58 -38l-100 -138l100 -137z" />
    <glyph glyph-name="guilsinglright" unicode="&#x203a;" horiz-adv-x="316" 
d="M125 38l-59 39l101 137l-101 138l59 38l125 -176z" />
    <glyph glyph-name="fraction" unicode="&#x2044;" horiz-adv-x="145" 
d="M-59 -33l-63 29l346 725l63 -27z" />
    <glyph glyph-name="zerosuperior" unicode="&#x2070;" horiz-adv-x="322" 
d="M161 332q-58 0 -91.5 49t-33.5 131q0 85 33.5 133t92.5 48q57 0 90 -48t33 -133t-33.5 -132.5t-90.5 -47.5zM160 390q59 0 59 122t-58 122t-58 -122q0 -51 13.5 -86.5t43.5 -35.5z" />
    <glyph glyph-name="foursuperior" unicode="&#x2074;" horiz-adv-x="282" 
d="M150 335v95h-124l-23 41l132 214h80v-196h40v-59h-40v-95h-65zM74 489h76l1 132z" />
    <glyph glyph-name="fivesuperior" unicode="&#x2075;" horiz-adv-x="302" 
d="M134 332q-48 0 -100 31l30 52q41 -25 70 -25q28 0 46 15t18 43q0 56 -67 56q-32 0 -50 -3l-23 26l20 163h170v-60h-118l-8 -69q17 1 18 1q56 0 90.5 -27t34.5 -85q0 -48 -36.5 -83t-94.5 -35z" />
    <glyph glyph-name="sixsuperior" unicode="&#x2076;" horiz-adv-x="284" 
d="M139 330q-59 0 -88.5 36t-29.5 98q0 78 50 139.5t130 93.5l28 -51q-88 -36 -123 -100q20 8 45 8q43 0 72 -28t29 -79q0 -52 -31.5 -84.5t-81.5 -32.5zM138 386q23 0 36 16.5t13 41.5q0 29 -14.5 44t-37.5 15q-24 0 -45 -7q-4 -16 -4 -37q0 -29 13.5 -51t38.5 -22z" />
    <glyph glyph-name="sevensuperior" unicode="&#x2077;" horiz-adv-x="260" 
d="M115 329l-62 19l125 279h-145v61h198l22 -36z" />
    <glyph glyph-name="eightsuperior" unicode="&#x2078;" horiz-adv-x="302" 
d="M150 332q-48 0 -81 27.5t-33 75.5q0 55 53 86q-44 28 -44 75q0 37 27 66t79 29q50 0 77.5 -26.5t27.5 -66.5q0 -42 -43 -77q51 -31 51 -84q0 -46 -32 -75.5t-82 -29.5zM150 389q21 0 35.5 12.5t14.5 33.5q0 39 -53 63q-47 -20 -47 -60q0 -18 14.5 -33.5t35.5 -15.5z
M155 543q36 15 36 50q0 22 -12.5 33t-27.5 11q-16 0 -29 -11t-13 -30q0 -36 46 -53z" />
    <glyph glyph-name="ninesuperior" unicode="&#x2079;" horiz-adv-x="291" 
d="M84 326l-27 53q89 35 125 98q-28 -7 -46 -7q-45 0 -73.5 29.5t-28.5 77.5q0 52 31 84t82 32q58 0 87.5 -35.5t29.5 -97.5q0 -78 -50 -139.5t-130 -94.5zM150 524q29 0 46 6q3 12 3 35q0 30 -13.5 50.5t-38.5 20.5q-22 0 -35 -16t-13 -40t14.5 -40t36.5 -16z" />
    <glyph glyph-name="plussuperior" unicode="&#x207a;" horiz-adv-x="262" 
d="M102 397v84h-81v54h81v80h58v-80h81v-54h-81v-84h-58z" />
    <glyph glyph-name="minussuperior" unicode="&#x207b;" horiz-adv-x="251" 
d="M16 480v54h220v-54h-220z" />
    <glyph glyph-name="equalsuperior" unicode="&#x207c;" horiz-adv-x="286" 
d="M34 437v53h218v-53h-218zM34 522v53h218v-53h-218z" />
    <glyph glyph-name="parenleftsuperior" unicode="&#x207d;" horiz-adv-x="186" 
d="M135 279q-44 36 -72 100t-28 125q0 65 30.5 129.5t70.5 94.5l37 -36q-80 -80 -80 -188q0 -44 22.5 -100.5t56.5 -83.5z" />
    <glyph glyph-name="parenrightsuperior" unicode="&#x207e;" horiz-adv-x="186" 
d="M51 279l-37 41q34 26 56.5 83t22.5 101q0 109 -79 188l36 36q41 -30 71 -94.5t30 -129.5q0 -62 -28 -126t-72 -99z" />
    <glyph glyph-name="zeroinferior" unicode="&#x2080;" horiz-adv-x="322" 
d="M161 -3q-58 0 -91.5 49t-33.5 131q0 85 33.5 133t92.5 48q57 0 90 -48t33 -133t-33.5 -132.5t-90.5 -47.5zM160 55q59 0 59 122t-58 122t-58 -122q0 -51 13.5 -86.5t43.5 -35.5z" />
    <glyph glyph-name="oneinferior" unicode="&#x2081;" horiz-adv-x="209" 
d="M90 0v277q-12 -6 -32.5 -19t-24.5 -15l-33 49l104 63h50v-355h-64z" />
    <glyph glyph-name="twoinferior" unicode="&#x2082;" horiz-adv-x="318" 
d="M54 0l-16 46q169 143 169 206q0 18 -14.5 32.5t-39.5 14.5q-42 0 -69 -33l-39 40q40 52 114 52q51 0 82.5 -26.5t31.5 -76.5q-1 -79 -142 -195h140v-60h-217z" />
    <glyph glyph-name="threeinferior" unicode="&#x2083;" horiz-adv-x="293" 
d="M134 -4q-59 0 -99 30l25 52q36 -22 76 -22q23 0 37 13t14 38q0 27 -19.5 40t-47.5 13h-29v51h29q23 0 41 13.5t18 36.5q0 17 -12 28.5t-31 11.5q-34 0 -66 -17l-24 48q42 26 95 26q47 0 76.5 -25t29.5 -67q0 -46 -44 -76q53 -26 53 -85q0 -46 -34.5 -77.5t-87.5 -31.5z
" />
    <glyph glyph-name="fourinferior" unicode="&#x2084;" horiz-adv-x="282" 
d="M150 0v95h-124l-23 41l132 214h80v-196h40v-59h-40v-95h-65zM74 154h76l1 132z" />
    <glyph glyph-name="fiveinferior" unicode="&#x2085;" horiz-adv-x="302" 
d="M134 -3q-48 0 -100 31l30 52q41 -25 70 -25q28 0 46 15t18 43q0 56 -67 56q-32 0 -50 -3l-23 26l20 163h170v-60h-118l-8 -69q17 1 18 1q56 0 90.5 -27t34.5 -85q0 -48 -36.5 -83t-94.5 -35z" />
    <glyph glyph-name="sixinferior" unicode="&#x2086;" horiz-adv-x="284" 
d="M139 -5q-59 0 -88.5 36t-29.5 98q0 78 50 139.5t130 93.5l28 -51q-88 -36 -123 -100q20 8 45 8q43 0 72 -28t29 -79q0 -52 -31.5 -84.5t-81.5 -32.5zM138 51q23 0 36 16.5t13 41.5q0 29 -14.5 44t-37.5 15q-24 0 -45 -7q-4 -16 -4 -37q0 -29 13.5 -51t38.5 -22z" />
    <glyph glyph-name="seveninferior" unicode="&#x2087;" horiz-adv-x="260" 
d="M115 -6l-62 19l125 279h-145v61h198l22 -36z" />
    <glyph glyph-name="eightinferior" unicode="&#x2088;" horiz-adv-x="302" 
d="M150 -3q-48 0 -81 27.5t-33 75.5q0 55 53 86q-44 28 -44 75q0 37 27 66t79 29q50 0 77.5 -26.5t27.5 -66.5q0 -42 -43 -77q51 -31 51 -84q0 -46 -32 -75.5t-82 -29.5zM150 54q21 0 35.5 12.5t14.5 33.5q0 39 -53 63q-47 -20 -47 -60q0 -18 14.5 -33.5t35.5 -15.5z
M155 208q36 15 36 50q0 22 -12.5 33t-27.5 11q-16 0 -29 -11t-13 -30q0 -36 46 -53z" />
    <glyph glyph-name="nineinferior" unicode="&#x2089;" horiz-adv-x="291" 
d="M84 -9l-27 53q89 35 125 98q-28 -7 -46 -7q-45 0 -73.5 29.5t-28.5 77.5q0 52 31 84t82 32q58 0 87.5 -35.5t29.5 -97.5q0 -78 -50 -139.5t-130 -94.5zM150 189q29 0 46 6q3 12 3 35q0 30 -13.5 50.5t-38.5 20.5q-22 0 -35 -16t-13 -40t14.5 -40t36.5 -16z" />
    <glyph glyph-name="parenleft.inferior" unicode="&#x208d;" horiz-adv-x="186" 
d="M135 -56q-44 36 -72 100t-28 125q0 65 30.5 129.5t70.5 94.5l37 -36q-80 -80 -80 -188q0 -44 22.5 -100.5t56.5 -83.5z" />
    <glyph glyph-name="parenright.inferior" unicode="&#x208e;" horiz-adv-x="186" 
d="M51 -56l-37 41q34 26 56.5 83t22.5 101q0 109 -79 188l36 36q41 -30 71 -94.5t30 -129.5q0 -62 -28 -126t-72 -99z" />
    <glyph glyph-name="colonsign" unicode="&#x20a1;" horiz-adv-x="578" 
d="M154 6l-63 28l34 72q-79 94 -79 238q0 156 99.5 253t239.5 97q14 0 20 -1l32 67l63 -28l-24 -49q37 -10 57 -22l24 49l63 -28l-290 -606q27 -5 48 -5q79 0 135 27l34 -66q-64 -38 -169 -38q-35 0 -82 9l-23 -47l-62 28l20 42q-23 9 -53 31zM132 345q0 -82 36 -148
l201 420q-90 -3 -163.5 -77t-73.5 -195zM216 135q22 -20 50 -36l234 492q-24 12 -58 19z" />
    <glyph glyph-name="cruzeiro" unicode="&#x20a2;" horiz-adv-x="567" 
d="M378 -6q-139 0 -235.5 94t-96.5 256q0 156 99.5 253t239.5 97q100 0 158 -39l-36 -68q-50 30 -132 30q-91 0 -167 -74.5t-76 -197.5q0 -92 45 -162.5t119 -97.5v335h78v-62q62 69 116 69q36 0 74 -17l-33 -74q-25 14 -57 14q-26 0 -55 -23.5t-45 -50.5v-205h4
q79 0 135 27l34 -66q-64 -38 -169 -38z" />
    <glyph glyph-name="franc" unicode="&#x20a3;" horiz-adv-x="572" 
d="M84 0v688h378v-77h-293v-240h136v72h79v-63q56 70 116 70q36 0 74 -17l-33 -74q-23 13 -58 13q-25 0 -54 -23t-45 -50v-299h-79v295h-136v-295h-85z" />
    <glyph glyph-name="lira" unicode="&#x20a4;" horiz-adv-x="490" 
d="M62 0v61q43 23 69.5 65.5t29.5 91.5q1 8 1 28h-102v65h99l-9 63h-90v65h82q-5 37 -5 52q0 91 54.5 146.5t139.5 55.5q71 0 118 -28l-30 -70q-42 22 -86 22q-50 0 -80 -36t-30 -85q0 -27 3 -57h158v-65h-149l7 -63h142v-65h-140q0 -37 -5 -58q-16 -73 -56 -113h284v-75
h-405z" />
    <glyph glyph-name="mill" unicode="&#x20a5;" horiz-adv-x="757" 
d="M222 -135l-63 28l186 390v52q0 31 -18 44.5t-41 13.5q-38 0 -79 -25t-54 -42v-326h-79v460h79v-57q70 63 147 63q75 0 106 -56l99 209l63 -27l-65 -139q33 13 65 13q61 0 92.5 -35t31.5 -85v-346h-78v335q0 31 -17.5 44.5t-41.5 13.5q-48 0 -101 -41l-30 -63v-289h-79
v125z" />
    <glyph glyph-name="naira" unicode="&#x20a6;" horiz-adv-x="748" 
d="M16 385v53h68v250h97l177 -250h220v250h85v-250h67v-53h-67v-81h67v-53h-67v-251h-96l-179 251h-218v-251h-86v251h-68v53h68v81h-68zM396 385l57 -81h125v81h-182zM170 385v-81h181l-58 81h-123zM491 251l87 -122v122h-87zM170 559v-121h86z" />
    <glyph glyph-name="pesetas" unicode="&#x20a7;" horiz-adv-x="1129" 
d="M84 0v688h181q58 0 103.5 -15.5t79 -59t33.5 -111.5q0 -95 -66 -157t-174 -62h-72v-283h-85zM169 357h60q84 0 124.5 41.5t40.5 102.5q0 110 -143 110h-82v-254zM937 -6q-82 0 -136 38l36 62q44 -30 98 -30q33 0 54.5 16t21.5 44t-23 46.5t-73 41.5q-54 26 -79.5 55
t-25.5 79q0 56 44.5 88t97.5 32q77 0 128 -37l-36 -60q-36 27 -91 27q-27 0 -46 -13t-19 -35q0 -9 1.5 -16t6 -13l7.5 -10t11.5 -9.5t12.5 -7.5t15 -8t15 -8q2 -1 21.5 -10.5t24 -12.5t21 -13t22.5 -16t17 -18t15.5 -22.5t8.5 -26t4 -32.5q0 -61 -46.5 -96t-107.5 -35z
M681 -6q-114 0 -114 126v270h-78v70h77v93h79v-93h120v-69h-119v-261q0 -65 48 -65q15 0 29 3.5t25 8.5l12 5l24 -64q-48 -24 -103 -24z" />
    <glyph glyph-name="rupee" unicode="&#x20a8;" horiz-adv-x="805" 
d="M614 -7q-43 0 -73.5 8.5t-74.5 38.5t-98.5 92t-131.5 165h-67v-297h-85v688h178q26 0 49 -2.5t55.5 -13.5t56 -29t40 -53t16.5 -82q0 -76 -43 -127t-110 -72q118 -150 176.5 -198t109.5 -48q33 0 54.5 16.5t21.5 44.5q0 29 -23.5 47t-73.5 41q-53 27 -78.5 55.5
t-25.5 78.5q0 56 44 88t97 32q76 0 129 -37l-37 -60q-34 27 -91 27q-27 0 -46 -13t-19 -35q0 -9 1.5 -16t6 -13l7.5 -10t12 -9.5t12.5 -7.5t15 -8t15.5 -8q3 -2 21 -11l24 -12t21.5 -12.5t21.5 -16t17 -18t15.5 -22.5t8.5 -26.5t4 -32.5q0 -61 -46.5 -96.5t-106.5 -35.5z
M169 373h57q89 0 127 38.5t38 94.5q0 34 -13 56.5t-36.5 32t-45.5 13t-51 3.5h-76v-238z" />
    <glyph glyph-name="won" unicode="&#x20a9;" horiz-adv-x="907" 
d="M12 402v59h67l-65 215l88 17l66 -232h185l63 227h78l65 -227h187l64 233l81 -16l-64 -217h70v-59h-87l-26 -86h113v-59h-130l-76 -257h-78l-75 257h-168l-72 -257h-78l-79 257h-129v59h111l-26 86h-85zM576 402l24 -86h105l24 86h-153zM185 402l25 -86h102l24 86h-151z
M410 402l-24 -86h135l-25 86h-86zM617 257l37 -127l35 127h-72zM227 257l35 -122l34 122h-69zM453 553l-26 -92h52z" />
    <glyph glyph-name="sheqel" unicode="&#x20aa;" horiz-adv-x="845" 
d="M84 0v688h213q159 0 214 -63.5t55 -225.5v-158h-85v152q0 65 -5.5 99.5t-25.5 62t-59 37.5t-107 10h-114v-602h-86zM279 0v460h85v-374h114q68 0 107 10t59 37.5t25.5 62t5.5 99.5v393h86v-399q0 -162 -55 -225.5t-214 -63.5h-213z" />
    <glyph glyph-name="dong" unicode="&#x20ab;" horiz-adv-x="531" 
d="M242 97q-94 0 -148 64.5t-54 153.5q0 88 53.5 146.5t140.5 58.5q19 0 37 -4t34.5 -11.5t26.5 -13t24 -15t16 -10.5v119h-122v63h122v73h77v-73h63v-63h-63v-481h-77v49q-75 -56 -130 -56zM245 169q58 0 127 63v157q-72 59 -132 59q-121 0 -121 -131q0 -70 35 -109t91 -39
zM38 0v64h474v-64h-474z" />
    <glyph glyph-name="Euro" unicode="&#x20ac;" horiz-adv-x="492" 
d="M286 -6q-114 0 -174 59t-60 169q0 112 68.5 178.5t177.5 66.5q99 0 157 -52l-49 -61q-46 36 -115 36q-103 0 -138 -86h202v-51h-215q-1 -9 -1 -31v-18h216v-51h-205q32 -83 136 -83q79 0 127 41l47 -57q-68 -60 -174 -60z" />
    <glyph glyph-name="uni20AD" unicode="&#x20ad;" horiz-adv-x="595" 
d="M-1 338v58h85v292h86v-292h35l278 299l82 -32l-255 -267h214v-58h-211l268 -308l-83 -37l-298 345h-30v-338h-86v338h-85z" />
    <glyph glyph-name="uni20AE" unicode="&#x20ae;" horiz-adv-x="503" 
d="M43 234l-29 48l197 120v209h-215v77h511v-77h-211v-157l105 65l29 -47l-134 -83v-77l173 106l29 -47l-202 -123v-248h-85v196l-100 -61l-29 47l129 78v77z" />
    <glyph glyph-name="uni20B1" unicode="&#x20b1;" horiz-adv-x="536" 
d="M16 512v53h68v123h181q71 0 129 -29.5t78 -93.5h64v-53h-55v-10q0 -16 -4 -42h59v-53h-76q-27 -57 -84 -90.5t-135 -33.5h-72v-283h-85v407h-68v53h68v52h-68zM394 501q0 7 -1 11h-224v-52h220q5 22 5 41zM169 611v-46h207q-33 46 -125 46h-82zM169 357h60q89 0 132 50
h-192v-50z" />
    <glyph glyph-name="afii61289" unicode="&#x2113;" horiz-adv-x="429" 
d="M235 -12q-66 0 -95.5 39t-29.5 121v80q-30 -22 -53 -37l-30 44q53 39 83 65v187q0 243 151 243q50 0 82 -36t32 -102q0 -73 -49 -155t-139 -159v-99q0 -74 13 -101.5t47 -27.5q42 0 71 37l39 -34q-16 -28 -49 -46.5t-73 -18.5zM187 364q109 119 109 216q0 91 -49 91
q-60 0 -60 -147v-160z" />
    <glyph glyph-name="afii61352" unicode="&#x2116;" horiz-adv-x="937" 
d="M741 191q-66 0 -101.5 41.5t-35.5 100.5q0 58 37.5 101t103.5 43q65 0 100 -42.5t35 -100.5t-36.5 -100.5t-102.5 -42.5zM742 254q28 0 48.5 18t20.5 62q0 43 -20 61.5t-48 18.5t-49 -18t-21 -62q0 -43 20.5 -61.5t48.5 -18.5zM84 0v460h97l256 -346v346h85v-460h-96
l-256 345v-345h-86zM608 105v59h276v-59h-276z" />
    <glyph glyph-name="uni2117" unicode="&#x2117;" horiz-adv-x="788" 
d="M406 -23q-148 0 -253.5 105t-105.5 253q0 149 105.5 254t253.5 105t253.5 -105t105.5 -254q0 -148 -105.5 -253t-253.5 -105zM406 36q122 0 207.5 88t85.5 211q0 124 -85.5 212t-207.5 88t-207.5 -87.5t-85.5 -212.5q0 -123 85.5 -211t207.5 -88zM311 140v395h109
q58 0 94.5 -29.5t36.5 -87.5q0 -62 -42.5 -98t-108.5 -36h-26v-144h-63zM374 341h28q85 0 85 77q0 31 -22.5 46t-54.5 15h-36v-138z" />
    <glyph glyph-name="servicemark" unicode="&#x2120;" horiz-adv-x="857" 
d="M156 277q-74 0 -123 49l40 46q39 -36 80 -36q28 0 47.5 16t19.5 42q0 20 -12.5 36t-24.5 23t-39 20q-32 16 -48.5 26t-33.5 36.5t-17 61.5q0 45 37 75.5t85 30.5q65 0 116 -35l-34 -51q-41 27 -83 27q-19 0 -37.5 -13t-18.5 -37t17 -38.5t53 -31.5q25 -12 38 -20
t31.5 -23.5t27 -36.5t8.5 -48q0 -51 -38.5 -85t-90.5 -34zM361 288l26 400h70l126 -287l140 287h63l19 -400l-66 -2l-12 271l-115 -242h-60l-107 242l-17 -271z" />
    <glyph glyph-name="trademark" unicode="&#x2122;" horiz-adv-x="857" 
d="M361 288l26 400h70l126 -287l140 287h63l19 -400l-66 -2l-12 271l-115 -242h-60l-107 242l-17 -271zM146 289v337h-130v62h325v-62h-127v-337h-68z" />
    <glyph glyph-name="estimated" unicode="&#x212e;" horiz-adv-x="519" 
d="M267 -6q-101 0 -166.5 61t-65.5 167q0 107 65.5 177.5t172.5 70.5q94 0 152.5 -54t58.5 -149v-44h-356v-53q0 -48 41.5 -88.5t103.5 -40.5q54 0 89.5 19t67.5 61l33 -26q-68 -101 -196 -101zM128 267h263v22q0 64 -31.5 101t-89.5 37q-64 0 -103 -37t-39 -101v-22z" />
    <glyph glyph-name="onethird" unicode="&#x2153;" horiz-adv-x="756" 
d="M578 -4q-59 0 -99 30l25 52q36 -22 76 -22q23 0 37 13t14 38q0 27 -19.5 40t-47.5 13h-29v51h29q23 0 41 13.5t18 36.5q0 17 -12 28.5t-31 11.5q-34 0 -66 -17l-24 48q42 26 95 26q47 0 76.5 -25t29.5 -67q0 -46 -44 -76q53 -26 53 -85q0 -46 -34.5 -77.5t-87.5 -31.5z
M141 335v277q-12 -6 -32.5 -19t-24.5 -15l-33 49l104 63h50v-355h-64zM225 -33l-63 29l346 725l63 -27z" />
    <glyph glyph-name="twothirds" unicode="&#x2154;" horiz-adv-x="758" 
d="M581 -4q-59 0 -99 30l25 52q36 -22 76 -22q23 0 37 13t14 38q0 27 -19.5 40t-47.5 13h-29v51h29q23 0 41 13.5t18 36.5q0 17 -12 28.5t-31 11.5q-34 0 -66 -17l-24 48q42 26 95 26q47 0 76.5 -25t29.5 -67q0 -46 -44 -76q53 -26 53 -85q0 -46 -34.5 -77.5t-87.5 -31.5z
M42 335l-16 46q169 143 169 206q0 18 -14.5 32.5t-39.5 14.5q-42 0 -69 -33l-39 40q40 52 114 52q51 0 82.5 -26.5t31.5 -76.5q-1 -79 -142 -195h140v-60h-217zM230 -33l-63 29l346 725l63 -27z" />
    <glyph glyph-name="uni215B" unicode="&#x215b;" horiz-adv-x="757" 
d="M141 335v277q-12 -6 -32.5 -19t-24.5 -15l-33 49l104 63h50v-355h-64zM225 -33l-63 29l346 725l63 -27zM594 -3q-48 0 -81 27.5t-33 75.5q0 55 53 86q-44 28 -44 75q0 37 27 66t79 29q50 0 77.5 -26.5t27.5 -66.5q0 -42 -43 -77q51 -31 51 -84q0 -46 -32 -75.5t-82 -29.5
zM594 54q21 0 35.5 12.5t14.5 33.5q0 39 -53 63q-47 -20 -47 -60q0 -18 14.5 -33.5t35.5 -15.5zM599 208q36 15 36 50q0 22 -12.5 33t-27.5 11q-16 0 -29 -11t-13 -30q0 -36 46 -53z" />
    <glyph glyph-name="arrowleft" unicode="&#x2190;" horiz-adv-x="686" 
d="M244 113l-231 231l231 231l48 -48l-150 -150h531v-67h-530l149 -149z" />
    <glyph glyph-name="arrowup" unicode="&#x2191;" horiz-adv-x="686" 
d="M309 14v530l-149 -149l-48 48l231 231l231 -231l-48 -48l-150 150v-531h-67z" />
    <glyph glyph-name="arrowright" unicode="&#x2192;" horiz-adv-x="686" 
d="M442 112l-48 48l150 150h-531v67h530l-149 149l48 48l231 -231z" />
    <glyph glyph-name="arrowdown" unicode="&#x2193;" horiz-adv-x="686" 
d="M343 15l-231 231l48 48l150 -150v531h67v-530l149 149l48 -48z" />
    <glyph glyph-name="uni2196" unicode="&#x2196;" horiz-adv-x="686" 
d="M539 95l-375 373l-1 -210l-68 -1l1 327h327v-67h-212l374 -376z" />
    <glyph glyph-name="uni2197" unicode="&#x2197;" horiz-adv-x="686" 
d="M133 86l-48 47l375 375h-211v68h327v-327h-68v212z" />
    <glyph glyph-name="uni2198" unicode="&#x2198;" horiz-adv-x="686" 
d="M249 110v68h212l-375 375l47 48l375 -375v211h68v-327h-327z" />
    <glyph glyph-name="uni2199" unicode="&#x2199;" horiz-adv-x="686" 
d="M425 106l-327 1v327h67v-212l375 374l48 -47l-374 -374h210z" />
    <glyph glyph-name="partialdiff" unicode="&#x2202;" horiz-adv-x="586" 
d="M259 -6q-91 0 -149 56t-58 152q0 101 62 157.5t143 56.5q46 0 73.5 -8t73.5 -33q-25 101 -69 162t-124 114l47 63q66 -42 114 -94t73 -104t36 -98.5t11 -91.5q0 -51 -7 -96.5t-24 -89.5t-43 -75.5t-67 -51t-92 -19.5zM257 70q49 0 84 33.5t49.5 81.5t15.5 105
q-1 0 -18 9.5t-27 14t-28 12t-35 11t-34 3.5q-66 0 -98.5 -40.5t-32.5 -95.5q0 -44 14.5 -73.5t37.5 -41t39.5 -15.5t32.5 -4z" />
    <glyph glyph-name="Delta" unicode="&#x2206;" horiz-adv-x="660" 
d="M24 0l274 688h73l264 -688h-611zM136 73h385l-191 511z" />
    <glyph glyph-name="product" unicode="&#x220f;" horiz-adv-x="697" 
d="M84 0v688h529v-688h-85v612h-358v-612h-86z" />
    <glyph glyph-name="minus" unicode="&#x2212;" horiz-adv-x="473" 
d="M20 306v74h434v-74h-434z" />
    <glyph glyph-name="radical" unicode="&#x221a;" horiz-adv-x="573" 
d="M262 0l-134 342h-109v70h168l107 -274l188 624l76 -20l-234 -742h-62z" />
    <glyph glyph-name="infinity" unicode="&#x221e;" horiz-adv-x="826" 
d="M210 167q-75 0 -127.5 48.5t-52.5 123.5t52.5 125t127.5 50q65 0 109.5 -30t92.5 -86q50 57 94.5 86.5t109.5 29.5q75 0 127.5 -50t52.5 -125t-52.5 -123.5t-128.5 -48.5q-34 0 -63.5 9t-55 28t-42 35t-41.5 45q-33 -38 -56 -59t-62.5 -39.5t-84.5 -18.5zM208 243
q19 0 36.5 5t28 9.5t28 19t22 18.5t23.5 24.5t20 22.5q-4 4 -16 17t-16.5 17.5t-16 15.5t-18.5 15.5t-19 11.5t-22 10t-23.5 5.5t-27.5 2.5q-41 0 -67.5 -26.5t-26.5 -70.5q0 -45 25.5 -71t69.5 -26zM617 243q44 0 70 27t26 70q0 45 -26 71t-69 26q-14 0 -27.5 -2.5
t-23.5 -5.5t-22 -11t-18.5 -12t-18.5 -16l-15.5 -15.5t-17 -18t-15.5 -17.5q4 -5 17.5 -19.5t19.5 -20t18.5 -17t21.5 -16.5t22.5 -11.5t27.5 -9t30 -2.5z" />
    <glyph glyph-name="approxequal" unicode="&#x2248;" horiz-adv-x="530" 
d="M347 192q-36 0 -90 31.5t-86 31.5q-49 0 -101 -54l-47 46q61 87 152 87q36 0 90 -31t84 -31q61 0 102 53l56 -41q-67 -92 -160 -92zM347 351q-36 0 -90 31.5t-86 31.5q-49 0 -101 -54l-47 46q61 87 152 87q36 0 90 -31t84 -31q60 0 102 54l56 -42q-67 -92 -160 -92z" />
    <glyph glyph-name="notequal" unicode="&#x2260;" horiz-adv-x="572" 
d="M160 70l-59 35l68 115h-99v72h142l58 98h-200v72h243l87 146l59 -34l-66 -112h109v-72h-152l-58 -98h210v-72h-253z" />
    <glyph glyph-name="lessequal" unicode="&#x2264;" horiz-adv-x="475" 
d="M352 158l-287 244l287 244l51 -60l-224 -184l225 -184zM65 0v70h355v-70h-355z" />
    <glyph glyph-name="greaterequal" unicode="&#x2265;" horiz-adv-x="475" 
d="M124 158l-52 60l225 184l-223 184l51 60l286 -244zM57 0v70h355v-70h-355z" />
    <glyph glyph-name="uni25A0" unicode="&#x25a0;" horiz-adv-x="618" 
d="M80 0v459h458v-459h-458z" />
    <glyph glyph-name="uni25A1" unicode="&#x25a1;" horiz-adv-x="618" 
d="M80 0v459h458v-459h-458zM159 75h301v308h-301v-308z" />
    <glyph glyph-name="lozenge" unicode="&#x25ca;" horiz-adv-x="645" 
d="M285 0l-243 343l242 345h78l241 -345l-243 -343h-75zM325 74l179 271l-182 269l-180 -273z" />
    <glyph glyph-name="apple" unicode="&#xf8ff;" horiz-adv-x="1241" 
d="M390 318v11h10v18h-10v41h11v-40h19v40h11v-41h-10v-9h-10v-10h-10v-10h-11zM350 338v9h-10v30h-10v11h10v10h11v-10h20v-11h-20v-29h20v-10h-21zM590 338v9h-10v30h-10v11h10v10h11v-10h20v-11h-20v-29h20v-10h-21zM700 338v9h-10v31h10v10h21v-10h10v-21h-30v-9h30v-10
h-31zM880 338v9h-10v31h10v10h21v-10h10v-21h-30v-9h30v-10h-31zM110 347v10h-10v11h10v10h11v-10h10v-11h-10v-10h-11zM180 347v10h-10v11h10v10h11v-10h10v-11h-10v-10h-11zM270 347v10h-10v11h10v10h11v-10h10v-11h-10v-10h-11zM520 338v9h-10v31h10v10h21v-10h10v-31
h-10v-9h-21zM630 338v70h11v-20h20v-10h10v-40h-11v39h-19v-39h-11zM960 347v10h-10v11h10v10h11v-10h10v-11h-10v-10h-11zM1050 347v10h-10v11h10v10h11v-10h10v-11h-10v-10h-11zM1120 347v10h-10v11h10v10h11v-10h10v-11h-10v-10h-11zM450 318v70h31v-10h10v-31h-10v-9
h-20v-20h-11zM780 318v20h-20v9h-10v31h10v10h31v-70h-11zM820 338v9h-10v41h11v-40h19v40h11v-50h-31zM240 328v10h10v10h11v-10h-10v-10h-11zM250 377v10h-10v11h11v-10h10v-11h-11zM300 328v10h-10v10h11v-10h10v-10h-11zM290 377v11h10v10h11v-11h-10v-10h-11zM930 328
v10h10v10h11v-10h-10v-10h-11zM940 377v10h-10v11h11v-10h10v-11h-11zM990 328v10h-10v10h11v-10h10v-10h-11zM980 377v11h10v10h11v-11h-10v-10h-11zM160 338v10h11v-10h-11zM160 377v11h11v-11h-11zM200 338v10h11v-10h-11zM200 377v11h11v-11h-11zM461 348h19v29h-19v-29
zM521 348h19v29h-19v-29zM701 368h19v9h-19v-9zM761 348h19v29h-19v-29zM881 368h19v9h-19v-9zM1030 338v10h11v-10h-11zM1030 377v11h11v-11h-11zM1070 338v10h11v-10h-11zM1070 377v11h11v-11h-11z" />
    <glyph glyph-name="fl" unicode="&#xfb02;" horiz-adv-x="533" 
d="M108 0v390h-83v70h83v136q0 58 34 94.5t95 36.5q22 0 42.5 -3.5t31 -7t20.5 -7.5l10 -4l-27 -64q-31 16 -68 16q-22 0 -41 -15t-19 -52v-130h110v-69h-110v-391h-78zM380 0v721h79v-721h-79z" />
    <glyph glyph-name="uni0045030A" horiz-adv-x="510" 
d="M282 712q-44 0 -73.5 27t-29.5 70t29.5 69.5t73.5 26.5t73.5 -26.5t29.5 -69.5t-29.5 -70t-73.5 -27zM282 758q19 0 33 15t14 36t-14 35.5t-33 14.5t-33 -14.5t-14 -35.5t14 -36t33 -15zM84 0v688h381v-77h-296v-220h274v-76h-274v-238h296v-77h-381z" />
    <glyph glyph-name="uni00460304" horiz-adv-x="489" 
d="M158 749v68h229v-68h-229zM84 0v688h378v-77h-293v-220h271v-76h-271v-315h-85z" />
    <glyph glyph-name="uni004A0301" horiz-adv-x="253" 
d="M97 716l-37 45l153 128l50 -62zM-87 -212v75q76 0 124 42.5t48 140.5v642h84v-651q0 -123 -68 -186t-188 -63z" />
    <glyph glyph-name="uni004E0304" horiz-adv-x="748" 
d="M259 749v68h229v-68h-229zM84 0v688h97l397 -559v559h85v-688h-96l-397 559v-559h-86z" />
    <glyph glyph-name="uni00500304" horiz-adv-x="517" 
d="M84 0v688h181q58 0 103.5 -15.5t79 -59t33.5 -111.5q0 -95 -66 -157t-174 -62h-72v-283h-85zM169 357h60q84 0 124.5 41.5t40.5 102.5q0 110 -143 110h-82v-254zM138 749v68h229v-68h-229z" />
    <glyph glyph-name="uni00520300" horiz-adv-x="536" 
d="M433 -8l-194 305h-70v-297h-85v688h178q26 0 49 -2.5t55.5 -13.5t56 -29t40 -53t16.5 -82q0 -76 -43 -127t-110 -72l195 -293zM169 373h57q89 0 127 38.5t38 94.5q0 34 -13 56.5t-36.5 32t-45.5 13t-51 3.5h-76v-238zM275 716l-166 112l50 61l153 -127z" />
    <glyph glyph-name="uni00530306" horiz-adv-x="482" 
d="M232 -6q-116 0 -190 72l51 60q59 -55 134 -55q53 0 90 30t37 79q0 30 -9.5 53t-31.5 40t-39 26t-51 24q-6 3 -9 4q-80 36 -118 76t-38 121q0 72 59 121t134 49q51 0 89.5 -10.5t88.5 -42.5l-43 -65q-39 26 -67 33.5t-67 7.5t-74 -24.5t-35 -73.5q0 -18 3.5 -32.5
t15 -27.5t17 -19.5t27 -18t26.5 -14t32 -15.5q37 -17 55 -26t46 -28t41 -37.5t23.5 -49t10.5 -67.5q0 -80 -61.5 -135t-146.5 -55zM241 719q-60 0 -97.5 33.5t-45.5 62.5l52 25l2 -4q3 -3 5.5 -6.5t7 -9t10 -10.5t12.5 -10t15 -8.5t18 -6t21 -2.5q27 0 49.5 14t30.5 25.5
t11 17.5l51 -24q-9 -29 -45.5 -63t-96.5 -34z" />
    <glyph glyph-name="uni00560304" horiz-adv-x="638" 
d="M205 749v68h229v-68h-229zM275 0l-262 675l86 19l220 -573l224 575l82 -19l-270 -677h-80z" />
    <glyph glyph-name="uni00580304" horiz-adv-x="586" 
d="M94 -6l-81 25l229 327l-226 322l86 26l193 -278l192 278l78 -28l-222 -317l230 -328l-86 -27l-196 284zM180 749v68h229v-68h-229z" />
    <glyph glyph-name="Iacute_Jacute" 
d="M84 0v688h85v-688h-85zM94 716l-37 45l153 128l50 -62zM337 716l-37 45l153 128l50 -62zM159 -212v75q76 0 124 42.5t48 140.5v642h84v-651q0 -123 -68 -186t-188 -63z" />
    <glyph glyph-name="uni0065030A" horiz-adv-x="450" 
d="M231 518q-44 0 -73.5 27t-29.5 70t29.5 69.5t73.5 26.5t73.5 -26.5t29.5 -69.5t-29.5 -70t-73.5 -27zM231 564q19 0 33 15t14 36t-14 35.5t-33 14.5t-33 -14.5t-14 -35.5t14 -36t33 -15zM255 -6q-103 0 -159.5 64.5t-56.5 167.5t55 171.5t154 68.5q88 0 131 -57t43 -148
v-44h-303q2 -65 39 -108.5t101 -43.5q59 0 115 30l8 -15l14 -32l8 -16q-65 -38 -149 -38zM123 279h220q0 50 -25 84.5t-74 34.5q-52 0 -83 -36.5t-38 -82.5z" />
    <glyph glyph-name="uni00660304" horiz-adv-x="306" 
d="M112 770v68h229v-68h-229zM108 0v390h-83v70h83v136q0 58 34 94.5t95 36.5q22 0 42.5 -3.5t31 -7t20.5 -7.5l10 -4l-27 -64q-31 16 -68 16q-22 0 -41 -15t-19 -52v-130h110v-69h-110v-391h-78z" />
    <glyph glyph-name="uni006A0301" horiz-adv-x="249" 
d="M21 -233l-45 55q109 66 109 201v437h78v-448q0 -163 -142 -245zM96 517l-41 42l143 141l54 -58z" />
    <glyph glyph-name="uni006E0304" horiz-adv-x="507" 
d="M140 548v68h229v-68h-229zM74 0v460h79v-59q71 65 146 65q69 0 106 -34.5t37 -90.5v-341h-78v319q0 75 -73 75q-39 0 -79 -25.5t-59 -45.5v-323h-79z" />
    <glyph glyph-name="uni007000AF" horiz-adv-x="524" 
d="M74 -239v699h79v-49q2 1 13.5 8.5t18.5 12t21 12t26 11.5t28.5 7.5t31.5 3.5q96 0 145 -68.5t49 -165.5q0 -94 -53 -166t-148 -72q-63 0 -132 51v-284h-79zM280 65q56 0 92 46.5t36 118.5q0 73 -32.5 118.5t-90.5 45.5q-62 0 -132 -60v-210q67 -59 127 -59zM152 548v68
h229v-68h-229z" />
    <glyph glyph-name="uni00720300" horiz-adv-x="342" 
d="M75 0v460h79v-62q62 69 116 69q36 0 74 -17l-33 -74q-25 14 -58 14q-26 0 -55 -23.5t-44 -50.5v-316h-79zM224 517l-156 125l53 58l144 -141z" />
    <glyph glyph-name="uni00730306" horiz-adv-x="363" 
d="M172 -6q-82 0 -136 38l36 62q44 -30 98 -30q33 0 54.5 16t21.5 44t-23 46.5t-73 41.5q-54 26 -79.5 55t-25.5 79q0 56 44.5 88t97.5 32q77 0 128 -37l-36 -60q-36 27 -91 27q-27 0 -46 -13t-19 -35q0 -9 1.5 -16t6 -13l7.5 -10t11.5 -9.5t12.5 -7.5t15 -8t15 -8
q2 -1 21.5 -10.5t24 -12.5t21 -13t22.5 -16t17 -18t15.5 -22.5t8.5 -26t4 -32.5q0 -61 -46.5 -96t-107.5 -35zM178 544q-60 0 -97.5 33.5t-45.5 62.5l52 25l3 -3q2 -4 4.5 -7.5t7 -9t10 -10.5t12.5 -10t15 -8.5t18 -6t21 -2.5q27 0 49.5 14t30.5 25.5t11 17.5l51 -24
q-9 -29 -45.5 -63t-96.5 -34z" />
    <glyph glyph-name="uni00760304" horiz-adv-x="446" 
d="M109 548v68h229v-68h-229zM179 0l-170 448l79 18l136 -372l139 371l74 -17l-174 -448h-84z" />
    <glyph glyph-name="uni00780304" horiz-adv-x="448" 
d="M438 18l-77 -25l-141 187l-136 -186l-76 24l170 218l-158 208l81 22l127 -172l127 172l78 -23l-164 -205zM111 548v68h229v-68h-229z" />
    <glyph glyph-name="iacute_jacute" horiz-adv-x="477" 
d="M250 -233l-45 55q109 66 109 201v437h78v-448q0 -163 -142 -245zM84 0v460h79v-460h-79zM100 517l-41 42l143 141l54 -58zM327 517l-41 42l143 141l54 -58z" />
    <glyph glyph-name="questiondown.cap" horiz-adv-x="409" 
d="M299 -6q-107 2 -174 53.5t-67 155.5q0 47 18 84.5t44.5 58.5t51.5 32t46 14v120h81v-180q-68 0 -110.5 -32.5t-42.5 -96.5q0 -66 43 -99t110 -33v-77zM259 584q-23 0 -39 16t-16 39t16 39t39 16t39 -16t16 -39t-16 -39t-39 -16z" />
    <glyph glyph-name="exclamdown.cap" horiz-adv-x="306" 
d="M153 585q-23 0 -39 16t-16 38q0 23 16 39t39 16t39 -16t16 -39q0 -22 -16 -38t-39 -16zM113 0v513h81v-513h-81z" />
    <glyph glyph-name="hyphen.cap" horiz-adv-x="299" 
d="M18 304v76h263v-76h-263z" />
    <glyph glyph-name="endash.cap" 
d="M30 309v67h440v-67h-440z" />
    <glyph glyph-name="emdash.cap" horiz-adv-x="756" 
d="M30 310v67h696v-67h-696z" />
    <glyph glyph-name="parenleft.cap" horiz-adv-x="372" 
d="M268 -89q-80 66 -130.5 189.5t-50.5 242.5q0 127 55 251t128 180l50 -50q-70 -70 -111 -167.5t-41 -213.5q0 -90 43.5 -207.5t108.5 -167.5z" />
    <glyph glyph-name="parenright.cap" horiz-adv-x="372" 
d="M104 -89l-52 57q66 50 109 167t43 208q0 116 -41 213.5t-111 167.5l50 50q73 -56 128 -180t55 -251q0 -119 -50.5 -242.5t-130.5 -189.5z" />
    <glyph glyph-name="bracketleft.cap" horiz-adv-x="287" 
d="M68 -75v840h201v-70h-121v-699h121v-71h-201z" />
    <glyph glyph-name="bracketright.cap" horiz-adv-x="287" 
d="M18 -75v71h121v699h-121v70h201v-840h-201z" />
    <glyph glyph-name="braceleft.cap" horiz-adv-x="328" 
d="M260 -72q-72 0 -105 32.5t-33 99.5v149q0 57 -17.5 80t-76.5 24v67q58 1 76 27.5t18 85.5v144q0 132 138 132h38v-75h-35q-40 0 -51 -20.5t-11 -67.5v-126q0 -53 -14 -85.5t-56 -49.5q43 -12 56.5 -41.5t13.5 -81.5v-130q0 -21 1.5 -34t7.5 -27t19 -21t34 -7h35v-75h-38z
" />
    <glyph glyph-name="braceright.cap" horiz-adv-x="328" 
d="M31 -73v75h35q39 0 50.5 22t11.5 65v136q0 51 14 81t56 42q-42 17 -56 49.5t-14 85.5v123q0 24 -1.5 37t-7.5 26.5t-19 19t-34 5.5h-35v75h38q138 0 138 -132v-141q0 -59 18 -85.5t76 -27.5v-67q-58 -1 -76 -24t-18 -80v-153q0 -67 -33 -99.5t-105 -32.5h-38z" />
    <glyph glyph-name="guilsinglright.cap" horiz-adv-x="316" 
d="M192 166l-126 176l126 176l58 -38l-100 -138l100 -137z" />
    <glyph glyph-name="guilsinglleft.cap" horiz-adv-x="316" 
d="M125 166l-59 39l101 137l-101 138l59 38l125 -176z" />
    <glyph glyph-name="guillemotleft.cap" horiz-adv-x="491" 
d="M192 166l-126 176l126 176l58 -38l-100 -138l100 -137zM366 166l-126 176l126 176l59 -38l-101 -138l101 -137z" />
    <glyph glyph-name="guillemotright.cap" horiz-adv-x="491" 
d="M125 166l-59 39l101 137l-101 138l59 38l125 -176zM300 166l-60 39l101 137l-101 138l60 38l125 -176z" />
    <glyph glyph-name="Acute" horiz-adv-x="581" 
d="M219 716l-37 45l153 128l50 -62z" />
    <glyph glyph-name="Caron" horiz-adv-x="517" 
d="M258 716l-149 113l48 51l101 -83l101 83l48 -51z" />
    <glyph glyph-name="Circumflex" horiz-adv-x="517" 
d="M157 717l-48 51l149 113l149 -113l-48 -51l-101 83z" />
    <glyph glyph-name="Dotaccent" horiz-adv-x="251" 
d="M129 734q-23 0 -39 16t-16 38t16 38t39 16t38.5 -16t15.5 -38t-15.5 -38t-38.5 -16z" />
    <glyph glyph-name="Hungarumlaut" horiz-adv-x="610" 
d="M146 716l-40 42l147 135l53 -58zM338 716l-37 45l154 128l49 -62z" />
    <glyph glyph-name="Grave" horiz-adv-x="583" 
d="M348 716l-166 112l50 61l153 -127z" />
    <glyph glyph-name="Macron" horiz-adv-x="289" 
d="M30 749v68h229v-68h-229z" />
    <glyph glyph-name="Tilde" horiz-adv-x="564" 
d="M434 802q-38 -74 -94 -74q-23 0 -61 20.5t-52 20.5q-35 0 -56 -40l-43 33q15 31 41 51t56 20q19 0 58 -20t52 -20q19 0 30.5 9.5t22.5 29.5z" />
    <glyph glyph-name="commaaccent" horiz-adv-x="194" 
d="M42 -201l29 170h81l-52 -170h-58z" />
    <glyph glyph-name="zero.tnum_lnum_zero" 
d="M253 -6q-104 0 -163.5 93t-59.5 257t60 257t164 93q101 0 159 -92.5t58 -258.5q0 -165 -59 -257t-159 -92zM250 70q47 0 78.5 39t44.5 98.5t13 136.5q0 129 -38 195l-162 -441q26 -28 64 -28zM151 159l159 436q-25 22 -58 22q-47 0 -78 -37.5t-44 -96.5t-13 -139
q0 -118 34 -185z" />
    <glyph glyph-name="zero.pnum_lnum" horiz-adv-x="555" 
d="M280 -6q-110 0 -172 95t-62 255q0 164 62.5 257t172.5 93q106 0 167.5 -92.5t61.5 -258.5q0 -165 -62.5 -257t-167.5 -92zM278 70q73 0 109.5 76t36.5 198q0 123 -35.5 198t-108.5 75q-53 0 -87.5 -40.5t-47 -98.5t-12.5 -134q0 -71 12.5 -129.5t46.5 -101.5t86 -43z" />
    <glyph glyph-name="one.pnum_lnum" horiz-adv-x="356" 
d="M184 0v591l-136 -81l-41 63l190 115h72v-688h-85z" />
    <glyph glyph-name="two.pnum_lnum" horiz-adv-x="472" 
d="M55 0l-25 66q66 55 150 146.5t132 178.5q33 59 33 111q0 45 -28 80t-86 35q-74 0 -131 -65l-50 51q77 91 187 91q91 0 144 -52t53 -138q0 -69 -50 -154q-11 -19 -25 -39.5t-26.5 -37t-31.5 -38.5t-30 -34t-33 -35t-29.5 -30.5l-30.5 -30.5l-26 -26h277v-79h-374z" />
    <glyph glyph-name="three.pnum_lnum" horiz-adv-x="467" 
d="M196 -7q-96 0 -172 53l35 69q72 -45 141 -45q58 0 93 33.5t35 96.5q0 46 -25.5 75t-60.5 39t-80 10h-34v73h35q57 0 103 31.5t46 89.5q0 42 -29.5 71t-75.5 29q-62 0 -126 -35l-32 63q78 48 160 48q86 0 139 -45t53 -122q0 -58 -30 -100t-80 -60q128 -37 128 -172
q0 -87 -62 -144.5t-161 -57.5z" />
    <glyph glyph-name="four.pnum_lnum" horiz-adv-x="503" 
d="M302 0v196h-264l-35 62l293 430h91v-415h82v-77h-82v-196h-85zM103 273h199v299z" />
    <glyph glyph-name="five.pnum_lnum" horiz-adv-x="468" 
d="M198 -6q-97 0 -175 49l39 72q75 -46 137 -46q68 0 104.5 36t36.5 106q0 136 -141 136q-41 0 -99 -10l-38 44l37 307h310v-79h-241l-21 -191q50 6 65 6q101 0 159.5 -49.5t58.5 -159.5q0 -92 -61.5 -156.5t-170.5 -64.5z" />
    <glyph glyph-name="six.pnum_lnum" horiz-adv-x="503" 
d="M257 -7q-108 0 -162.5 67.5t-54.5 185.5q0 154 93 273.5t241 178.5l35 -69q-90 -37 -150 -90.5t-102 -138.5q58 14 102 14q92 0 149 -54.5t57 -148.5q0 -98 -57 -158t-151 -60zM257 66q58 0 89.5 39t31.5 101q0 55 -34.5 94.5t-87.5 39.5q-59 0 -121 -19q-8 -37 -8 -85
q0 -71 32.5 -120.5t97.5 -49.5z" />
    <glyph glyph-name="seven.pnum_lnum" horiz-adv-x="428" 
d="M143 -7l-81 25l261 583h-310v82h379l33 -55z" />
    <glyph glyph-name="eight.pnum_lnum" horiz-adv-x="502" 
d="M251 -6q-87 0 -149 53t-62 136q0 123 126 178q-109 55 -109 152q0 69 50.5 125t145.5 56q91 0 142 -53t51 -122q0 -108 -109 -160q125 -50 125 -171q0 -84 -60 -139t-151 -55zM251 67q55 0 91 32t36 84q0 55 -34.5 85.5t-97.5 54.5q-122 -43 -122 -133q0 -46 37 -84.5
t90 -38.5zM261 393q50 19 74.5 47t24.5 72q0 54 -33 81t-75 27q-43 0 -76.5 -26.5t-33.5 -75.5q0 -46 31.5 -75t87.5 -50z" />
    <glyph glyph-name="nine.pnum_lnum" horiz-adv-x="503" 
d="M129 -11l-36 69q90 37 150.5 90.5t102.5 138.5q-68 -14 -102 -14q-92 0 -149.5 55t-57.5 149q0 97 57.5 156.5t151.5 59.5q109 0 163 -67t54 -185q0 -154 -93 -273t-241 -179zM248 348q62 0 119 18q9 36 9 85q0 71 -32.5 120t-97.5 49q-57 0 -89 -38.5t-32 -99.5
q0 -56 34.5 -95t88.5 -39z" />
    <glyph glyph-name="zero.tnum_lnum" 
d="M253 -6q-104 0 -163.5 93t-59.5 257t60 257t164 93q101 0 159 -92.5t58 -258.5q0 -165 -59 -257t-159 -92zM250 70q47 0 78.5 39t44.5 98.5t13 136.5q0 122 -32.5 197.5t-101.5 75.5q-47 0 -78 -37.5t-44 -96.5t-13 -139q0 -120 32 -197t101 -77z" />
    <glyph glyph-name="one.tnum_lnum" 
d="M272 0v591l-188 -102l-40 64l241 135h71v-688h-84z" />
    <glyph glyph-name="two.tnum_lnum" 
d="M50 0l-25 66q60 54 95 87t87 87t81 93t51 85t22 84q0 44 -31.5 79.5t-91.5 35.5q-42 0 -79 -20.5t-56 -43.5l-53 58q83 83 194 83q93 0 149.5 -53t56.5 -140q0 -26 -6 -52.5t-20.5 -54t-26.5 -50t-37.5 -52t-39.5 -46.5t-46 -47.5t-43.5 -41.5t-45.5 -42t-40 -36h300v-79
h-395z" />
    <glyph glyph-name="three.tnum_lnum" 
d="M220 -7q-94 0 -172 53l36 69q72 -45 140 -45q58 0 93.5 33.5t35.5 95.5q0 67 -47.5 95.5t-118.5 28.5h-34v73h35q59 0 104 31.5t45 89.5q0 42 -30 72t-75 30q-64 0 -124 -34l-31 60q77 50 156 50q86 0 139 -47t53 -124q0 -58 -29.5 -98.5t-80.5 -58.5q129 -37 129 -173
q0 -87 -62.5 -144t-161.5 -57z" />
    <glyph glyph-name="four.tnum_lnum" 
d="M309 0v196h-255l-35 62l278 430h97v-415h83v-77h-83v-196h-85zM114 273h195v309z" />
    <glyph glyph-name="five.tnum_lnum" 
d="M211 -6q-101 0 -180 49l40 72q75 -46 141 -46q68 0 107.5 36.5t39.5 105.5q0 136 -147 136q-46 0 -104 -10l-37 44l44 307h307v-79h-239l-27 -191q50 6 69 6q102 0 162.5 -50t60.5 -159q0 -92 -64 -156.5t-173 -64.5z" />
    <glyph glyph-name="six.tnum_lnum" 
d="M253 -7q-108 0 -161 67t-53 186q0 155 92 274t239 178l36 -69q-90 -36 -149 -90t-101 -139q59 14 99 14q91 0 147.5 -54.5t56.5 -148.5q0 -98 -56 -158t-150 -60zM253 66q58 0 88.5 39t30.5 101q0 55 -33.5 94.5t-86.5 39.5q-57 0 -117 -19q-9 -36 -9 -85
q0 -72 31.5 -121t95.5 -49z" />
    <glyph glyph-name="seven.tnum_lnum" 
d="M175 -7l-82 25l276 583h-318v82h386l36 -58z" />
    <glyph glyph-name="eight.tnum_lnum" horiz-adv-x="498" 
d="M250 -6q-87 0 -149 53t-62 136q0 123 126 178q-109 55 -109 152q0 69 50.5 125t145.5 56q90 0 141.5 -53.5t51.5 -121.5q0 -108 -109 -160q125 -50 125 -171q0 -84 -60 -139t-151 -55zM250 67q55 0 91 32t36 84q0 55 -34.5 85.5t-97.5 54.5q-122 -43 -122 -133
q0 -46 36.5 -84.5t90.5 -38.5zM260 393q50 19 74.5 47t24.5 72q0 54 -33 81t-75 27q-43 0 -76.5 -26.5t-33.5 -75.5q0 -46 31.5 -75t87.5 -50z" />
    <glyph glyph-name="nine.tnum_lnum" 
d="M131 -11l-36 69q90 36 149 90t101 139q-68 -14 -99 -14q-91 0 -147.5 54.5t-56.5 149.5q0 98 56 157t150 59q108 0 161 -67t53 -185q0 -154 -92 -273t-239 -179zM250 348q59 0 116 18q9 36 9 85q0 72 -31.5 120.5t-95.5 48.5q-57 0 -88 -38.5t-31 -99.5q0 -56 33.5 -95
t87.5 -39z" />
    <glyph glyph-name="zero.zero" horiz-adv-x="524" 
d="M265 -6q-60 0 -105 21t-69.5 56.5t-36.5 75.5t-12 83q0 92 57.5 164.5t164.5 72.5t163 -70.5t56 -165.5t-55.5 -166t-162.5 -71zM263 67q55 0 95.5 42t40.5 122q0 52 -23 94l-196 -228q36 -30 83 -30zM146 142l194 225q-34 25 -75 25q-55 0 -97 -41t-42 -121
q0 -53 20 -88z" />
    <glyph glyph-name="zero.tnum_onum" 
d="M254 -6q-59 0 -103 21.5t-67.5 57t-35 75t-11.5 82.5q0 91 56 164t160 73q54 0 96 -21t67 -55.5t37.5 -75.5t12.5 -84t-12.5 -83.5t-36.5 -76t-66.5 -56.5t-96.5 -21zM252 67q53 0 91.5 42t38.5 122q0 77 -38 119t-90 42q-54 0 -93.5 -41t-39.5 -121q0 -79 38.5 -121
t92.5 -42z" />
    <glyph glyph-name="one.tnum_onum" 
d="M265 0v370l-155 -71l-34 67l202 94h72v-460h-85z" />
    <glyph glyph-name="two.tnum_onum" 
d="M88 0l-26 66q181 108 228 146q64 53 65 96q0 36 -29.5 61t-74.5 25q-33 0 -71 -13.5t-63 -37.5l-43 56q32 33 83.5 51.5t100.5 18.5q82 0 135 -44t53 -113q0 -59 -66 -116t-187 -117h252v-79h-357z" />
    <glyph glyph-name="three.tnum_onum" 
d="M218 -234q-94 0 -172 53l36 69q70 -44 141 -44q58 0 93 33.5t35 95.5q0 67 -48 96t-118 29l-34 -1v73h35q57 0 103 31.5t46 89.5q0 42 -29.5 71t-75.5 29q-62 0 -126 -35l-32 63q78 48 160 48q86 0 139 -45t53 -122q0 -58 -30 -100t-80 -60q128 -37 128 -172
q0 -87 -62.5 -144.5t-161.5 -57.5z" />
    <glyph glyph-name="four.tnum_onum" 
d="M301 -202v208h-254l-35 62l271 392h103v-376h82v-78h-82v-208h-85zM109 84h192v283z" />
    <glyph glyph-name="five.tnum_onum" 
d="M218 -234q-101 0 -180 49l39 72q82 -46 142 -46q68 0 107.5 36.5t39.5 105.5q0 136 -148 136q-46 0 -103 -10l-38 45l45 306h307v-79h-239l-28 -191q38 6 70 6q101 0 161.5 -49.5t60.5 -158.5q0 -92 -63.5 -157t-172.5 -65z" />
    <glyph glyph-name="six.tnum_onum" 
d="M254 -7q-107 0 -160 67t-53 186q0 155 92 274t239 178l35 -69q-89 -36 -148 -90t-101 -139q58 14 98 14q91 0 147.5 -54.5t56.5 -148.5q0 -99 -56 -158.5t-150 -59.5zM254 66q58 0 88.5 39t30.5 101q0 55 -33.5 94.5t-86.5 39.5q-55 0 -117 -19q-9 -42 -9 -85
q0 -71 31.5 -120.5t95.5 -49.5z" />
    <glyph glyph-name="seven.tnum_onum" 
d="M177 -229l-82 25l270 583h-312v81h381l35 -58z" />
    <glyph glyph-name="eight.tnum_onum" 
d="M250 -6q-87 0 -149 53t-62 136q0 123 126 178q-109 55 -109 152q0 69 50.5 125t145.5 56q90 0 141.5 -53.5t51.5 -121.5q0 -108 -109 -160q125 -50 125 -171q0 -84 -60 -139t-151 -55zM250 67q55 0 91 32t36 84q0 55 -34.5 85.5t-97.5 54.5q-122 -43 -122 -133
q0 -46 36.5 -84.5t90.5 -38.5zM260 393q50 19 74.5 47t24.5 72q0 54 -33 81t-75 27q-43 0 -76.5 -26.5t-33.5 -75.5q0 -46 31.5 -75t87.5 -50z" />
    <glyph glyph-name="nine.tnum_onum" 
d="M129 -238l-35 69q89 36 148 89.5t101 139.5q-66 -14 -98 -14q-91 0 -147.5 54.5t-56.5 149.5q0 98 56 157t150 59q108 0 161 -67t53 -185q0 -155 -92 -273.5t-240 -178.5zM249 121q57 0 116 18q9 42 9 85q0 71 -31.5 120t-95.5 49q-58 0 -88.5 -38.5t-30.5 -99.5
q0 -56 33.5 -95t87.5 -39z" />
    <glyph glyph-name="registered.pnum_lnum" horiz-adv-x="788" 
d="M500 133l-114 171h-29v-164h-63v395h109q132 0 132 -107q0 -81 -84 -114l111 -161zM406 -23q-148 0 -253.5 105t-105.5 253q0 149 105.5 254t253.5 105t253.5 -105t105.5 -254q0 -148 -105.5 -253t-253.5 -105zM406 36q122 0 207.5 88t85.5 211q0 124 -85.5 212
t-207.5 88t-207.5 -87.5t-85.5 -212.5q0 -123 85.5 -211t207.5 -88zM357 361h28q85 0 85 67q0 51 -76 51h-37v-118z" />
    <glyph glyph-name="Euro.pnum_lnum" horiz-adv-x="492" 
d="M298 -6q-251 0 -251 350q0 162 67.5 256t191.5 94q85 0 145 -52l-50 -61q-49 36 -103 36q-62 0 -102.5 -44.5t-53.5 -131.5h230v-60h-237q-1 -12 -1 -37q0 -16 2 -44h236v-60h-229q28 -170 154 -170q65 0 116 41l47 -57q-68 -60 -162 -60z" />
    <glyph glyph-name="dollar.pnum_lnum" horiz-adv-x="494" 
d="M222 -67v61q-105 6 -174 74l51 57q53 -50 123 -54v256q-82 37 -119.5 76.5t-37.5 120.5q0 63 46 109t111 58v61h58v-58q77 -3 156 -53l-43 -65q-62 38 -113 40v-228q33 -15 53 -26t44.5 -29t37.5 -37t22 -47.5t9 -64.5q0 -70 -47.5 -121.5t-118.5 -64.5v-65h-58zM280 79
q36 10 58 37t22 64q0 43 -20.5 69.5t-59.5 48.5v-219zM222 415v195q-30 -10 -51.5 -32.5t-21.5 -58.5q0 -38 18.5 -61.5t54.5 -42.5z" />
    <glyph glyph-name="sterling.pnum_lnum" horiz-adv-x="490" 
d="M62 0v61q46 23 74.5 70t28.5 103q0 46 -4 79h-101v75h89q-1 10 -6.5 46t-5.5 57q0 91 54.5 146.5t139.5 55.5q71 0 118 -28l-30 -70q-42 22 -86 22q-50 0 -80 -36t-30 -85q0 -12 13 -108h148v-75h-138q6 -73 -1 -103q-16 -89 -59 -135h281v-75h-405z" />
    <glyph glyph-name="florin.pnum_lnum" horiz-adv-x="382" 
d="M44 -6q-52 0 -90 20l26 66q5 -4 21 -10t27 -6q72 0 81 68l25 227h-77v69h85l14 129q6 61 44.5 98.5t98.5 37.5q53 0 89 -18l-26 -66q-30 15 -62 15q-22 0 -42.5 -17t-24.5 -55l-14 -124h104v-69h-112l-24 -225q-7 -64 -43.5 -102t-99.5 -38z" />
    <glyph glyph-name="yen.pnum_lnum" horiz-adv-x="570" 
d="M249 0v193h-191v67h191v72h-191v65h138l-178 265l79 31l197 -294l196 294l76 -32l-179 -264h133v-65h-186v-72h186v-67h-186v-193h-85z" />
    <glyph glyph-name="threesup_fraction_eightinf" horiz-adv-x="757" 
d="M136 331q-59 0 -99 30l25 52q36 -22 76 -22q23 0 37 13t14 38q0 27 -19.5 40t-47.5 13h-29v51h29q23 0 41 13.5t18 36.5q0 17 -12 28.5t-31 11.5q-34 0 -66 -17l-24 48q42 26 95 26q47 0 76.5 -25t29.5 -67q0 -46 -44 -76q53 -26 53 -85q0 -46 -34.5 -77.5t-87.5 -31.5z
M225 -33l-63 29l346 725l63 -27zM594 -3q-48 0 -81 27.5t-33 75.5q0 55 53 86q-44 28 -44 75q0 37 27 66t79 29q50 0 77.5 -26.5t27.5 -66.5q0 -42 -43 -77q51 -31 51 -84q0 -46 -32 -75.5t-82 -29.5zM594 54q21 0 35.5 12.5t14.5 33.5q0 39 -53 63q-47 -20 -47 -60
q0 -18 14.5 -33.5t35.5 -15.5zM599 208q36 15 36 50q0 22 -12.5 33t-27.5 11q-16 0 -29 -11t-13 -30q0 -36 46 -53z" />
    <glyph glyph-name="fivesup_fraction_eightinf" horiz-adv-x="757" 
d="M225 -33l-63 29l346 725l63 -27zM134 332q-48 0 -100 31l30 52q41 -25 70 -25q28 0 46 15t18 43q0 56 -67 56q-32 0 -50 -3l-23 26l20 163h170v-60h-118l-8 -69q17 1 18 1q56 0 90.5 -27t34.5 -85q0 -48 -36.5 -83t-94.5 -35zM594 -3q-48 0 -81 27.5t-33 75.5q0 55 53 86
q-44 28 -44 75q0 37 27 66t79 29q50 0 77.5 -26.5t27.5 -66.5q0 -42 -43 -77q51 -31 51 -84q0 -46 -32 -75.5t-82 -29.5zM594 54q21 0 35.5 12.5t14.5 33.5q0 39 -53 63q-47 -20 -47 -60q0 -18 14.5 -33.5t35.5 -15.5zM599 208q36 15 36 50q0 22 -12.5 33t-27.5 11
q-16 0 -29 -11t-13 -30q0 -36 46 -53z" />
    <glyph glyph-name="sevensup_fraction_eightinf" horiz-adv-x="757" 
d="M225 -33l-63 29l346 725l63 -27zM594 -3q-48 0 -81 27.5t-33 75.5q0 55 53 86q-44 28 -44 75q0 37 27 66t79 29q50 0 77.5 -26.5t27.5 -66.5q0 -42 -43 -77q51 -31 51 -84q0 -46 -32 -75.5t-82 -29.5zM594 54q21 0 35.5 12.5t14.5 33.5q0 39 -53 63q-47 -20 -47 -60
q0 -18 14.5 -33.5t35.5 -15.5zM599 208q36 15 36 50q0 22 -12.5 33t-27.5 11q-16 0 -29 -11t-13 -30q0 -36 46 -53zM156 329l-62 19l125 279h-145v61h198l22 -36z" />
    <glyph glyph-name="afii61352.pnum_lnum" horiz-adv-x="1104" 
d="M725 233v59h327v-59h-327zM887 339q-79 0 -120.5 52.5t-41.5 123.5q0 69 44 123t122 54t119.5 -53t41.5 -123t-43.5 -123.5t-121.5 -53.5zM888 410q33 0 59 25.5t26 80.5q0 53 -25.5 79.5t-57.5 26.5t-59 -26t-27 -80t25.5 -80t58.5 -26zM84 0v688h97l397 -559v559h85
v-688h-96l-397 559v-559h-86z" />
    <glyph glyph-name="period.superior" horiz-adv-x="114" 
d="M57 323q-15 0 -26 11t-11 26q0 16 11 27t26 11t26 -11t11 -27q0 -15 -11 -26t-26 -11z" />
    <glyph glyph-name="comma.superior" horiz-adv-x="114" 
d="M6 281l35 110h68l-55 -110h-48z" />
    <glyph glyph-name="dollar.superior" horiz-adv-x="247" 
d="M102 292v33q-49 5 -89 44l36 41q29 -28 56 -31v112q-41 19 -61 41t-20 65q0 34 23.5 59.5t57.5 32.5v31h44v-30q36 -3 79 -33l-29 -43q-34 22 -53 24v-103q43 -19 64.5 -41.5t21.5 -66.5q0 -36 -25 -64t-61 -36v-35h-44zM146 383q28 13 28 42q0 30 -28 48v-90zM105 554
v78q-25 -12 -25 -36q0 -26 25 -42z" />
    <glyph glyph-name="cent.superior" horiz-adv-x="209" 
d="M103 293v34q-41 9 -65.5 42.5t-24.5 79.5q0 49 25 82t65 42v32h45v-30q31 -4 62 -24l-27 -44q-18 14 -35 16v-147q22 5 39 18l26 -42q-27 -23 -65 -27v-32h-45zM103 382v136q-34 -17 -34 -69q0 -50 34 -67z" />
    <glyph glyph-name="equal.inferior" horiz-adv-x="286" 
d="M34 102v53h218v-53h-218zM34 187v53h218v-53h-218z" />
    <glyph glyph-name="minus.inferior" horiz-adv-x="251" 
d="M16 145v54h220v-54h-220z" />
    <glyph glyph-name="plus.inferior" horiz-adv-x="262" 
d="M102 62v84h-81v54h81v80h58v-80h81v-54h-81v-84h-58z" />
    <glyph glyph-name="period.inferior" horiz-adv-x="114" 
d="M57 -12q-15 0 -26 11t-11 26q0 16 11 27t26 11t26 -11t11 -27q0 -15 -11 -26t-26 -11z" />
    <glyph glyph-name="comma.inferior" horiz-adv-x="114" 
d="M6 -54l35 110h68l-55 -110h-48z" />
    <glyph glyph-name="dollar.inferior" horiz-adv-x="247" 
d="M102 -43v33q-49 5 -89 44l36 41q29 -28 56 -31v112q-41 19 -61 41t-20 65q0 34 23.5 59.5t57.5 32.5v31h44v-30q36 -3 79 -33l-29 -43q-34 22 -53 24v-103q43 -19 64.5 -41.5t21.5 -66.5q0 -36 -25 -64t-61 -36v-35h-44zM146 48q28 13 28 42q0 30 -28 48v-90zM105 219v78
q-25 -13 -25 -36q0 -26 25 -42z" />
    <glyph glyph-name="cent.inferior" horiz-adv-x="209" 
d="M103 -42v34q-41 9 -65.5 42.5t-24.5 79.5q0 49 25 82t65 42v32h45v-30q31 -4 62 -24l-27 -44q-18 14 -35 16v-147q22 5 39 18l26 -42q-27 -23 -65 -27v-32h-45zM103 47v136q-34 -17 -34 -69q0 -50 34 -67z" />
    </font>
</defs>
</svg>
