<?xml version="1.0" standalone="no"?>
<!DOCTYPE svg PUBLIC "-//W3C//DTD SVG 1.1//EN" "http://www.w3.org/Graphics/SVG/1.1/DTD/svg11.dtd" >
<svg xmlns="http://www.w3.org/2000/svg" xmlns:xlink="http://www.w3.org/1999/xlink" version="1.1">
<metadata>
Created by FontForge 20170731 at Mon Sep  1 22:21:43 2008
 By Aleksey,,,
Copyright (c) 1999-2008 Typotheque.com All rights reserved.
</metadata>
<defs>
<font id="JigsawStencilLight" horiz-adv-x="497" >
  <font-face 
    font-family="Jigsaw Stencil Light"
    font-weight="300"
    font-stretch="normal"
    units-per-em="1000"
    panose-1="0 0 0 0 0 0 0 0 0 0"
    ascent="710"
    descent="-290"
    x-height="460"
    cap-height="688"
    bbox="-82 -240 1141 898"
    underline-thickness="50"
    underline-position="-200"
    unicode-range="U+0020-FB03"
  />
<missing-glyph horiz-adv-x="180" 
 />
    <glyph glyph-name="fi" unicode="fi" horiz-adv-x="520" 
d="M440 609q0 -19 -13 -32.5t-32 -13.5t-32 13.5t-13 32.5t13 32t32 13t32 -13t13 -32zM425 0h-61v404h-333v56h80v144q0 55 32 89.5t86 34.5q47 0 92 -21l-25 -51q-31 16 -64 16q-22 0 -42 -17t-20 -57v-138h255v-460zM170 0h-59v322h59v-322z" />
    <glyph glyph-name="f_f_i" unicode="ffi" horiz-adv-x="775" 
d="M680 0h-61v404h-588v56h80v144q0 55 32 89.5t86 34.5q25 0 48 -5t33 -11l11 -5l-24 -51q-26 16 -65 16q-21 0 -41 -17t-20 -57l-1 -138h196v144q0 55 32 89.5t86 34.5q46 0 92 -21l-25 -51q-31 16 -64 16q-22 0 -42 -17t-20 -57v-138h255v-460zM425 0h-59v322h59v-322z
M170 0h-59v323h59v-323zM695 609q0 -19 -13 -32.5t-32 -13.5t-32 13.5t-13 32.5t13 32t32 13t32 -13t13 -32z" />
    <glyph glyph-name="f_f_j" unicode="ffj" horiz-adv-x="775" 
d="M425 0h-59v322h59v-322zM170 0h-59v323h59v-323zM695 609q0 -19 -13 -32.5t-32 -13.5t-32 13.5t-13 32.5t13 32t32 13t32 -13t13 -32zM620 19l-1 385h-588v56h80v144q0 55 32 89.5t86 34.5q25 0 48 -5t33 -11l11 -5l-24 -51q-26 16 -65 16q-21 0 -41 -17t-20 -57l-1 -138
h196v144q0 55 32 89.5t86 34.5q46 0 92 -21l-25 -51q-31 16 -64 16q-22 0 -42 -17t-20 -57v-138h255v-456q0 -148 -132 -234l-34 42q106 72 106 207z" />
    <glyph glyph-name=".notdef" horiz-adv-x="180" 
 />
    <glyph glyph-name=".null" horiz-adv-x="0" 
 />
    <glyph glyph-name="nonmarkingreturn" horiz-adv-x="333" 
 />
    <glyph glyph-name="space" unicode=" " horiz-adv-x="180" 
 />
    <glyph glyph-name="exclam" unicode="!" horiz-adv-x="290" 
d="M177 159h-64v529h64v-529zM190 39q0 -19 -13 -32t-32 -13t-32 13t-13 32t13 32t32 13t32 -13t13 -32z" />
    <glyph glyph-name="quotedbl" unicode="&#x22;" horiz-adv-x="286" 
d="M236 721l-11 -170h-47l-11 170h69zM118 721l-10 -170h-47l-11 170h68z" />
    <glyph glyph-name="numbersign" unicode="#" horiz-adv-x="643" 
d="M289 688l-17 -123h-58l15 123h60zM573 426h-320l-9 -76h-60l11 76h-100v57h324l27 205h59l-28 -205h96v-57zM549 211h-324l-29 -211h-59l28 211h-95v57h320l10 76h60l-10 -76h99v-57zM430 128l-17 -128h-61l17 129z" />
    <glyph glyph-name="dollar" unicode="$" horiz-adv-x="473" 
d="M219 -67v61q-103 3 -167 57l34 48q63 -49 133 -50v69h49v-66q93 14 93 75q0 22 -30.5 39t-74 30.5t-87 30t-74 44.5t-30.5 67q0 49 45 87.5t109 45.5v58h49v-58q86 -6 148 -51l-36 -51q-40 36 -112 43v-75h-49v76q-40 -4 -65 -23.5t-25 -50.5q0 -23 30.5 -40t74.5 -30
t88 -27.5t74.5 -40.5t30.5 -62q0 -58 -44.5 -96t-114.5 -47v-63h-49z" />
    <glyph glyph-name="percent" unicode="%" horiz-adv-x="739" 
d="M557 698l-340 -728l-50 24l339 727zM139 350q-49 14 -79 59t-30 110q0 66 29.5 110.5t79.5 59.5v-59q-45 -30 -45 -110q0 -78 45 -111v-10t0.5 -19t0.5 -22zM515 -1q-49 15 -79 59.5t-30 110.5q0 65 29.5 110t79.5 59q1 -59 0 -59q-45 -30 -45 -110q0 -78 45 -110v-60z
M704 168q0 -65 -29.5 -109.5t-78.5 -58.5v60q44 34 44 109q0 78 -44 110v59q49 -14 78.5 -58.5t29.5 -111.5zM327 519q0 -66 -29.5 -110.5t-77.5 -58.5v61q44 32 44 109q0 78 -44 110v59q49 -14 78 -59t29 -111z" />
    <glyph glyph-name="ampersand" unicode="&#x26;" horiz-adv-x="659" 
d="M629 345h-109v-345h-64v345h-175q-17 0 -39.5 3.5t-54.5 16.5t-57.5 32.5t-44 56t-18.5 83.5q0 69 48 113t133 44q72 0 148 -48l-28 -49q-3 2 -13.5 8.5t-15 9t-15.5 7.5t-20.5 7t-24 4t-31.5 2q-49 0 -79.5 -30.5t-30.5 -74.5q0 -36 15 -62t39.5 -39t48 -18.5t48.5 -5.5
h340v-60zM375 9q-52 -16 -112 -16q-97 0 -155 58.5t-58 143.5q0 71 45 125l6 -4q6 -3 14.5 -8l17 -10t13.5 -8l6 -4q-30 -33 -30 -85q0 -67 44.5 -106.5t102.5 -39.5q56 0 106 19v-16v-32v-17z" />
    <glyph glyph-name="quotesingle" unicode="'" horiz-adv-x="198" 
d="M133 721l-10 -170h-47l-11 170h68z" />
    <glyph glyph-name="parenleft" unicode="(" horiz-adv-x="369" 
d="M280 -225q-92 82 -142 200.5t-50 262.5q0 149 59 278.5t138 183.5l35 -38q-68 -51 -120.5 -168.5t-52.5 -255.5q0 -127 48.5 -242t121.5 -181z" />
    <glyph glyph-name="parenright" unicode=")" horiz-adv-x="369" 
d="M89 -225l-37 40q73 66 121.5 181t48.5 242q0 138 -52.5 255.5t-120.5 168.5l35 38q79 -54 138 -183.5t59 -278.5q0 -144 -50 -262.5t-142 -200.5z" />
    <glyph glyph-name="asterisk" unicode="*" horiz-adv-x="392" 
d="M352 487l-113 4l60 -98l-50 -29l-53 101l-53 -100l-50 29l60 96l-113 -3v57l111 -4l-58 95l50 28l52 -99l54 100l50 -28l-60 -96l113 4v-57z" />
    <glyph glyph-name="plus" unicode="+" horiz-adv-x="489" 
d="M470 316h-195v-200h-61v200h-195v60h195v192h61v-192h195v-60z" />
    <glyph glyph-name="comma" unicode="," horiz-adv-x="200" 
d="M161 84l-84 -173h-44l50 173h78z" />
    <glyph glyph-name="hyphen" unicode="-" horiz-adv-x="300" 
d="M280 228h-260v60h260v-60z" />
    <glyph glyph-name="period" unicode="." horiz-adv-x="200" 
d="M148 42q0 -20 -14 -34t-34 -14t-34 14t-14 34t14 34t34 14t34 -14t14 -34z" />
    <glyph glyph-name="slash" unicode="/" horiz-adv-x="336" 
d="M336 688l-280 -709l-56 20l279 709z" />
    <glyph glyph-name="zero" unicode="0" horiz-adv-x="495" 
d="M40 229q0 49 15.5 95.5t55 86.5t95.5 51v-61q-44 -14 -73.5 -57t-29.5 -115q0 -71 29.5 -114.5t73.5 -57.5v-59q-58 10 -97 49t-54 85t-15 97zM455 230q0 -50 -15 -96.5t-54 -86t-96 -49.5v59q43 14 72.5 57t29.5 116q0 72 -29 115.5t-73 57.5v59q57 -10 96 -50t54 -86.5
t15 -95.5z" />
    <glyph glyph-name="one" unicode="1" horiz-adv-x="328" 
d="M238 416l-183 -93l-29 52l163 83h49v-42zM238 0h-64v291l64 34v-325z" />
    <glyph glyph-name="two" unicode="2" horiz-adv-x="426" 
d="M385 336q0 -83 -151 -191h-93q88 60 132 104t44 83q0 80 -108 80q-34 0 -70 -13t-60 -37l-32 43q31 31 77.5 48t91.5 17q76 0 122.5 -34t46.5 -100zM50 0l-26 63h357v-63h-331z" />
    <glyph glyph-name="three" unicode="3" horiz-adv-x="445" 
d="M379 305q0 -47 -20 -84t-47.5 -57.5t-60.5 -34t-56 -18t-37 -4.5h-38v60h19q25 0 51 6t54 19t46 41t18 66q0 45 -31 77t-79 32q-24 0 -46.5 -4.5t-34.5 -9.5t-27 -12.5l-17 -8.5l-23 46q76 48 148 48q84 0 132.5 -44.5t48.5 -117.5zM396 -37q0 -84 -59 -140.5t-149 -56.5
q-95 0 -162 50l28 56q72 -44 133 -44q34 0 60.5 10t40.5 25t22.5 34.5t11 34t2.5 29.5q0 69 -35 97l60 34q19 -17 33 -52t14 -77z" />
    <glyph glyph-name="four" unicode="4" horiz-adv-x="481" 
d="M455 9h-84v-211h-65v688h65v-416h84v-61zM224 9h-189l-34 49l223 312v-101l-140 -199h140v-61z" />
    <glyph glyph-name="five" unicode="5" horiz-adv-x="444" 
d="M390 394h-237l-18 -126l-64 -5l29 195h290v-64zM403 21h-68q-2 15 -3.5 23.5t-12 28.5t-27 31.5t-50 20t-79.5 4.5l-115 -13l10 62q64 8 125 12q60 3 104.5 -11.5t65.5 -35t33.5 -49t14.5 -44t2 -29.5zM401 -61q0 -10 -10 -35t-31 -58t-65.5 -57.5t-102.5 -24.5
q-100 0 -176 45l31 60q19 -14 61.5 -30t78.5 -16q43 0 75 16t46.5 38t21 38t6.5 24h65z" />
    <glyph glyph-name="six" unicode="6" horiz-adv-x="487" 
d="M447 207q0 -56 -18.5 -99.5t-45 -65.5t-50 -33t-39.5 -11v60q3 1 9 3.5t20.5 13.5t26 25.5t20.5 41.5t9 60q0 59 -37 102.5t-96 43.5l-39 -2l15 62q17 1 23 1q85 0 143.5 -54.5t58.5 -147.5zM399 641q-135 -46 -212.5 -155.5t-77.5 -247.5q0 -148 103 -181v-60
q-23 0 -49 10.5t-55.5 35.5t-48.5 79t-19 129q0 152 93.5 271t242.5 177z" />
    <glyph glyph-name="seven" unicode="7" horiz-adv-x="406" 
d="M404 393h-394v68h371zM366 311l-248 -537l-62 20l234 517h76z" />
    <glyph glyph-name="eight" unicode="8" horiz-adv-x="482" 
d="M443 185q0 -48 -20 -86.5t-48.5 -58.5t-52.5 -31t-38 -11v59q11 1 31.5 11.5t42 40.5t21.5 71q0 33 -11.5 58t-34.5 42.5t-44 28t-53 22.5q-56 -19 -93.5 -55.5t-37.5 -88.5q0 -47 35.5 -86t61.5 -43v-60q-11 0 -35 10t-53.5 30t-51 58t-21.5 84q0 126 128 182
q-111 55 -111 154q0 40 14 72t34 50.5t42 30.5t35.5 16.5t18.5 4.5v-59q-5 0 -22 -9t-37 -36t-20 -64q0 -89 130 -136q108 40 108 130q0 24 -7 44.5t-17.5 33t-21.5 21t-19.5 12t-11.5 3.5v60q11 0 32 -9t47 -26.5t45 -53t19 -79.5q0 -58 -32.5 -100t-81.5 -64
q54 -19 92 -61.5t38 -111.5z" />
    <glyph glyph-name="nine" unicode="9" horiz-adv-x="488" 
d="M447 208q0 -152 -93.5 -271t-242.5 -177l-23 58q135 46 212.5 155.5t77.5 247.5q0 51 -12 88t-31 56t-32.5 26.5t-27.5 11.5v60q18 0 38 -6t45 -23t44 -43.5t32 -74t13 -108.5zM280 113l-15 -62q-17 -1 -23 -1q-85 0 -143.5 55t-58.5 147q0 56 18.5 99.5t45 65.5
t49.5 32.5t40 11.5v-60q-3 -1 -9 -3.5t-20.5 -13.5t-26 -25.5t-20.5 -41.5t-9 -60q0 -59 37 -102t96 -43z" />
    <glyph glyph-name="colon" unicode=":" horiz-adv-x="200" 
d="M150 416q0 -21 -14.5 -35.5t-35.5 -14.5t-35.5 14.5t-14.5 35.5q0 20 14.5 35t35.5 15t35.5 -15t14.5 -35zM150 50q0 -20 -14.5 -34.5t-35.5 -14.5t-35.5 14.5t-14.5 34.5q0 21 14.5 35.5t35.5 14.5t35.5 -14.5t14.5 -35.5z" />
    <glyph glyph-name="semicolon" unicode=";" horiz-adv-x="200" 
d="M154 416q0 -20 -14.5 -35t-35.5 -15q-20 0 -34.5 15t-14.5 35q0 21 14.5 35.5t34.5 14.5q21 0 35.5 -14.5t14.5 -35.5zM158 84l-84 -173h-44l50 173h78z" />
    <glyph glyph-name="less" unicode="&#x3c;" horiz-adv-x="478" 
d="M408 133l-45 -42l-293 236l292 250l42 -41l-245 -208z" />
    <glyph glyph-name="equal" unicode="=" horiz-adv-x="558" 
d="M488 391h-418v57h418v-57zM488 232h-418v57h418v-57z" />
    <glyph glyph-name="greater" unicode="&#x3e;" horiz-adv-x="478" 
d="M408 328l-294 -237l-44 42l249 194l-245 208l42 42z" />
    <glyph glyph-name="question" unicode="?" horiz-adv-x="399" 
d="M335 527l-69 -1q0 11 -7 26.5t-22 34.5t-47 32t-75 13v61q61 0 107.5 -19t69 -47.5t33 -54t10.5 -45.5zM336 444q0 -41 -44.5 -91t-115.5 -55v-137h-61v186q36 0 64.5 9.5t44 22t25.5 27.5t13 24t3 14h71zM190 39q0 -19 -13 -32t-32 -13t-32 13t-13 32t13 32t32 13
t32 -13t13 -32z" />
    <glyph glyph-name="at" unicode="@" horiz-adv-x="796" 
d="M736 292q0 -66 -13 -116t-31.5 -76.5t-43.5 -42.5t-44 -20.5t-39 -4.5q-30 0 -56 13t-35 22t-13 15v235q0 69 -69 69q-26 0 -54 -15.5t-43 -29.5l-32 40q23 18 37.5 27.5t41.5 20t55 10.5q121 0 121 -113v-218q16 -24 48 -24q17 0 33 7t35 26t30.5 63.5t11.5 108.5
q0 56 -20 102.5t-48 73t-60 45t-54.5 25t-32.5 6.5v55q17 0 46 -7.5t69.5 -29t75.5 -53.5t59.5 -88t24.5 -126zM510 -101q-49 -23 -111 -23q-64 0 -124 23.5t-108.5 68t-77.5 116t-29 159.5q0 81 26.5 146t64 102t84 62t82.5 34t63 9v-55q-37 0 -79.5 -17t-84 -50t-68.5 -92
t-27 -133q0 -132 73 -224.5t203 -92.5q46 0 91 16zM379 35q-13 -3 -28 -3q-51 0 -79 29t-28 72q0 29 12 51.5t34.5 37t40.5 22t44 15.5l4 2v-52l-2 -1q-8 -2 -23 -9t-33 -23.5t-18 -35.5q0 -16 5 -27t13 -16t15.5 -7.5t13.5 -3.5h6q18 0 23 4v-55z" />
    <glyph glyph-name="A" unicode="A" horiz-adv-x="618" 
d="M598 14l-63 -20l-90 231h-186l24 61h139l-158 402h72zM265 463l-187 -471l-58 20l213 537z" />
    <glyph glyph-name="B" unicode="B" horiz-adv-x="528" 
d="M463 204q0 -59 -20.5 -101t-55 -63.5t-70 -30.5t-75.5 -9h-6v60l12 1q70 6 108.5 37.5t38.5 105.5q0 59 -42.5 94.5t-110.5 36.5l-6 1v60h6q67 5 102.5 39.5t35.5 88.5q0 103 -135 103h-10v61h32q21 0 42 -3t47 -13.5t45 -28t32 -48.5t13 -72q0 -100 -94 -151l-1.5 -1.5
t-1.5 -0.5q18 -5 41.5 -21t48 -55.5t24.5 -89.5zM154 0h-64v688h64v-688z" />
    <glyph glyph-name="C" unicode="C" horiz-adv-x="548" 
d="M533 658l-29 -56q-54 31 -131 31q-92 0 -169.5 -74.5t-84.5 -176.5h-68q3 54 28 108.5t66.5 100t104.5 74.5t134 29q95 0 149 -36zM506 82l27 -54q-64 -34 -160 -34q-134 0 -223.5 92.5t-97.5 213.5h68q4 -39 21.5 -80t47.5 -79t78.5 -62t105.5 -24q81 0 133 27z" />
    <glyph glyph-name="D" unicode="D" horiz-adv-x="692" 
d="M642 354q0 -152 -95.5 -253t-239.5 -101h-71v60h51q35 0 70.5 8t75.5 29t70.5 53.5t50.5 86.5t20 123q0 53 -12.5 96t-31.5 70.5t-46.5 47.5t-52 30t-55 15.5t-47.5 6.5t-37 1h-56v61h84q90 0 156 -30.5t100.5 -81.5t50 -106t15.5 -116zM154 0h-64v688h64v-688z" />
    <glyph glyph-name="E" unicode="E" 
d="M450 627h-360v61h360v-61zM428 323h-191v61h191v-61zM154 0h-64v546h64v-546zM450 0h-214v60h214v-60z" />
    <glyph glyph-name="F" unicode="F" horiz-adv-x="480" 
d="M450 627h-360v61h360v-61zM428 323h-192v61h192v-61zM154 0h-64v546h64v-546z" />
    <glyph glyph-name="G" unicode="G" horiz-adv-x="658" 
d="M598 282h-245v60h245v-60zM598 73q-40 -37 -102 -58t-119 -21q-142 0 -234.5 101t-92.5 242q0 145 99 251t243 106q110 0 187 -46l-32 -51q-59 36 -156 36q-120 0 -196.5 -87t-76.5 -208q0 -119 71.5 -201.5t189.5 -82.5q47 0 89.5 13t65.5 33v100h64v-127z" />
    <glyph glyph-name="H" unicode="H" horiz-adv-x="690" 
d="M600 327h-364v61h300v300h64v-361zM600 0h-64v246h64v-246zM155 0h-65v688h65v-688z" />
    <glyph glyph-name="I" unicode="I" horiz-adv-x="244" 
d="M154 0h-64v688h64v-688z" />
    <glyph glyph-name="J" unicode="J" horiz-adv-x="244" 
d="M154 28q0 -115 -63 -177.5t-173 -62.5v58q73 0 122 46t49 150v646h65v-660z" />
    <glyph glyph-name="K" unicode="K" horiz-adv-x="574" 
d="M155 688v-688h-65v688h65zM166 367l320 328l53 -36l-333 -337zM554 33l-54 -39l-240 268l48 47z" />
    <glyph glyph-name="L" unicode="L" horiz-adv-x="468" 
d="M154 142h-64v546h64v-546zM458 0h-368v60l368 1v-61z" />
    <glyph glyph-name="M" unicode="M" horiz-adv-x="872" 
d="M792 -2l-64 -4l-25 582l-190 -424l-31 73l210 463h70zM463 50l-64 -1l-272 639h73zM167 393l-23 -399l-64 4l31 520z" />
    <glyph glyph-name="N" unicode="N" horiz-adv-x="741" 
d="M651 139l-65 93v456h65v-549zM168 688l481 -688h-79l-478 688h76zM155 0h-65v549l65 -94v-455z" />
    <glyph glyph-name="O" unicode="O" horiz-adv-x="770" 
d="M718 382h-65q0 31 -15 70.5t-45 81.5t-84.5 70.5t-122.5 28.5q-67 0 -121 -26.5t-84.5 -66.5t-46.5 -81.5t-16 -76.5h-66q0 35 12 74.5t38.5 82t64 77t95.5 56.5t126 22q69 0 126.5 -24t94 -60.5t62.5 -80t36.5 -81t10.5 -66.5zM718 300q0 -22 -8 -55t-31.5 -78
t-58.5 -82.5t-96 -64t-137 -26.5q-73 0 -133 24t-96 59.5t-61 79t-35 79.5t-10 64h66q0 -14 7 -39.5t26 -62t47.5 -68t77 -53.5t107.5 -22q58 0 106 19.5t77.5 49t50 64t28.5 63.5t8 49h65z" />
    <glyph glyph-name="P" unicode="P" horiz-adv-x="499" 
d="M459 511q0 -100 -67.5 -156.5t-151.5 -56.5h-4v61h4q8 0 22 2t38 11t43.5 24.5t34 45.5t14.5 70q0 115 -148 115h-154v61h172q36 0 68 -7.5t62.5 -26t48.5 -55t18 -88.5zM154 0h-64v546h64v-546z" />
    <glyph glyph-name="Q" unicode="Q" horiz-adv-x="770" 
d="M717 382h-65q0 28 -13.5 66t-41.5 81.5t-83.5 73.5t-127.5 30q-55 0 -101 -17.5t-75 -44t-49.5 -61.5t-30 -66.5t-12.5 -61.5h-66q2 41 15.5 83.5t41.5 84t66 73.5t93 51.5t119 19.5q65 0 120.5 -21.5t93 -55.5t64.5 -76t39 -82.5t13 -76.5zM753 -6l-279 5q-81 -5 -88 -5
q-72 0 -131 23.5t-95 59t-61 78.5t-35 79.5t-11 65.5h66q1 -28 16 -65.5t43.5 -79.5t82.5 -71t123 -29q55 0 101 18.5t75.5 46t50.5 62t30.5 64.5t10.5 55h65q-1 -24 -7.5 -51t-21 -64t-44.5 -73t-72 -62l181 2v-59z" />
    <glyph glyph-name="R" unicode="R" horiz-adv-x="512" 
d="M457 518q0 -96 -66 -149.5t-149 -56.5h-6v61l5 1q8 0 18.5 1t36 9t44 21.5t34 43.5t15.5 70q0 35 -13.5 58.5t-38 33.5t-46 13.5t-50.5 3.5h-5v60h20q201 0 201 -170zM492 21l-61 -30l-157 242l66 12zM155 0h-65v688h65v-688z" />
    <glyph glyph-name="S" unicode="S" horiz-adv-x="473" 
d="M412 642l-36 -51q-42 28 -67 35t-66 7q-39 0 -78 -28t-39 -81q0 -28 8 -49t26 -36t27 -21t29 -16l-31 -53q-27 13 -45.5 25t-38.5 33t-30 51.5t-10 70.5q0 69 55.5 117t128.5 48q46 0 80.5 -10t86.5 -42zM423 180q0 -78 -57.5 -132t-139.5 -54q-108 0 -176 69l40 46
q23 -26 61 -40.5t70 -14.5q57 0 97 34t40 88q0 50 -23.5 80.5t-75.5 55.5l32 54q64 -30 98 -70t34 -116z" />
    <glyph glyph-name="T" unicode="T" 
d="M502 627h-507v61h507v-61zM283 0h-65v546h65v-546z" />
    <glyph glyph-name="U" unicode="U" horiz-adv-x="660" 
d="M585 221q0 -53 -20.5 -97t-53 -70t-68.5 -41t-71 -17v61q26 1 50 10.5t47 29.5t37 56t14 84v451h65v-467zM290 -4q-93 10 -154 67.5t-61 155.5v469h65v-459q0 -75 42.5 -117t107.5 -54v-62z" />
    <glyph glyph-name="V" unicode="V" horiz-adv-x="618" 
d="M598 676l-211 -536l-34 85l187 471zM342 28l-10 -28h-50l-262 674l63 20z" />
    <glyph glyph-name="W" unicode="W" horiz-adv-x="889" 
d="M869 678l-157 -509l-30 98l128 427zM669 30l-9 -30h-46l-170 562l-113 -386l-31 98l123 414h45zM289 35l-10 -35h-46l-213 676l64 17z" />
    <glyph glyph-name="X" unicode="X" horiz-adv-x="557" 
d="M532 663l-167 -244l-36 53l152 222zM537 24l-57 -30l-459 669l56 31q4 -6 460 -670zM227 218l-154 -224l-53 29l171 248z" />
    <glyph glyph-name="Y" unicode="Y" horiz-adv-x="520" 
d="M520 660l-228 -332v-328h-64v328l33 65l207 300zM208 470l-33 -65l-175 257l53 31z" />
    <glyph glyph-name="Z" unicode="Z" horiz-adv-x="566" 
d="M520 622h-473v60h460zM461 539l-281 -394h-79l282 394h78zM524 0h-463l-19 60h482v-60z" />
    <glyph glyph-name="bracketleft" unicode="[" horiz-adv-x="272" 
d="M70 -240v961h182v-54h-121v-853h121v-54h-182z" />
    <glyph glyph-name="backslash" unicode="\" horiz-adv-x="335" 
d="M336 -1l-56 -20l-280 709l56 20z" />
    <glyph glyph-name="bracketright" unicode="]" horiz-adv-x="272" 
d="M20 -240v54h120v853h-120v54h182v-961h-182z" />
    <glyph glyph-name="asciicircum" unicode="^" horiz-adv-x="589" 
d="M547 263h-69l-184 361l-186 -361h-66l213 414h81z" />
    <glyph glyph-name="underscore" unicode="_" horiz-adv-x="500" 
d="M500 -150h-500v56h500v-56z" />
    <glyph glyph-name="grave" unicode="`" horiz-adv-x="257" 
d="M185 524l-145 123l45 47l132 -138z" />
    <glyph glyph-name="a" unicode="a" horiz-adv-x="439" 
d="M409 33l-41 -45l-74 57v281q0 85 -85 85q-49 0 -111 -52l-35 43q1 1 11 9.5t17 13.5t21.5 14t27.5 14t31.5 9t37.5 4q64 0 104.5 -32t40.5 -97v-260zM212 2q-24 -8 -50 -8q-57 0 -88 32.5t-31 81.5q0 61 44 95t122 55l3 1v-51l-3 -1q-34 -14 -51 -22.5t-35.5 -28
t-18.5 -43.5q0 -68 67 -68q23 0 41 10v-53z" />
    <glyph glyph-name="b" unicode="b" horiz-adv-x="516" 
d="M476 231q0 -91 -52 -164t-147 -73q-45 0 -55 10v58q12 -12 53 -12q60 0 100.5 49.5t40.5 130.5q0 82 -35.5 130.5t-97.5 48.5q-29 0 -61 -12v56q4 3 25 8t39 5q66 0 110.5 -37t62 -88t17.5 -110zM140 0h-60v721h60v-721z" />
    <glyph glyph-name="c" unicode="c" horiz-adv-x="414" 
d="M396 426l-30 -50q-44 33 -105 33q-39 0 -70 -17.5t-47 -42.5t-24 -45.5t-9 -33.5h-62q4 68 61 132t148 64q79 0 138 -40zM404 37q-75 -43 -149 -43q-52 0 -94 23t-65 56t-35 63t-12 52h62q0 -11 7.5 -31.5t22.5 -45.5t46 -43t71 -18q61 0 116 38l8 -12l14 -26z" />
    <glyph glyph-name="d" unicode="d" horiz-adv-x="516" 
d="M436 0h-60v721h60v-721zM294 62v-57q-18 -11 -55 -11q-95 0 -147 73t-52 164q0 59 17.5 110t62 88t110.5 37q14 0 30 -3.5t25 -6.5l9 -4v-55q-12 12 -61 12q-62 0 -97 -48.5t-35 -130.5q0 -81 40 -130.5t99 -49.5q33 0 54 12z" />
    <glyph glyph-name="e" unicode="e" horiz-adv-x="442" 
d="M414 229l-227 -1v55h164q0 53 -27.5 89.5t-78.5 36.5q-68 0 -104.5 -54t-36.5 -126q0 -76 39 -127t114 -51q64 0 114 35l7 -13q8 -13 15 -26l7 -13q-67 -40 -147 -40q-99 0 -155 66t-56 165q0 103 53.5 172t150.5 69q86 0 127 -55.5t41 -145.5v-36z" />
    <glyph glyph-name="f" unicode="f" horiz-adv-x="281" 
d="M321 707l-24 -51q-26 16 -65 16q-21 0 -41 -17t-20 -57l-1 -138h111v-56h-250v56h80v144q0 55 32 89.5t86 34.5q25 0 48 -5t33 -11zM170 0h-59v323h59v-323z" />
    <glyph glyph-name="g" unicode="g" horiz-adv-x="457" 
d="M447 405h-107q34 -44 34 -96q0 -59 -39 -102t-97 -52v-67q18 0 44.5 -9t56.5 -26.5t51 -51t21 -76.5q0 -62 -50.5 -108.5t-105.5 -51.5v52q29 4 61 35t32 74q0 48 -39.5 82t-93.5 34t-93.5 -34t-39.5 -82t35.5 -78.5t55.5 -30.5v-52q-27 2 -60.5 19.5t-63 55.5t-29.5 85
q0 34 14 63t34.5 47t44 30.5t42.5 17.5t31 5v67q-56 10 -95 53.5t-39 100.5q0 37 15.5 67t37 47t39.5 26.5t29 10.5v-56q-7 -2 -20 -10.5t-27.5 -32t-14.5 -52.5q0 -43 30 -73t72 -30q41 0 71 29.5t30 70.5q0 38 -20 64.5t-39 32.5v57q21 -2 44 -20l148 25v-60z" />
    <glyph glyph-name="h" unicode="h" 
d="M427 0h-60v325q0 82 -80 82q-41 0 -65 -19v59q6 5 33 12t43 7q55 0 92 -32.5t37 -80.5v-353zM139 0h-59v721h59v-721z" />
    <glyph glyph-name="i" unicode="i" horiz-adv-x="250" 
d="M170 609q0 -19 -13 -32.5t-32 -13.5t-32 13.5t-13 32.5t13 32t32 13t32 -13t13 -32zM155 0h-61v460h61v-460z" />
    <glyph glyph-name="j" unicode="j" horiz-adv-x="250" 
d="M170 609q0 -19 -13 -32.5t-32 -13.5t-32 13.5t-13 32.5t13 32t32 13t32 -13t13 -32zM154 4q0 -148 -132 -234l-34 42q106 72 106 207v441h60v-456z" />
    <glyph glyph-name="k" unicode="k" horiz-adv-x="445" 
d="M414 428l-236 -206l-34 38l226 206zM140 0h-60v721h60v-721zM427 26l-51 -33l-147 171l41 36z" />
    <glyph glyph-name="l" unicode="l" horiz-adv-x="220" 
d="M140 0h-60v721h60v-721z" />
    <glyph glyph-name="m" unicode="m" horiz-adv-x="754" 
d="M682 0h-60v344q0 35 -20 49.5t-45 14.5q-14 0 -29.5 -4t-24.5 -8l-9 -5v61q26 13 68 13q60 0 90 -32t30 -76v-357zM411 0h-60v344q0 35 -20 49.5t-44 14.5q-44 0 -65 -18v60q5 4 28.5 10t41.5 6q67 0 93 -35t26 -102v-329zM138 0h-60v460h60v-460z" />
    <glyph glyph-name="n" unicode="n" 
d="M427 0h-60v325q0 43 -22 63.5t-58 20.5q-32 0 -65 -18v58q28 17 68 17q69 0 103 -34t34 -85v-347zM140 0h-60v460h60v-460z" />
    <glyph glyph-name="o" unicode="o" horiz-adv-x="505" 
d="M470 230q0 -100 -58.5 -165t-115.5 -67v59q9 1 25 10.5t36.5 28t35 54t14.5 80.5q0 40 -12 73t-24.5 49.5t-34 30t-26 15.5t-14.5 5v59q13 0 32.5 -7.5t44.5 -25.5t46.5 -43t36 -66.5t14.5 -89.5zM214 -2q-65 4 -122 67.5t-57 163.5q0 49 15 90t37 67t47.5 44t46 25.5
t33.5 7.5v-60q-116 -39 -116 -174q0 -39 11 -70.5t26.5 -50t33 -31t29 -17t16.5 -4.5v-58z" />
    <glyph glyph-name="p" unicode="p" horiz-adv-x="516" 
d="M476 231q0 -91 -52 -164t-147 -73q-37 0 -55 9v58q3 -3 24 -7t29 -4q60 0 100.5 49.5t40.5 130.5q0 82 -35.5 130.5t-97.5 48.5q-46 0 -62 -13v56q22 14 65 14q66 0 110.5 -37t62 -88t17.5 -110zM140 -239h-60v699h60v-699z" />
    <glyph glyph-name="q" unicode="q" horiz-adv-x="516" 
d="M436 -239h-59v705h59v-705zM294 6q-16 -12 -55 -12q-95 0 -147 73t-52 164q0 59 17.5 110t62 88t110.5 37q17 0 33 -3t23 -6t8 -4v-56q-1 1 -8.5 4t-22.5 5.5t-30 2.5q-62 0 -97 -48.5t-35 -130.5q0 -81 40 -130.5t99 -49.5q17 0 30.5 3t18.5 7l5 3v-57z" />
    <glyph glyph-name="r" unicode="r" horiz-adv-x="332" 
d="M337 450l-25 -59q-28 14 -58 14q-20 0 -27 -7v60q17 8 36 8q35 0 74 -16zM145 0h-60v460h60v-460z" />
    <glyph glyph-name="s" unicode="s" horiz-adv-x="350" 
d="M294 433l-28 -49q-33 25 -85 25q-30 0 -51 -15.5t-21 -41.5q0 -42 44 -66l-32 -49q-73 40 -73 114q0 53 41.5 84t90.5 31q68 0 114 -33zM308 121q0 -59 -43.5 -93t-96.5 -34q-74 0 -123 34l29 51q40 -29 92 -29q34 0 57 19.5t23 51.5q0 41 -53 76l33 49l6 -4
q6 -3 12.5 -8t15.5 -12t17 -17.5t15.5 -22.5t11.5 -28t4 -33z" />
    <glyph glyph-name="t" unicode="t" horiz-adv-x="311" 
d="M285 404h-260v56h79v86h60v-86h121v-56zM301 18q-34 -24 -91 -24q-54 0 -79.5 29.5t-25.5 90.5v208h60v-198q0 -74 48 -74q17 0 33.5 4.5t23.5 9.5l8 4z" />
    <glyph glyph-name="u" unicode="u" horiz-adv-x="492" 
d="M412 0h-60v460h60v-460zM209 51q39 0 61 16v-58q-38 -15 -64 -15q-68 0 -102 34t-34 85v347h60v-325q0 -44 22 -64t57 -20z" />
    <glyph glyph-name="v" unicode="v" horiz-adv-x="430" 
d="M415 445l-124 -329l-30 78l102 272zM247 0h-64l-168 445l55 21z" />
    <glyph glyph-name="w" unicode="w" horiz-adv-x="711" 
d="M696 448l-110 -324l-30 86l86 255zM541 0h-60l-125 370l-84 -246l-30 86l83 250h62zM227 0h-59l-153 446l55 19z" />
    <glyph glyph-name="x" unicode="x" horiz-adv-x="440" 
d="M425 22l-51 -28l-349 446l53 25q147 -186 347 -443zM165 129l-101 -135l-49 29l117 149zM418 440l-107 -137l-35 45l89 118z" />
    <glyph glyph-name="y" unicode="y" horiz-adv-x="451" 
d="M186 206l-31 -78l-138 315l56 23zM436 446l-230 -563q-12 -28 -30.5 -52t-31.5 -34l-13 -10q-6 -4 -16.5 -9t-41 -12t-58.5 -3v53q20 -2 40 2t30 9l10 5q33 19 52 60l235 574z" />
    <glyph glyph-name="z" unicode="z" horiz-adv-x="396" 
d="M352 405h-312v55h302zM345 0h-296l-24 42l198 281h71l-189 -267h240v-56z" />
    <glyph glyph-name="braceleft" unicode="{" horiz-adv-x="310" 
d="M278 660h-26q-25 0 -40 -6t-21.5 -19.5t-8 -25t-1.5 -32.5v-225q0 -66 -37.5 -98.5t-116.5 -32.5v60q58 0 75.5 18.5t17.5 63.5v241q0 54 33 85.5t97 31.5h28v-61zM278 -240h-28q-130 0 -130 124v240q0 25 -4 42q4 1 10 3t19.5 6t22.5 6l8 2q5 -25 5 -48v-225
q0 -41 14 -65t57 -24h26v-61z" />
    <glyph glyph-name="bar" unicode="|" horiz-adv-x="231" 
d="M84 -178v939h59v-939h-59z" />
    <glyph glyph-name="braceright" unicode="}" horiz-adv-x="310" 
d="M58 660h-26v61h28q64 0 97 -31.5t33 -85.5v-241q0 -45 17.5 -63.5t75.5 -18.5v-60q-79 0 -116.5 32.5t-37.5 98.5v225q0 21 -1.5 32.5t-8 25t-21.5 19.5t-40 6zM60 -240h-28v61h26q43 0 57 24t14 65v225q0 23 5 48l15 -4q15 -4 30 -9l15 -4q-4 -17 -4 -42v-240
q0 -124 -130 -124z" />
    <glyph glyph-name="asciitilde" unicode="~" horiz-adv-x="545" 
d="M525 373q-67 -91 -160 -91q-42 0 -107.5 34t-88.5 34q-25 0 -57.5 -19.5t-50.5 -41.5l-41 35q64 89 152 89q42 0 106.5 -34t87.5 -34q32 0 62 17t48 43z" />
    <glyph glyph-name="uni00A0" unicode="&#xa0;" horiz-adv-x="180" 
 />
    <glyph glyph-name="exclamdown" unicode="&#xa1;" horiz-adv-x="290" 
d="M190 454q0 -19 -13 -32t-32 -13t-32 13t-13 32t13 32t32 13t32 -13t13 -32zM178 -195h-64v528h64v-528z" />
    <glyph glyph-name="cent" unicode="&#xa2;" horiz-adv-x="414" 
d="M396 427l-30 -51q-39 28 -95 33v-139h-48v134q-39 -10 -66 -41.5t-35.5 -55t-9.5 -37.5h-63q3 61 50.5 120.5t123.5 72.5v59h48v-57q73 -3 125 -38zM404 37q-67 -39 -133 -42v-62h-48v63q-82 13 -127.5 78t-46.5 115h62q0 -14 9 -39t36.5 -55.5t66.5 -39.5v134h48v-138
q57 4 103 37l8 -12l14 -26z" />
    <glyph glyph-name="sterling" unicode="&#xa3;" horiz-adv-x="470" 
d="M62 0v50q74 70 77 149h-76v55h249v-55h-107q-9 -90 -66 -138h311v-61h-388zM325 410q-88 0 -113 -75h-71q13 67 62 102t120 35q67 0 107 -24l-24 -60q-40 22 -81 22z" />
    <glyph glyph-name="currency" unicode="&#xa4;" horiz-adv-x="496" 
d="M415 389l-47 1q-20 86 -120 86q-47 0 -78 -23.5t-41 -62.5h-47q8 42 29 66l-71 71l33 32l70 -70q53 34 105 34q63 0 105 -32l69 70l34 -35l-70 -70q23 -26 29 -67zM366 312h48q-8 -43 -30 -66l70 -70l-31 -34l-70 70q-51 -30 -105 -30q-60 0 -103 32l-72 -70l-33 34
l72 70q-17 22 -28 64h46q12 -37 42.5 -60t75.5 -23q96 0 118 83z" />
    <glyph glyph-name="yen" unicode="&#xa5;" horiz-adv-x="540" 
d="M56 123h441v-53h-185v-70h-64v70h-192v53zM497 197h-441v52h147l-137 204l53 31l162 -234l161 231l52 -33l-138 -199h141v-52z" />
    <glyph glyph-name="brokenbar" unicode="&#xa6;" horiz-adv-x="224" 
d="M76 -178v384h66v-384h-66zM76 391v370h66v-370h-66z" />
    <glyph glyph-name="section" unicode="&#xa7;" horiz-adv-x="434" 
d="M394 300q0 -51 -36 -89q-47 26 -55 28q25 29 25 54q0 32 -28 56.5t-68.5 42t-81 37t-68.5 52t-28 75.5q0 60 45 99t123 39q35 0 65 -8.5t41.5 -14.5t37.5 -22l-35 -50q-51 34 -107 34q-44 0 -74 -19t-30 -55q0 -29 28 -51.5t68.5 -39.5t81 -36t68.5 -52.5t28 -79.5z
M394 29q0 -67 -48.5 -109.5t-129.5 -42.5q-110 0 -171 63l39 48q58 -50 133 -50q50 0 80.5 24.5t30.5 62.5q0 28 -29.5 50t-72 40t-85 38.5t-72 56.5t-29.5 84q0 43 28 85q3 -1 14.5 -7.5t23 -12.5t16.5 -8q-17 -21 -17 -50q0 -35 30 -62t72 -46.5t84.5 -40t72.5 -51.5
t30 -72z" />
    <glyph glyph-name="dieresis" unicode="&#xa8;" horiz-adv-x="291" 
d="M269 610q0 -19 -13 -32t-32 -13t-32.5 13t-13.5 32t13.5 32t32.5 13t32 -13t13 -32zM112 610q0 -19 -13 -32t-32 -13t-32 13t-13 32t13 32t32 13t32 -13t13 -32z" />
    <glyph glyph-name="copyright" unicode="&#xa9;" horiz-adv-x="796" 
d="M769 371h-62q0 24 -10.5 56.5t-35 70t-57.5 69t-84 52.5t-110 21q-75 0 -136 -32.5t-94 -78.5t-50.5 -88t-17.5 -70h-61q0 44 23.5 97.5t66.5 105t114 86t155 34.5q87 0 159 -35.5t113.5 -87.5t64 -105t22.5 -95zM522 151q-45 -25 -105 -25q-73 0 -135.5 55t-62.5 148
q0 91 61 147t143 56q58 0 99 -26l-25 -47q-38 20 -81 20q-48 0 -93 -40t-45 -110q0 -64 40.5 -107t98.5 -43q45 0 81 19zM769 289q-1 -32 -15 -71.5t-43.5 -83.5t-70 -80t-101 -59.5t-129.5 -23.5q-65 0 -123.5 22t-100 56.5t-72.5 77t-46.5 84.5t-16.5 78h62
q1 -23 11.5 -55t35 -69t57.5 -68t83.5 -51.5t109.5 -20.5q56 0 105.5 19.5t83 49.5t58.5 66.5t37 69.5t14 59h61z" />
    <glyph glyph-name="ordfeminine" unicode="&#xaa;" horiz-adv-x="381" 
d="M331 377l-41 -45l-62 56v196q0 52 -51 52q-38 0 -80 -42l-37 46q3 2 15.5 11.5t16 12t14 9t16 9t15.5 6t19.5 4.5t20.5 1q49 0 80.5 -25t31.5 -76v-176zM155 341q-4 -1 -12 -1q-44 0 -68.5 26t-24.5 64q0 75 105 110v-58q-44 -19 -44 -49q0 -43 44 -38v-54z" />
    <glyph glyph-name="guillemotleft" unicode="&#xab;" horiz-adv-x="494" 
d="M202 43l-122 171l122 171l48 -31l-102 -140l102 -139zM366 43l-122 171l122 171l48 -31l-102 -140l102 -139z" />
    <glyph glyph-name="logicalnot" unicode="&#xac;" horiz-adv-x="485" 
d="M453 115h-64v199h-357v60h421v-259z" />
    <glyph glyph-name="registered" unicode="&#xae;" horiz-adv-x="542" 
d="M315 416l-50 79h-16v-73h-39v201h50q82 0 82 -59q0 -44 -36 -60q9 -12 23.5 -35t23.5 -36zM271 333q-75 0 -128 53t-53 127q0 76 53 129t128 53t128 -53t53 -129q0 -74 -53 -127t-128 -53zM271 368q59 0 101 42.5t42 102.5q0 61 -42 104t-101 43t-101 -43t-42 -104
q0 -60 42 -102.5t101 -42.5zM249 529h13q38 0 38 33q0 12 -9.5 19.5t-21.5 7.5h-20v-60z" />
    <glyph glyph-name="macron" unicode="&#xaf;" horiz-adv-x="275" 
d="M245 551h-215v54h215v-54z" />
    <glyph glyph-name="degree" unicode="&#xb0;" horiz-adv-x="333" 
d="M281 606h-54q-20 39 -63 39t-63 -39h-53q11 38 43 62.5t73 24.5t73.5 -24.5t43.5 -62.5zM280 534q-12 -37 -43.5 -60.5t-72.5 -23.5q-40 0 -71.5 23.5t-43.5 60.5h53q20 -36 62 -36q40 0 61 36h55z" />
    <glyph glyph-name="plusminus" unicode="&#xb1;" horiz-adv-x="491" 
d="M466 365h-190v-195h-61v195h-190v60h190v195h61v-195h190v-60zM466 0h-441v60h441v-60z" />
    <glyph glyph-name="twosuperior" unicode="&#xb2;" horiz-adv-x="306" 
d="M50 335l-13 36q1 1 16 14.5t24 22.5l27 27t30.5 31.5t27.5 32t24 33t15.5 30.5t6.5 28q0 19 -16 36.5t-42 17.5q-46 0 -71 -36l-34 30q34 53 108 53q49 0 79 -26t30 -73q0 -78 -146 -208h144v-49h-210z" />
    <glyph glyph-name="threesuperior" unicode="&#xb3;" horiz-adv-x="278" 
d="M126 331q-56 0 -91 27l21 44q36 -22 74 -22q25 0 39.5 15t14.5 44q0 30 -22.5 44.5t-53.5 14.5h-25v47h25q26 0 47 14t21 41q0 18 -12.5 31.5t-30.5 13.5q-38 0 -68 -17l-21 38q40 25 89 25q47 0 74 -24t27 -64q0 -49 -46 -78q54 -26 54 -89q0 -43 -32 -74t-84 -31z" />
    <glyph glyph-name="acute" unicode="&#xb4;" horiz-adv-x="257" 
d="M217 647l-145 -123l-32 32l131 138z" />
    <glyph glyph-name="mu" unicode="&#xb5;" horiz-adv-x="492" 
d="M412 0h-60v460h60v-460zM270 67v-58q-38 -15 -64 -15q-44 0 -76 16v-193h-60v643h60v-325q0 -44 22 -64t57 -20q39 0 61 16z" />
    <glyph glyph-name="mu" unicode="&#x3bc;" horiz-adv-x="492" 
d="M412 0h-60v460h60v-460zM270 67v-58q-38 -15 -64 -15q-44 0 -76 16v-193h-60v643h60v-325q0 -44 22 -64t57 -20q39 0 61 16z" />
    <glyph glyph-name="paragraph" unicode="&#xb6;" horiz-adv-x="520" 
d="M430 -183h-68v797h-109q-146 0 -146 -114q0 -44 17.5 -77t42.5 -48t44 -21.5t31 -6.5v186h68v-248h-68q-25 0 -56.5 11.5t-65.5 34.5t-57 67t-23 100q0 41 12 73t31.5 51t46 31.5t52.5 17t54 4.5h194v-858z" />
    <glyph glyph-name="periodcentered" unicode="&#xb7;" horiz-adv-x="283" 
d="M189 333q0 -20 -14 -34t-34 -14q-19 0 -33.5 14.5t-14.5 33.5q0 20 14 34t34 14t34 -14t14 -34z" />
    <glyph glyph-name="cedilla" unicode="&#xb8;" horiz-adv-x="206" 
d="M149 -127q0 -34 -26 -60t-66 -39l-23 42q32 15 43.5 27.5t11.5 31.5q0 29 -37 66l33 78l47 -14l-21 -50q38 -35 38 -82z" />
    <glyph glyph-name="onesuperior" unicode="&#xb9;" horiz-adv-x="189" 
d="M83 335v292q-11 -5 -30.5 -16t-28.5 -15l-24 41l97 51h38v-353h-52z" />
    <glyph glyph-name="ordmasculine" unicode="&#xba;" horiz-adv-x="381" 
d="M349 516q0 -35 -11.5 -69.5t-40.5 -64.5t-70 -39v63q59 27 59 110q0 82 -59 109v63q61 -13 91.5 -64t30.5 -108zM154 344q-61 13 -91.5 63t-30.5 108q0 56 31.5 107.5t91.5 65.5v-64q-60 -27 -60 -109t59 -109v-62z" />
    <glyph glyph-name="guillemotright" unicode="&#xbb;" horiz-adv-x="494" 
d="M128 43l-48 32l102 139l-102 140l48 31l122 -171zM293 43l-49 32l102 139l-102 140l49 31l121 -171z" />
    <glyph glyph-name="onequarter" unicode="&#xbc;" horiz-adv-x="692" 
d="M124 335v292q-11 -5 -30.5 -16t-28.5 -15l-24 41l97 51h38v-353h-52zM537 698l-340 -728l-50 24l339 727zM471 151h87v196h52v-196h41v-47h-41v-103h-53v103h-128l-22 33l87 135v-83z" />
    <glyph glyph-name="onehalf" unicode="&#xbd;" horiz-adv-x="698" 
d="M124 335v292q-11 -5 -30.5 -16t-28.5 -15l-24 41l97 51h38v-353h-52zM535 698l-340 -728l-50 24l339 727zM445 1l-13 36q1 1 16 14.5t24 22.5l27 27t30.5 31.5t27.5 32t24 33t15.5 30.5t6.5 28q0 19 -16 36.5t-42 17.5q-46 0 -71 -36l-34 30q34 53 108 53q49 0 79 -26
t30 -73q0 -78 -146 -208h144v-49h-210z" />
    <glyph glyph-name="threequarters" unicode="&#xbe;" horiz-adv-x="709" 
d="M132 331q-56 0 -91 27l21 44q36 -22 74 -22q25 0 39.5 15t14.5 44q0 30 -22.5 44.5t-53.5 14.5h-25v47h25q26 0 47 14t21 41q0 18 -12.5 31.5t-30.5 13.5q-38 0 -68 -17l-21 38q40 25 89 25q47 0 74 -24t27 -64q0 -49 -46 -78q54 -26 54 -89q0 -43 -32 -74t-84 -31z
M554 698l-340 -728l-50 24l339 727zM488 151h87v196h52v-196h41v-47h-41v-103h-53v103h-128l-22 33l87 135v-83z" />
    <glyph glyph-name="questiondown" unicode="&#xbf;" horiz-adv-x="399" 
d="M299 454q0 -19 -13 -32t-32 -13t-32.5 13t-13.5 32t13.5 32t32.5 13t32 -13t13 -32zM284 146q-36 0 -64.5 -9.5t-44 -22t-25.5 -27.5t-13 -24.5t-3 -14.5h-71q0 42 44.5 92t115.5 55v138h61v-187zM284 -200q-61 0 -107.5 19t-69 47.5t-33 54t-10.5 45.5h69q0 -11 7 -26.5
t22 -34t47.5 -31.5t74.5 -13v-61z" />
    <glyph glyph-name="Agrave" unicode="&#xc0;" horiz-adv-x="618" 
d="M598 14l-63 -20l-90 231h-186l24 61h139l-158 402h72zM265 463l-187 -471l-58 20l213 537zM343 715l-156 110l42 50l142 -125z" />
    <glyph glyph-name="Aacute" unicode="&#xc1;" horiz-adv-x="618" 
d="M598 14l-63 -20l-90 231h-186l24 61h139l-158 402h72zM265 463l-187 -471l-58 20l213 537zM435 825l-156 -110l-28 35l142 125z" />
    <glyph glyph-name="Acircumflex" unicode="&#xc2;" horiz-adv-x="618" 
d="M598 14l-63 -20l-90 231h-186l24 61h139l-158 402h72zM265 463l-187 -471l-58 20l213 537zM313 863l136 -105l-36 -42l-100 83l-100 -83l-36 42z" />
    <glyph glyph-name="Atilde" unicode="&#xc3;" horiz-adv-x="618" 
d="M598 14l-63 -20l-90 231h-186l24 61h139l-158 402h72zM265 463l-187 -471l-58 20l213 537zM464 805q-11 -28 -36 -54t-57 -26q-22 0 -57.5 26t-49.5 26q-36 0 -56 -45l-38 21q7 31 35.5 57t58.5 26q17 0 56 -27t51 -27q19 0 30 10.5t24 32.5z" />
    <glyph glyph-name="Adieresis" unicode="&#xc4;" horiz-adv-x="618" 
d="M598 14l-63 -20l-90 231h-186l24 61h139l-158 402h72zM265 463l-187 -471l-58 20l213 537zM438 779q0 -19 -13 -32t-32 -13t-32.5 13t-13.5 32t13.5 32t32.5 13t32 -13t13 -32zM281 779q0 -19 -13 -32t-32 -13t-32 13t-13 32t13 32t32 13t32 -13t13 -32z" />
    <glyph glyph-name="Aring" unicode="&#xc5;" horiz-adv-x="618" 
d="M598 14l-63 -20l-90 231h-186l24 61h139l-158 402h72zM265 463l-187 -471l-58 20l213 537zM407 799q0 -33 -19 -56t-50 -31v42q23 16 23 45q0 21 -14 36.5t-35 15.5t-35 -15.5t-14 -36.5q0 -28 22 -43v-44q-31 8 -49.5 31.5t-18.5 55.5q0 40 27 64.5t68 24.5t68 -24.5
t27 -64.5z" />
    <glyph glyph-name="AE" unicode="&#xc6;" horiz-adv-x="828" 
d="M802 627h-215v61h215v-61zM780 323h-193v61h193v-61zM801 0h-214v60h214v-60zM505 0h-64v225h-121l37 61h84v289l-364 -584l-57 22l421 675h64v-688z" />
    <glyph glyph-name="Ccedilla" unicode="&#xc7;" horiz-adv-x="548" 
d="M427 -127q0 -34 -26 -60t-66 -39l-23 42q32 15 43.5 27.5t11.5 31.5q0 29 -37 66l22 54q-126 7 -209.5 98t-90.5 207h68q4 -39 21.5 -80t47.5 -79t78.5 -62t105.5 -24q81 0 133 27l27 -54q-52 -28 -127 -33l-17 -40q38 -35 38 -82zM533 658l-29 -56q-54 31 -131 31
q-92 0 -169.5 -74.5t-84.5 -176.5h-68q3 54 28 108.5t66.5 100t104.5 74.5t134 29q95 0 149 -36z" />
    <glyph glyph-name="Egrave" unicode="&#xc8;" 
d="M450 627h-360v61h360v-61zM428 323h-191v61h191v-61zM154 0h-64v546h64v-546zM450 0h-214v60h214v-60zM335 715l-156 110l42 50l142 -125z" />
    <glyph glyph-name="Eacute" unicode="&#xc9;" 
d="M450 627h-360v61h360v-61zM428 323h-191v61h191v-61zM154 0h-64v546h64v-546zM450 0h-214v60h214v-60zM379 825l-156 -110l-28 35l142 125z" />
    <glyph glyph-name="Ecircumflex" unicode="&#xca;" 
d="M450 627h-360v61h360v-61zM428 323h-191v61h191v-61zM154 0h-64v546h64v-546zM450 0h-214v60h214v-60zM269 863l136 -105l-36 -42l-100 83l-100 -83l-36 42z" />
    <glyph glyph-name="Edieresis" unicode="&#xcb;" 
d="M450 627h-360v61h360v-61zM428 323h-191v61h191v-61zM154 0h-64v546h64v-546zM450 0h-214v60h214v-60zM393 780q0 -19 -13 -32t-32 -13t-32.5 13t-13.5 32t13.5 32t32.5 13t32 -13t13 -32zM236 780q0 -19 -13 -32t-32 -13t-32 13t-13 32t13 32t32 13t32 -13t13 -32z" />
    <glyph glyph-name="Igrave" unicode="&#xcc;" horiz-adv-x="244" 
d="M154 0h-64v688h64v-688zM154 715l-156 110l42 50l142 -125z" />
    <glyph glyph-name="Iacute" unicode="&#xcd;" horiz-adv-x="244" 
d="M154 0h-64v688h64v-688zM245 825l-156 -110l-28 35l142 125z" />
    <glyph glyph-name="Icircumflex" unicode="&#xce;" horiz-adv-x="244" 
d="M154 0h-64v688h64v-688zM120 863l136 -105l-36 -42l-100 83l-100 -83l-36 42z" />
    <glyph glyph-name="Idieresis" unicode="&#xcf;" horiz-adv-x="244" 
d="M154 0h-64v688h64v-688zM244 780q0 -19 -13 -32t-32 -13t-32.5 13t-13.5 32t13.5 32t32.5 13t32 -13t13 -32zM87 780q0 -19 -13 -32t-32 -13t-32 13t-13 32t13 32t32 13t32 -13t13 -32z" />
    <glyph glyph-name="Eth" unicode="&#xd0;" horiz-adv-x="692" 
d="M642 354q0 -152 -95.5 -253t-239.5 -101h-71v60h51q35 0 70.5 8t75.5 29t70.5 53.5t50.5 86.5t20 123q0 53 -12.5 96t-31.5 70.5t-46.5 47.5t-52 30t-55 15.5t-47.5 6.5t-37 1h-56v61h84q90 0 156 -30.5t100.5 -81.5t50 -106t15.5 -116zM154 466h-64v222h64v-222z
M283 326h-272v54h272v-54zM154 241v-241h-64v241h64z" />
    <glyph glyph-name="Ntilde" unicode="&#xd1;" horiz-adv-x="741" 
d="M651 139l-65 93v456h65v-549zM168 688l481 -688h-79l-478 688h76zM155 0h-65v549l65 -94v-455zM519 805q-11 -28 -36 -54t-57 -26q-22 0 -57.5 26t-49.5 26q-36 0 -56 -45l-38 21q7 31 35.5 57t58.5 26q17 0 56 -27t51 -27q19 0 30 10.5t24 32.5z" />
    <glyph glyph-name="Ograve" unicode="&#xd2;" horiz-adv-x="770" 
d="M718 382h-65q0 31 -15 70.5t-45 81.5t-84.5 70.5t-122.5 28.5q-67 0 -121 -26.5t-84.5 -66.5t-46.5 -81.5t-16 -76.5h-66q0 35 12 74.5t38.5 82t64 77t95.5 56.5t126 22q69 0 126.5 -24t94 -60.5t62.5 -80t36.5 -81t10.5 -66.5zM718 300q0 -22 -8 -55t-31.5 -78
t-58.5 -82.5t-96 -64t-137 -26.5q-73 0 -133 24t-96 59.5t-61 79t-35 79.5t-10 64h66q0 -14 7 -39.5t26 -62t47.5 -68t77 -53.5t107.5 -22q58 0 106 19.5t77.5 49t50 64t28.5 63.5t8 49h65zM438 715l-156 110l42 50l142 -125z" />
    <glyph glyph-name="Oacute" unicode="&#xd3;" horiz-adv-x="770" 
d="M718 382h-65q0 31 -15 70.5t-45 81.5t-84.5 70.5t-122.5 28.5q-67 0 -121 -26.5t-84.5 -66.5t-46.5 -81.5t-16 -76.5h-66q0 35 12 74.5t38.5 82t64 77t95.5 56.5t126 22q69 0 126.5 -24t94 -60.5t62.5 -80t36.5 -81t10.5 -66.5zM718 300q0 -22 -8 -55t-31.5 -78
t-58.5 -82.5t-96 -64t-137 -26.5q-73 0 -133 24t-96 59.5t-61 79t-35 79.5t-10 64h66q0 -14 7 -39.5t26 -62t47.5 -68t77 -53.5t107.5 -22q58 0 106 19.5t77.5 49t50 64t28.5 63.5t8 49h65zM497 825l-156 -110l-28 35l142 125z" />
    <glyph glyph-name="Ocircumflex" unicode="&#xd4;" horiz-adv-x="770" 
d="M718 382h-65q0 31 -15 70.5t-45 81.5t-84.5 70.5t-122.5 28.5q-67 0 -121 -26.5t-84.5 -66.5t-46.5 -81.5t-16 -76.5h-66q0 35 12 74.5t38.5 82t64 77t95.5 56.5t126 22q69 0 126.5 -24t94 -60.5t62.5 -80t36.5 -81t10.5 -66.5zM718 300q0 -22 -8 -55t-31.5 -78
t-58.5 -82.5t-96 -64t-137 -26.5q-73 0 -133 24t-96 59.5t-61 79t-35 79.5t-10 64h66q0 -14 7 -39.5t26 -62t47.5 -68t77 -53.5t107.5 -22q58 0 106 19.5t77.5 49t50 64t28.5 63.5t8 49h65zM387 863l136 -105l-36 -42l-100 83l-100 -83l-36 42z" />
    <glyph glyph-name="Otilde" unicode="&#xd5;" horiz-adv-x="770" 
d="M718 382h-65q0 31 -15 70.5t-45 81.5t-84.5 70.5t-122.5 28.5q-67 0 -121 -26.5t-84.5 -66.5t-46.5 -81.5t-16 -76.5h-66q0 35 12 74.5t38.5 82t64 77t95.5 56.5t126 22q69 0 126.5 -24t94 -60.5t62.5 -80t36.5 -81t10.5 -66.5zM718 300q0 -22 -8 -55t-31.5 -78
t-58.5 -82.5t-96 -64t-137 -26.5q-73 0 -133 24t-96 59.5t-61 79t-35 79.5t-10 64h66q0 -14 7 -39.5t26 -62t47.5 -68t77 -53.5t107.5 -22q58 0 106 19.5t77.5 49t50 64t28.5 63.5t8 49h65zM534 805q-11 -28 -36 -54t-57 -26q-22 0 -57.5 26t-49.5 26q-36 0 -56 -45l-38 21
q7 31 35.5 57t58.5 26q17 0 56 -27t51 -27q19 0 30 10.5t24 32.5z" />
    <glyph glyph-name="Odieresis" unicode="&#xd6;" horiz-adv-x="770" 
d="M718 382h-65q0 31 -15 70.5t-45 81.5t-84.5 70.5t-122.5 28.5q-67 0 -121 -26.5t-84.5 -66.5t-46.5 -81.5t-16 -76.5h-66q0 35 12 74.5t38.5 82t64 77t95.5 56.5t126 22q69 0 126.5 -24t94 -60.5t62.5 -80t36.5 -81t10.5 -66.5zM718 300q0 -22 -8 -55t-31.5 -78
t-58.5 -82.5t-96 -64t-137 -26.5q-73 0 -133 24t-96 59.5t-61 79t-35 79.5t-10 64h66q0 -14 7 -39.5t26 -62t47.5 -68t77 -53.5t107.5 -22q58 0 106 19.5t77.5 49t50 64t28.5 63.5t8 49h65zM509 780q0 -19 -13 -32t-32 -13t-32.5 13t-13.5 32t13.5 32t32.5 13t32 -13t13 -32
zM352 780q0 -19 -13 -32t-32 -13t-32 13t-13 32t13 32t32 13t32 -13t13 -32z" />
    <glyph glyph-name="multiply" unicode="&#xd7;" horiz-adv-x="491" 
d="M428 191l-42 -42l-141 141l-140 -141l-42 42l141 141l-141 140l42 43l140 -142l141 142l42 -43l-142 -140z" />
    <glyph glyph-name="Oslash" unicode="&#xd8;" horiz-adv-x="770" 
d="M717 653l-625 -658l-44 39l624 659zM720 345q0 -156 -94 -253.5t-240 -97.5q-81 0 -152 33l45 48q46 -20 104 -20q123 0 197.5 84t74.5 205q0 57 -17 108l48 50q34 -73 34 -157zM387 694q76 0 144 -33l-43 -46q-45 18 -102 18q-123 0 -196.5 -83.5t-73.5 -205.5
q0 -52 17 -103q-51 -55 -52 -55q-31 73 -31 158q0 150 93 250t244 100z" />
    <glyph glyph-name="Ugrave" unicode="&#xd9;" horiz-adv-x="630" 
d="M570 221q0 -53 -20.5 -97t-53 -70t-68.5 -41t-71 -17v61q26 1 50 10.5t47 29.5t37 56t14 84v451h65v-467zM275 -4q-93 10 -154 67.5t-61 155.5v469h65v-459q0 -75 42.5 -117t107.5 -54v-62zM370 715l-156 110l42 50l142 -125z" />
    <glyph glyph-name="Uacute" unicode="&#xda;" horiz-adv-x="630" 
d="M570 221q0 -53 -20.5 -97t-53 -70t-68.5 -41t-71 -17v61q26 1 50 10.5t47 29.5t37 56t14 84v451h65v-467zM275 -4q-93 10 -154 67.5t-61 155.5v469h65v-459q0 -75 42.5 -117t107.5 -54v-62zM419 825l-156 -110l-28 35l142 125z" />
    <glyph glyph-name="Ucircumflex" unicode="&#xdb;" horiz-adv-x="630" 
d="M570 221q0 -53 -20.5 -97t-53 -70t-68.5 -41t-71 -17v61q26 1 50 10.5t47 29.5t37 56t14 84v451h65v-467zM275 -4q-93 10 -154 67.5t-61 155.5v469h65v-459q0 -75 42.5 -117t107.5 -54v-62zM318 863l136 -105l-36 -42l-100 83l-100 -83l-36 42z" />
    <glyph glyph-name="Udieresis" unicode="&#xdc;" horiz-adv-x="630" 
d="M570 221q0 -53 -20.5 -97t-53 -70t-68.5 -41t-71 -17v61q26 1 50 10.5t47 29.5t37 56t14 84v451h65v-467zM275 -4q-93 10 -154 67.5t-61 155.5v469h65v-459q0 -75 42.5 -117t107.5 -54v-62zM439 780q0 -19 -13 -32t-32 -13t-32.5 13t-13.5 32t13.5 32t32.5 13t32 -13
t13 -32zM282 780q0 -19 -13 -32t-32 -13t-32 13t-13 32t13 32t32 13t32 -13t13 -32z" />
    <glyph glyph-name="Yacute" unicode="&#xdd;" horiz-adv-x="540" 
d="M540 660l-228 -332v-328h-64v328l33 65l207 300zM228 470l-33 -65l-175 257l53 31zM398 825l-156 -110l-28 35l142 125z" />
    <glyph glyph-name="Thorn" unicode="&#xde;" horiz-adv-x="499" 
d="M459 373q0 -99 -67.5 -156t-151.5 -57h-4v61h4q12 0 28 3t39 13t41 25.5t31 45t13 67.5q0 115 -148 115h-154v198h64v-137h108q31 0 60.5 -6.5t62.5 -23.5t53.5 -55t20.5 -93zM154 1h-64v417h64v-417z" />
    <glyph glyph-name="germandbls" unicode="&#xdf;" horiz-adv-x="513" 
d="M399 576q0 -34 -14.5 -61.5t-32.5 -42t-38 -31.5t-27 -31h-68q5 24 24.5 45t39.5 34t36 35.5t16 49.5q0 44 -30 67.5t-68 23.5q-40 0 -68.5 -28t-28.5 -75v-562h-60v566q0 77 46 116t110 39q85 0 124 -44.5t39 -100.5zM459 134q0 -61 -44 -100.5t-105 -39.5
q-65 0 -100 25l30 51q27 -20 70 -20q34 0 58.5 21.5t24.5 61.5q0 32 -24.5 57.5t-54.5 40t-59 40.5t-37 57h76q6 -11 25.5 -24t42.5 -27t45 -32t37 -46.5t15 -64.5z" />
    <glyph glyph-name="agrave" unicode="&#xe0;" horiz-adv-x="439" 
d="M409 33l-41 -45l-74 57v281q0 85 -85 85q-49 0 -111 -52l-35 43q1 1 11 9.5t17 13.5t21.5 14t27.5 14t31.5 9t37.5 4q64 0 104.5 -32t40.5 -97v-260zM212 2q-24 -8 -50 -8q-57 0 -88 32.5t-31 81.5q0 61 44 95t122 55l3 1v-51l-3 -1q-34 -14 -51 -22.5t-35.5 -28
t-18.5 -43.5q0 -68 67 -68q23 0 41 10v-53zM251 524l-145 123l45 47l132 -138z" />
    <glyph glyph-name="aacute" unicode="&#xe1;" horiz-adv-x="439" 
d="M409 33l-41 -45l-74 57v281q0 85 -85 85q-49 0 -111 -52l-35 43q1 1 11 9.5t17 13.5t21.5 14t27.5 14t31.5 9t37.5 4q64 0 104.5 -32t40.5 -97v-260zM212 2q-24 -8 -50 -8q-57 0 -88 32.5t-31 81.5q0 61 44 95t122 55l3 1v-51l-3 -1q-34 -14 -51 -22.5t-35.5 -28
t-18.5 -43.5q0 -68 67 -68q23 0 41 10v-53zM316 647l-145 -123l-32 32l131 138z" />
    <glyph glyph-name="acircumflex" unicode="&#xe2;" horiz-adv-x="439" 
d="M409 33l-41 -45l-74 57v281q0 85 -85 85q-49 0 -111 -52l-35 43q1 1 11 9.5t17 13.5t21.5 14t27.5 14t31.5 9t37.5 4q64 0 104.5 -32t40.5 -97v-260zM212 2q-24 -8 -50 -8q-57 0 -88 32.5t-31 81.5q0 61 44 95t122 55l3 1v-51l-3 -1q-34 -14 -51 -22.5t-35.5 -28
t-18.5 -43.5q0 -68 67 -68q23 0 41 10v-53zM345 579l-36 -43l-100 84l-100 -84l-36 43l136 105z" />
    <glyph glyph-name="atilde" unicode="&#xe3;" horiz-adv-x="439" 
d="M409 33l-41 -45l-74 57v281q0 85 -85 85q-49 0 -111 -52l-35 43q1 1 11 9.5t17 13.5t21.5 14t27.5 14t31.5 9t37.5 4q64 0 104.5 -32t40.5 -97v-260zM212 2q-24 -8 -50 -8q-57 0 -88 32.5t-31 81.5q0 61 44 95t122 55l3 1v-51l-3 -1q-34 -14 -51 -22.5t-35.5 -28
t-18.5 -43.5q0 -68 67 -68q23 0 41 10v-53zM358 634q-11 -28 -36 -54t-57 -26q-22 0 -57.5 26t-49.5 26q-36 0 -56 -45l-38 21q7 31 35.5 57t58.5 26q17 0 56 -27t51 -27q19 0 30 10.5t24 32.5z" />
    <glyph glyph-name="adieresis" unicode="&#xe4;" horiz-adv-x="439" 
d="M409 33l-41 -45l-74 57v281q0 85 -85 85q-49 0 -111 -52l-35 43q1 1 11 9.5t17 13.5t21.5 14t27.5 14t31.5 9t37.5 4q64 0 104.5 -32t40.5 -97v-260zM212 2q-24 -8 -50 -8q-57 0 -88 32.5t-31 81.5q0 61 44 95t122 55l3 1v-51l-3 -1q-34 -14 -51 -22.5t-35.5 -28
t-18.5 -43.5q0 -68 67 -68q23 0 41 10v-53zM335 610q0 -19 -13 -32t-32 -13t-32.5 13t-13.5 32t13.5 32t32.5 13t32 -13t13 -32zM178 610q0 -19 -13 -32t-32 -13t-32 13t-13 32t13 32t32 13t32 -13t13 -32z" />
    <glyph glyph-name="aring" unicode="&#xe5;" horiz-adv-x="439" 
d="M409 33l-41 -45l-74 57v281q0 85 -85 85q-49 0 -111 -52l-35 43q1 1 11 9.5t17 13.5t21.5 14t27.5 14t31.5 9t37.5 4q64 0 104.5 -32t40.5 -97v-260zM212 2q-24 -8 -50 -8q-57 0 -88 32.5t-31 81.5q0 61 44 95t122 55l3 1v-51l-3 -1q-34 -14 -51 -22.5t-35.5 -28
t-18.5 -43.5q0 -68 67 -68q23 0 41 10v-53zM306 611q0 -33 -19 -56t-50 -31v42q23 16 23 45q0 21 -14 36.5t-35 15.5t-35 -15.5t-14 -36.5q0 -28 22 -43v-44q-31 8 -49.5 31.5t-18.5 55.5q0 40 27 64.5t68 24.5t68 -24.5t27 -64.5z" />
    <glyph glyph-name="ae" unicode="&#xe6;" horiz-adv-x="685" 
d="M656 229l-227 -1v55h164q0 53 -27.5 89.5t-78.5 36.5q-67 0 -104 -53t-37 -127q0 -79 40 -129.5t112 -50.5q60 0 115 37l7 -13q8 -13 15 -26l7 -13q-67 -40 -147 -40q-57 0 -95 20t-74 61q-88 -81 -172 -81q-57 0 -88 32.5t-31 81.5q0 27 10 49t21 35t37.5 27t39.5 19
t47 17q3 1 5.5 2t5.5 2h3v-51l-3 -1q-105 -36 -105 -95q0 -63 67 -63q50 0 123 53v224q0 83 -85 83q-51 0 -111 -50l-35 43q1 1 11 9.5t17 13.5t21.5 14t27.5 14t31.5 9t37.5 4q103 0 134 -72q56 72 153 72q86 0 127 -55.5t41 -145.5v-36z" />
    <glyph glyph-name="ccedilla" unicode="&#xe7;" horiz-adv-x="414" 
d="M297 -127q0 -34 -26 -60t-66 -39l-23 42q32 15 43.5 27.5t11.5 31.5q0 29 -37 66l23 56q-57 8 -99 47t-58 77.5t-17 66.5h62q0 -11 7.5 -31.5t22.5 -45.5t46 -43t71 -18q61 0 116 38l8 -12l14 -26l8 -13q-65 -38 -129 -42l-16 -40q38 -35 38 -82zM396 426l-30 -50
q-44 33 -105 33q-39 0 -70 -17.5t-47 -42.5t-24 -45.5t-9 -33.5h-62q4 68 61 132t148 64q79 0 138 -40z" />
    <glyph glyph-name="egrave" unicode="&#xe8;" horiz-adv-x="442" 
d="M414 229l-227 -1v55h164q0 53 -27.5 89.5t-78.5 36.5q-68 0 -104.5 -54t-36.5 -126q0 -76 39 -127t114 -51q64 0 114 35l7 -13q8 -13 15 -26l7 -13q-67 -40 -147 -40q-99 0 -155 66t-56 165q0 103 53.5 172t150.5 69q86 0 127 -55.5t41 -145.5v-36zM285 524l-145 123
l45 47l132 -138z" />
    <glyph glyph-name="eacute" unicode="&#xe9;" horiz-adv-x="442" 
d="M414 229l-227 -1v55h164q0 53 -27.5 89.5t-78.5 36.5q-68 0 -104.5 -54t-36.5 -126q0 -76 39 -127t114 -51q64 0 114 35l7 -13q8 -13 15 -26l7 -13q-67 -40 -147 -40q-99 0 -155 66t-56 165q0 103 53.5 172t150.5 69q86 0 127 -55.5t41 -145.5v-36zM347 647l-145 -123
l-32 32l131 138z" />
    <glyph glyph-name="ecircumflex" unicode="&#xea;" horiz-adv-x="442" 
d="M414 229l-227 -1v55h164q0 53 -27.5 89.5t-78.5 36.5q-68 0 -104.5 -54t-36.5 -126q0 -76 39 -127t114 -51q64 0 114 35l7 -13q8 -13 15 -26l7 -13q-67 -40 -147 -40q-99 0 -155 66t-56 165q0 103 53.5 172t150.5 69q86 0 127 -55.5t41 -145.5v-36zM379 579l-36 -43
l-100 84l-100 -84l-36 43l136 105z" />
    <glyph glyph-name="edieresis" unicode="&#xeb;" horiz-adv-x="442" 
d="M414 229l-227 -1v55h164q0 53 -27.5 89.5t-78.5 36.5q-68 0 -104.5 -54t-36.5 -126q0 -76 39 -127t114 -51q64 0 114 35l7 -13q8 -13 15 -26l7 -13q-67 -40 -147 -40q-99 0 -155 66t-56 165q0 103 53.5 172t150.5 69q86 0 127 -55.5t41 -145.5v-36zM371 610
q0 -19 -13 -32t-32 -13t-32.5 13t-13.5 32t13.5 32t32.5 13t32 -13t13 -32zM214 610q0 -19 -13 -32t-32 -13t-32 13t-13 32t13 32t32 13t32 -13t13 -32z" />
    <glyph glyph-name="igrave" unicode="&#xec;" horiz-adv-x="250" 
d="M155 0h-60v460h60v-460zM156 524l-145 123l45 47l132 -138z" />
    <glyph glyph-name="iacute" unicode="&#xed;" horiz-adv-x="250" 
d="M155 0h-60v460h60v-460zM235 647l-145 -123l-32 32l131 138z" />
    <glyph glyph-name="icircumflex" unicode="&#xee;" horiz-adv-x="250" 
d="M155 0h-60v460h60v-460zM260 579l-36 -43l-100 84l-100 -84l-36 43l136 105z" />
    <glyph glyph-name="idieresis" unicode="&#xef;" horiz-adv-x="250" 
d="M155 0h-60v460h60v-460zM246 610q0 -19 -13 -32t-32 -13t-32.5 13t-13.5 32t13.5 32t32.5 13t32 -13t13 -32zM89 610q0 -19 -13 -32t-32 -13t-32 13t-13 32t13 32t32 13t32 -13t13 -32z" />
    <glyph glyph-name="eth" unicode="&#xf0;" horiz-adv-x="516" 
d="M459 280q0 -56 -11.5 -105t-34.5 -90.5t-65 -66t-98 -24.5q-99 0 -154.5 69t-55.5 178q0 95 51.5 160t139.5 65l47 -6l14 -62q-29 11 -58 11q-53 0 -92 -41t-39 -130t41.5 -138.5t102.5 -49.5q41 0 71.5 20.5t46.5 55t23.5 72t7.5 78.5q0 46 -17 117t-37 103l60 37
q1 -1 6.5 -13t7 -16t7 -17.5t8 -21t7 -22.5t7 -26.5t5.5 -28.5t5 -32.5t3 -35.5t1 -40zM448 659l-239 -149l-28 44l84 53q-13 15 -68 70l50 44q37 -31 77 -77l95 59z" />
    <glyph glyph-name="ntilde" unicode="&#xf1;" 
d="M427 0h-60v325q0 43 -22 63.5t-58 20.5q-32 0 -65 -18v58q28 17 68 17q69 0 103 -34t34 -85v-347zM140 0h-60v460h60v-460zM387 634q-11 -28 -36 -54t-57 -26q-22 0 -57.5 26t-49.5 26q-36 0 -56 -45l-38 21q7 31 35.5 57t58.5 26q17 0 56 -27t51 -27q19 0 30 10.5
t24 32.5z" />
    <glyph glyph-name="ograve" unicode="&#xf2;" horiz-adv-x="505" 
d="M470 230q0 -100 -58.5 -165t-115.5 -67v59q9 1 25 10.5t36.5 28t35 54t14.5 80.5q0 40 -12 73t-24.5 49.5t-34 30t-26 15.5t-14.5 5v59q13 0 32.5 -7.5t44.5 -25.5t46.5 -43t36 -66.5t14.5 -89.5zM214 -2q-65 4 -122 67.5t-57 163.5q0 49 15 90t37 67t47.5 44t46 25.5
t33.5 7.5v-60q-116 -39 -116 -174q0 -39 11 -70.5t26.5 -50t33 -31t29 -17t16.5 -4.5v-58zM291 524l-145 123l45 47l132 -138z" />
    <glyph glyph-name="oacute" unicode="&#xf3;" horiz-adv-x="505" 
d="M470 230q0 -100 -58.5 -165t-115.5 -67v59q9 1 25 10.5t36.5 28t35 54t14.5 80.5q0 40 -12 73t-24.5 49.5t-34 30t-26 15.5t-14.5 5v59q13 0 32.5 -7.5t44.5 -25.5t46.5 -43t36 -66.5t14.5 -89.5zM214 -2q-65 4 -122 67.5t-57 163.5q0 49 15 90t37 67t47.5 44t46 25.5
t33.5 7.5v-60q-116 -39 -116 -174q0 -39 11 -70.5t26.5 -50t33 -31t29 -17t16.5 -4.5v-58zM372 647l-145 -123l-32 32l131 138z" />
    <glyph glyph-name="ocircumflex" unicode="&#xf4;" horiz-adv-x="505" 
d="M470 230q0 -100 -58.5 -165t-115.5 -67v59q9 1 25 10.5t36.5 28t35 54t14.5 80.5q0 40 -12 73t-24.5 49.5t-34 30t-26 15.5t-14.5 5v59q13 0 32.5 -7.5t44.5 -25.5t46.5 -43t36 -66.5t14.5 -89.5zM214 -2q-65 4 -122 67.5t-57 163.5q0 49 15 90t37 67t47.5 44t46 25.5
t33.5 7.5v-60q-116 -39 -116 -174q0 -39 11 -70.5t26.5 -50t33 -31t29 -17t16.5 -4.5v-58zM389 579l-36 -43l-100 84l-100 -84l-36 43l136 105z" />
    <glyph glyph-name="otilde" unicode="&#xf5;" horiz-adv-x="505" 
d="M470 230q0 -100 -58.5 -165t-115.5 -67v59q9 1 25 10.5t36.5 28t35 54t14.5 80.5q0 40 -12 73t-24.5 49.5t-34 30t-26 15.5t-14.5 5v59q13 0 32.5 -7.5t44.5 -25.5t46.5 -43t36 -66.5t14.5 -89.5zM214 -2q-65 4 -122 67.5t-57 163.5q0 49 15 90t37 67t47.5 44t46 25.5
t33.5 7.5v-60q-116 -39 -116 -174q0 -39 11 -70.5t26.5 -50t33 -31t29 -17t16.5 -4.5v-58zM404 634q-11 -28 -36 -54t-57 -26q-22 0 -57.5 26t-49.5 26q-36 0 -56 -45l-38 21q7 31 35.5 57t58.5 26q17 0 56 -27t51 -27q19 0 30 10.5t24 32.5z" />
    <glyph glyph-name="odieresis" unicode="&#xf6;" horiz-adv-x="505" 
d="M470 230q0 -100 -58.5 -165t-115.5 -67v59q9 1 25 10.5t36.5 28t35 54t14.5 80.5q0 40 -12 73t-24.5 49.5t-34 30t-26 15.5t-14.5 5v59q13 0 32.5 -7.5t44.5 -25.5t46.5 -43t36 -66.5t14.5 -89.5zM214 -2q-65 4 -122 67.5t-57 163.5q0 49 15 90t37 67t47.5 44t46 25.5
t33.5 7.5v-60q-116 -39 -116 -174q0 -39 11 -70.5t26.5 -50t33 -31t29 -17t16.5 -4.5v-58zM377 610q0 -19 -13 -32t-32 -13t-32.5 13t-13.5 32t13.5 32t32.5 13t32 -13t13 -32zM220 610q0 -19 -13 -32t-32 -13t-32 13t-13 32t13 32t32 13t32 -13t13 -32z" />
    <glyph glyph-name="divide" unicode="&#xf7;" horiz-adv-x="459" 
d="M279 527q0 -21 -14.5 -35.5t-35.5 -14.5t-35.5 14.5t-14.5 35.5q0 20 14.5 35t35.5 15t35.5 -15t14.5 -35zM439 313h-419v60h419v-60zM279 161q0 -20 -14.5 -34.5t-35.5 -14.5t-35.5 14.5t-14.5 34.5q0 21 14.5 35.5t35.5 14.5t35.5 -14.5t14.5 -35.5z" />
    <glyph glyph-name="oslash" unicode="&#xf8;" horiz-adv-x="505" 
d="M470 230q0 -100 -58.5 -165t-115.5 -67v59q9 1 25 10.5t36.5 28t35 54t14.5 80.5q0 69 -32 115l-217 -259q16 -14 33 -22t23 -8v-58q-49 3 -96 41l-38 -45l-38 32l42 50q-49 64 -49 153q0 49 15 90t37 67t47.5 44t46 25.5t33.5 7.5v-60q-116 -39 -116 -174q0 -62 27 -104
l215 256q-8 6 -16 10.5t-13.5 6.5t-10.5 4l-4 1v59q37 0 82 -36l47 57l39 -32l-50 -59q56 -67 56 -162z" />
    <glyph glyph-name="ugrave" unicode="&#xf9;" horiz-adv-x="492" 
d="M412 0h-60v460h60v-460zM209 51q39 0 61 16v-58q-38 -15 -64 -15q-68 0 -102 34t-34 85v347h60v-325q0 -44 22 -64t57 -20zM273 524l-145 123l45 47l132 -138z" />
    <glyph glyph-name="uacute" unicode="&#xfa;" horiz-adv-x="492" 
d="M412 0h-60v460h60v-460zM209 51q39 0 61 16v-58q-38 -15 -64 -15q-68 0 -102 34t-34 85v347h60v-325q0 -44 22 -64t57 -20zM367 647l-145 -123l-32 32l131 138z" />
    <glyph glyph-name="ucircumflex" unicode="&#xfb;" horiz-adv-x="492" 
d="M412 0h-60v460h60v-460zM209 51q39 0 61 16v-58q-38 -15 -64 -15q-68 0 -102 34t-34 85v347h60v-325q0 -44 22 -64t57 -20zM379 579l-36 -43l-100 84l-100 -84l-36 43l136 105z" />
    <glyph glyph-name="udieresis" unicode="&#xfc;" horiz-adv-x="492" 
d="M412 0h-60v460h60v-460zM209 51q39 0 61 16v-58q-38 -15 -64 -15q-68 0 -102 34t-34 85v347h60v-325q0 -44 22 -64t57 -20zM367 610q0 -19 -13 -32t-32 -13t-32.5 13t-13.5 32t13.5 32t32.5 13t32 -13t13 -32zM210 610q0 -19 -13 -32t-32 -13t-32 13t-13 32t13 32t32 13
t32 -13t13 -32z" />
    <glyph glyph-name="yacute" unicode="&#xfd;" horiz-adv-x="451" 
d="M186 206l-31 -78l-138 315l56 23zM436 446l-230 -563q-12 -28 -30.5 -52t-31.5 -34l-13 -10q-6 -4 -16.5 -9t-41 -12t-58.5 -3v53q20 -2 40 2t30 9l10 5q33 19 52 60l235 574zM352 647l-145 -123l-32 32l131 138z" />
    <glyph glyph-name="thorn" unicode="&#xfe;" horiz-adv-x="516" 
d="M476 231q0 -91 -52 -164t-147 -73q-37 0 -55 9v58q3 -3 24 -7t29 -4q60 0 100.5 49.5t40.5 130.5q0 82 -35.5 130.5t-97.5 48.5q-46 0 -62 -13v56q22 14 65 14q66 0 110.5 -37t62 -88t17.5 -110zM140 -239h-60v960h60v-960z" />
    <glyph glyph-name="ydieresis" unicode="&#xff;" horiz-adv-x="451" 
d="M186 206l-31 -78l-138 315l56 23zM436 446l-230 -563q-12 -28 -30.5 -52t-31.5 -34l-13 -10q-6 -4 -16.5 -9t-41 -12t-58.5 -3v53q20 -2 40 2t30 9l10 5q33 19 52 60l235 574zM353 610q0 -19 -13 -32t-32 -13t-32.5 13t-13.5 32t13.5 32t32.5 13t32 -13t13 -32zM196 610
q0 -19 -13 -32t-32 -13t-32 13t-13 32t13 32t32 13t32 -13t13 -32z" />
    <glyph glyph-name="Amacron" unicode="&#x100;" horiz-adv-x="618" 
d="M598 14l-63 -20l-90 231h-186l24 61h139l-158 402h72zM265 463l-187 -471l-58 20l213 537zM420 752h-215v54h215v-54z" />
    <glyph glyph-name="amacron" unicode="&#x101;" horiz-adv-x="439" 
d="M409 33l-41 -45l-74 57v281q0 85 -85 85q-49 0 -111 -52l-35 43q1 1 11 9.5t17 13.5t21.5 14t27.5 14t31.5 9t37.5 4q64 0 104.5 -32t40.5 -97v-260zM212 2q-24 -8 -50 -8q-57 0 -88 32.5t-31 81.5q0 61 44 95t122 55l3 1v-51l-3 -1q-34 -14 -51 -22.5t-35.5 -28
t-18.5 -43.5q0 -68 67 -68q23 0 41 10v-53zM327 551h-215v54h215v-54z" />
    <glyph glyph-name="Abreve" unicode="&#x102;" horiz-adv-x="618" 
d="M598 14l-63 -20l-90 231h-186l24 61h139l-158 402h72zM265 463l-187 -471l-58 20l213 537zM311 776q28 0 51.5 14t33.5 28l9 14l40 -22q-5 -22 -42 -53.5t-92 -31.5t-91.5 31.5t-41.5 53.5l40 22q3 -6 10 -15.5t31 -25t52 -15.5z" />
    <glyph glyph-name="abreve" unicode="&#x103;" horiz-adv-x="439" 
d="M409 33l-41 -45l-74 57v281q0 85 -85 85q-49 0 -111 -52l-35 43q1 1 11 9.5t17 13.5t21.5 14t27.5 14t31.5 9t37.5 4q64 0 104.5 -32t40.5 -97v-260zM212 2q-24 -8 -50 -8q-57 0 -88 32.5t-31 81.5q0 61 44 95t122 55l3 1v-51l-3 -1q-34 -14 -51 -22.5t-35.5 -28
t-18.5 -43.5q0 -68 67 -68q23 0 41 10v-53zM221 606q28 0 51.5 14t33.5 28l9 14l40 -22q-5 -22 -42 -53.5t-92 -31.5t-91.5 31.5t-41.5 53.5l40 22q3 -6 10 -15.5t31 -25t52 -15.5z" />
    <glyph glyph-name="Aogonek" unicode="&#x104;" horiz-adv-x="618" 
d="M595 -134l6 -45q-25 -7 -49 -7q-49 0 -72.5 23t-23.5 60q0 60 72 113l-83 215h-186l24 61h139l-158 402h72l262 -675q-85 -55 -85 -115q0 -16 11.5 -26.5t31.5 -10.5q24 0 39 5zM265 463l-187 -471l-58 20l213 537z" />
    <glyph glyph-name="aogonek" unicode="&#x105;" horiz-adv-x="439" 
d="M398 -134l6 -45q-24 -7 -49 -7q-49 0 -72.5 23t-23.5 60q0 33 19.5 60.5t53.5 58.5l-38 33v277q0 85 -85 85q-49 0 -111 -52l-35 43q1 1 11 9.5t17 13.5t21.5 14t27.5 14t31.5 9t37.5 4q64 0 104.5 -32t40.5 -97v-264l58 -50q-96 -69 -96 -125q0 -16 11.5 -26.5
t31.5 -10.5q24 0 39 5zM212 2q-24 -8 -50 -8q-57 0 -88 32.5t-31 81.5q0 61 44 95t122 55l3 1v-51l-3 -1q-34 -14 -51 -22.5t-35.5 -28t-18.5 -43.5q0 -68 67 -68q23 0 41 10v-53z" />
    <glyph glyph-name="Cacute" unicode="&#x106;" horiz-adv-x="548" 
d="M533 658l-29 -56q-54 31 -131 31q-92 0 -169.5 -74.5t-84.5 -176.5h-68q3 54 28 108.5t66.5 100t104.5 74.5t134 29q95 0 149 -36zM506 82l27 -54q-64 -34 -160 -34q-134 0 -223.5 92.5t-97.5 213.5h68q4 -39 21.5 -80t47.5 -79t78.5 -62t105.5 -24q81 0 133 27zM506 825
l-156 -110l-28 35l142 125z" />
    <glyph glyph-name="cacute" unicode="&#x107;" horiz-adv-x="414" 
d="M396 426l-30 -50q-44 33 -105 33q-39 0 -70 -17.5t-47 -42.5t-24 -45.5t-9 -33.5h-62q4 68 61 132t148 64q79 0 138 -40zM404 37q-75 -43 -149 -43q-52 0 -94 23t-65 56t-35 63t-12 52h62q0 -11 7.5 -31.5t22.5 -45.5t46 -43t71 -18q61 0 116 38l8 -12l14 -26zM367 647
l-145 -123l-32 32l131 138z" />
    <glyph glyph-name="Ccircumflex" unicode="&#x108;" horiz-adv-x="548" 
d="M533 658l-29 -56q-54 31 -131 31q-92 0 -169.5 -74.5t-84.5 -176.5h-68q3 54 28 108.5t66.5 100t104.5 74.5t134 29q95 0 149 -36zM506 82l27 -54q-64 -34 -160 -34q-134 0 -223.5 92.5t-97.5 213.5h68q4 -39 21.5 -80t47.5 -79t78.5 -62t105.5 -24q81 0 133 27zM383 863
l136 -105l-36 -42l-100 83l-100 -83l-36 42z" />
    <glyph glyph-name="ccircumflex" unicode="&#x109;" horiz-adv-x="414" 
d="M396 426l-30 -50q-44 33 -105 33q-39 0 -70 -17.5t-47 -42.5t-24 -45.5t-9 -33.5h-62q4 68 61 132t148 64q79 0 138 -40zM404 37q-75 -43 -149 -43q-52 0 -94 23t-65 56t-35 63t-12 52h62q0 -11 7.5 -31.5t22.5 -45.5t46 -43t71 -18q61 0 116 38l8 -12l14 -26zM394 579
l-36 -43l-100 84l-100 -84l-36 43l136 105z" />
    <glyph glyph-name="Cdotaccent" unicode="&#x10a;" horiz-adv-x="548" 
d="M533 658l-29 -56q-54 31 -131 31q-92 0 -169.5 -74.5t-84.5 -176.5h-68q3 54 28 108.5t66.5 100t104.5 74.5t134 29q95 0 149 -36zM506 82l27 -54q-64 -34 -160 -34q-134 0 -223.5 92.5t-97.5 213.5h68q4 -39 21.5 -80t47.5 -79t78.5 -62t105.5 -24q81 0 133 27zM427 780
q0 -19 -13 -32t-32 -13t-32.5 13t-13.5 32t13.5 32t32.5 13t32 -13t13 -32z" />
    <glyph glyph-name="cdotaccent" unicode="&#x10b;" horiz-adv-x="414" 
d="M396 426l-30 -50q-44 33 -105 33q-39 0 -70 -17.5t-47 -42.5t-24 -45.5t-9 -33.5h-62q4 68 61 132t148 64q79 0 138 -40zM404 37q-75 -43 -149 -43q-52 0 -94 23t-65 56t-35 63t-12 52h62q0 -11 7.5 -31.5t22.5 -45.5t46 -43t71 -18q61 0 116 38l8 -12l14 -26zM307 609
q0 -19 -13 -32.5t-32 -13.5t-32 13.5t-13 32.5t13 32t32 13t32 -13t13 -32z" />
    <glyph glyph-name="Ccaron" unicode="&#x10c;" horiz-adv-x="548" 
d="M533 658l-29 -56q-54 31 -131 31q-92 0 -169.5 -74.5t-84.5 -176.5h-68q3 54 28 108.5t66.5 100t104.5 74.5t134 29q95 0 149 -36zM506 82l27 -54q-64 -34 -160 -34q-134 0 -223.5 92.5t-97.5 213.5h68q4 -39 21.5 -80t47.5 -79t78.5 -62t105.5 -24q81 0 133 27zM515 820
l-136 -105l-136 105l36 42l100 -83l100 83z" />
    <glyph glyph-name="ccaron" unicode="&#x10d;" horiz-adv-x="414" 
d="M396 426l-30 -50q-44 33 -105 33q-39 0 -70 -17.5t-47 -42.5t-24 -45.5t-9 -33.5h-62q4 68 61 132t148 64q79 0 138 -40zM404 37q-75 -43 -149 -43q-52 0 -94 23t-65 56t-35 63t-12 52h62q0 -11 7.5 -31.5t22.5 -45.5t46 -43t71 -18q61 0 116 38l8 -12l14 -26zM359 684
l36 -42l-136 -105l-136 105l36 42l100 -83z" />
    <glyph glyph-name="Dcaron" unicode="&#x10e;" horiz-adv-x="692" 
d="M642 354q0 -152 -95.5 -253t-239.5 -101h-71v60h51q35 0 70.5 8t75.5 29t70.5 53.5t50.5 86.5t20 123q0 53 -12.5 96t-31.5 70.5t-46.5 47.5t-52 30t-55 15.5t-47.5 6.5t-37 1h-56v61h84q90 0 156 -30.5t100.5 -81.5t50 -106t15.5 -116zM154 0h-64v688h64v-688zM431 820
l-136 -105l-136 105l36 42l100 -83l100 83z" />
    <glyph glyph-name="dcaron" unicode="&#x10f;" horiz-adv-x="536" 
d="M436 0h-60v721h60v-721zM294 62v-57q-18 -11 -55 -11q-95 0 -147 73t-52 164q0 59 17.5 110t62 88t110.5 37q14 0 30 -3.5t25 -6.5l9 -4v-55q-12 12 -61 12q-62 0 -97 -48.5t-35 -130.5q0 -81 40 -130.5t99 -49.5q33 0 54 12zM580 722l-50 -160h-47l29 160h68z" />
    <glyph glyph-name="Dcroat" unicode="&#x110;" horiz-adv-x="692" 
d="M642 354q0 -152 -95.5 -253t-239.5 -101h-71v60h51q35 0 70.5 8t75.5 29t70.5 53.5t50.5 86.5t20 123q0 53 -12.5 96t-31.5 70.5t-46.5 47.5t-52 30t-55 15.5t-47.5 6.5t-37 1h-56v61h84q90 0 156 -30.5t100.5 -81.5t50 -106t15.5 -116zM154 466h-64v222h64v-222z
M283 326h-272v54h272v-54zM154 241v-241h-64v241h64z" />
    <glyph glyph-name="dcroat" unicode="&#x111;" horiz-adv-x="516" 
d="M436 0h-60v551h-122v54h122v116h60v-116h65v-54h-65v-551zM294 62v-57q-18 -11 -55 -11q-95 0 -147 73t-52 164q0 59 17.5 110t62 88t110.5 37q14 0 30 -3.5t25 -6.5l9 -4v-55q-12 12 -61 12q-62 0 -97 -48.5t-35 -130.5q0 -81 40 -130.5t99 -49.5q33 0 54 12z" />
    <glyph glyph-name="Emacron" unicode="&#x112;" 
d="M450 627h-360v61h360v-61zM428 323h-191v61h191v-61zM154 0h-64v546h64v-546zM450 0h-214v60h214v-60zM381 752h-215v54h215v-54z" />
    <glyph glyph-name="emacron" unicode="&#x113;" horiz-adv-x="442" 
d="M414 229l-227 -1v55h164q0 53 -27.5 89.5t-78.5 36.5q-68 0 -104.5 -54t-36.5 -126q0 -76 39 -127t114 -51q64 0 114 35l7 -13q8 -13 15 -26l7 -13q-67 -40 -147 -40q-99 0 -155 66t-56 165q0 103 53.5 172t150.5 69q86 0 127 -55.5t41 -145.5v-36zM350 551h-215v54h215
v-54z" />
    <glyph glyph-name="Ebreve" unicode="&#x114;" 
d="M450 627h-360v61h360v-61zM428 323h-191v61h191v-61zM154 0h-64v546h64v-546zM450 0h-214v60h214v-60zM272 776q28 0 51.5 14t32.5 28l10 14l40 -22q-5 -22 -42 -53.5t-92 -31.5t-91.5 31.5t-41.5 53.5l40 22q3 -6 10 -15.5t31 -25t52 -15.5z" />
    <glyph glyph-name="ebreve" unicode="&#x115;" horiz-adv-x="442" 
d="M414 229l-227 -1v55h164q0 53 -27.5 89.5t-78.5 36.5q-68 0 -104.5 -54t-36.5 -126q0 -76 39 -127t114 -51q64 0 114 35l7 -13q8 -13 15 -26l7 -13q-67 -40 -147 -40q-99 0 -155 66t-56 165q0 103 53.5 172t150.5 69q86 0 127 -55.5t41 -145.5v-36zM244 606q28 0 51.5 14
t32.5 28l10 14l40 -22q-5 -22 -42 -53.5t-92 -31.5t-91.5 31.5t-41.5 53.5l40 22q3 -6 10 -15.5t31 -25t52 -15.5z" />
    <glyph glyph-name="Edotaccent" unicode="&#x116;" 
d="M450 627h-360v61h360v-61zM428 323h-191v61h191v-61zM154 0h-64v546h64v-546zM450 0h-214v60h214v-60zM318 780q0 -19 -13 -32t-32 -13t-32.5 13t-13.5 32t13.5 32t32.5 13t32 -13t13 -32z" />
    <glyph glyph-name="edotaccent" unicode="&#x117;" horiz-adv-x="442" 
d="M414 229l-227 -1v55h164q0 53 -27.5 89.5t-78.5 36.5q-68 0 -104.5 -54t-36.5 -126q0 -76 39 -127t114 -51q64 0 114 35l7 -13q8 -13 15 -26l7 -13q-67 -40 -147 -40q-99 0 -155 66t-56 165q0 103 53.5 172t150.5 69q86 0 127 -55.5t41 -145.5v-36zM292 609
q0 -19 -13 -32.5t-32 -13.5t-32 13.5t-13 32.5t13 32t32 13t32 -13t13 -32z" />
    <glyph glyph-name="Eogonek" unicode="&#x118;" 
d="M154 0h-64v546h64v-546zM455 -134l6 -45q-25 -7 -49 -7q-49 0 -72.5 23t-23.5 60q0 48 65 103h-145v60h214v-60q-77 -46 -77 -102q0 -16 11.5 -26.5t31.5 -10.5q24 0 39 5zM450 627h-360v61h360v-61zM428 323h-191v61h191v-61z" />
    <glyph glyph-name="eogonek" unicode="&#x119;" horiz-adv-x="442" 
d="M359 -134l6 -45q-25 -7 -49 -7q-49 0 -72.5 23t-23.5 60q0 50 53 98q-7 -1 -20 -1q-99 0 -155 66t-56 165q0 103 53.5 172t150.5 69q86 0 127 -55.5t41 -145.5v-36h-227v54h164q0 53 -27.5 89.5t-78.5 36.5q-68 0 -104.5 -54t-36.5 -126q0 -76 39 -127t114 -51
q64 0 114 35l7 -13q8 -13 15 -26l7 -13q-17 -10 -30 -16q-93 -57 -93 -120q0 -16 11.5 -26.5t31.5 -10.5q24 0 39 5z" />
    <glyph glyph-name="Ecaron" unicode="&#x11a;" 
d="M450 627h-360v61h360v-61zM428 323h-191v61h191v-61zM154 0h-64v546h64v-546zM450 0h-214v60h214v-60zM410 820l-136 -105l-136 105l36 42l100 -83l100 83z" />
    <glyph glyph-name="ecaron" unicode="&#x11b;" horiz-adv-x="442" 
d="M414 229l-227 -1v55h164q0 53 -27.5 89.5t-78.5 36.5q-68 0 -104.5 -54t-36.5 -126q0 -76 39 -127t114 -51q64 0 114 35l7 -13q8 -13 15 -26l7 -13q-67 -40 -147 -40q-99 0 -155 66t-56 165q0 103 53.5 172t150.5 69q86 0 127 -55.5t41 -145.5v-36zM344 684l36 -42
l-136 -105l-136 105l36 42l100 -83z" />
    <glyph glyph-name="Gcircumflex" unicode="&#x11c;" horiz-adv-x="658" 
d="M598 282h-245v60h245v-60zM598 73q-40 -37 -102 -58t-119 -21q-142 0 -234.5 101t-92.5 242q0 145 99 251t243 106q110 0 187 -46l-32 -51q-59 36 -156 36q-120 0 -196.5 -87t-76.5 -208q0 -119 71.5 -201.5t189.5 -82.5q47 0 89.5 13t65.5 33v100h64v-127zM394 863
l136 -105l-36 -42l-100 83l-100 -83l-36 42z" />
    <glyph glyph-name="gcircumflex" unicode="&#x11d;" horiz-adv-x="457" 
d="M447 405h-107q34 -44 34 -96q0 -59 -39 -102t-97 -52v-67q18 0 44.5 -9t56.5 -26.5t51 -51t21 -76.5q0 -62 -50.5 -108.5t-105.5 -51.5v52q29 4 61 35t32 74q0 48 -39.5 82t-93.5 34t-93.5 -34t-39.5 -82t35.5 -78.5t55.5 -30.5v-52q-27 2 -60.5 19.5t-63 55.5t-29.5 85
q0 34 14 63t34.5 47t44 30.5t42.5 17.5t31 5v67q-56 10 -95 53.5t-39 100.5q0 37 15.5 67t37 47t39.5 26.5t29 10.5v-56q-7 -2 -20 -10.5t-27.5 -32t-14.5 -52.5q0 -43 30 -73t72 -30q41 0 71 29.5t30 70.5q0 38 -20 64.5t-39 32.5v57q21 -2 44 -20l148 25v-60zM348 579
l-36 -43l-100 84l-100 -84l-36 43l136 105z" />
    <glyph glyph-name="Gbreve" unicode="&#x11e;" horiz-adv-x="658" 
d="M598 282h-245v60h245v-60zM598 73q-40 -37 -102 -58t-119 -21q-142 0 -234.5 101t-92.5 242q0 145 99 251t243 106q110 0 187 -46l-32 -51q-59 36 -156 36q-120 0 -196.5 -87t-76.5 -208q0 -119 71.5 -201.5t189.5 -82.5q47 0 89.5 13t65.5 33v100h64v-127zM397 776
q28 0 51.5 14t33.5 28l9 14l40 -22q-5 -22 -42 -53.5t-92 -31.5t-91.5 31.5t-41.5 53.5l40 22q3 -6 10 -15.5t31 -25t52 -15.5z" />
    <glyph glyph-name="gbreve" unicode="&#x11f;" horiz-adv-x="457" 
d="M447 405h-107q34 -44 34 -96q0 -59 -39 -102t-97 -52v-67q18 0 44.5 -9t56.5 -26.5t51 -51t21 -76.5q0 -62 -50.5 -108.5t-105.5 -51.5v52q29 4 61 35t32 74q0 48 -39.5 82t-93.5 34t-93.5 -34t-39.5 -82t35.5 -78.5t55.5 -30.5v-52q-27 2 -60.5 19.5t-63 55.5t-29.5 85
q0 34 14 63t34.5 47t44 30.5t42.5 17.5t31 5v67q-56 10 -95 53.5t-39 100.5q0 37 15.5 67t37 47t39.5 26.5t29 10.5v-56q-7 -2 -20 -10.5t-27.5 -32t-14.5 -52.5q0 -43 30 -73t72 -30q41 0 71 29.5t30 70.5q0 38 -20 64.5t-39 32.5v57q21 -2 44 -20l148 25v-60zM211 606
q28 0 51.5 14t33.5 28l9 14l40 -22q-5 -22 -42 -53.5t-92 -31.5t-91.5 31.5t-41.5 53.5l40 22q3 -6 10 -15.5t31 -25t52 -15.5z" />
    <glyph glyph-name="Gdotaccent" unicode="&#x120;" horiz-adv-x="658" 
d="M598 282h-245v60h245v-60zM598 73q-40 -37 -102 -58t-119 -21q-142 0 -234.5 101t-92.5 242q0 145 99 251t243 106q110 0 187 -46l-32 -51q-59 36 -156 36q-120 0 -196.5 -87t-76.5 -208q0 -119 71.5 -201.5t189.5 -82.5q47 0 89.5 13t65.5 33v100h64v-127zM442 780
q0 -19 -13 -32t-32 -13t-32.5 13t-13.5 32t13.5 32t32.5 13t32 -13t13 -32z" />
    <glyph glyph-name="gdotaccent" unicode="&#x121;" horiz-adv-x="457" 
d="M447 405h-107q34 -44 34 -96q0 -59 -39 -102t-97 -52v-67q18 0 44.5 -9t56.5 -26.5t51 -51t21 -76.5q0 -62 -50.5 -108.5t-105.5 -51.5v52q29 4 61 35t32 74q0 48 -39.5 82t-93.5 34t-93.5 -34t-39.5 -82t35.5 -78.5t55.5 -30.5v-52q-27 2 -60.5 19.5t-63 55.5t-29.5 85
q0 34 14 63t34.5 47t44 30.5t42.5 17.5t31 5v67q-56 10 -95 53.5t-39 100.5q0 37 15.5 67t37 47t39.5 26.5t29 10.5v-56q-7 -2 -20 -10.5t-27.5 -32t-14.5 -52.5q0 -43 30 -73t72 -30q41 0 71 29.5t30 70.5q0 38 -20 64.5t-39 32.5v57q21 -2 44 -20l148 25v-60zM256 609
q0 -19 -13 -32.5t-32 -13.5t-32 13.5t-13 32.5t13 32t32 13t32 -13t13 -32z" />
    <glyph glyph-name="Gcommaaccent" unicode="&#x122;" horiz-adv-x="658" 
d="M598 282h-245v60h245v-60zM598 73q-40 -37 -102 -58t-119 -21q-142 0 -234.5 101t-92.5 242q0 145 99 251t243 106q110 0 187 -46l-32 -51q-59 36 -156 36q-120 0 -196.5 -87t-76.5 -208q0 -119 71.5 -201.5t189.5 -82.5q47 0 89.5 13t65.5 33v100h64v-127zM420 -31
l-50 -160h-47l29 160h68z" />
    <glyph glyph-name="gcommaaccent" unicode="&#x123;" horiz-adv-x="457" 
d="M180 505l50 160h47l-29 -160h-68zM447 405h-107q34 -44 34 -96q0 -59 -39 -102t-97 -52v-67q18 0 44.5 -9t56.5 -26.5t51 -51t21 -76.5q0 -62 -50.5 -108.5t-105.5 -51.5v52q29 4 61 35t32 74q0 48 -39.5 82t-93.5 34t-93.5 -34t-39.5 -82t35.5 -78.5t55.5 -30.5v-52
q-27 2 -60.5 19.5t-63 55.5t-29.5 85q0 34 14 63t34.5 47t44 30.5t42.5 17.5t31 5v67q-56 10 -95 53.5t-39 100.5q0 37 15.5 67t37 47t39.5 26.5t29 10.5v-56q-7 -2 -20 -10.5t-27.5 -32t-14.5 -52.5q0 -43 30 -73t72 -30q41 0 71 29.5t30 70.5q0 38 -20 64.5t-39 32.5v57
q21 -2 44 -20l148 25v-60z" />
    <glyph glyph-name="Hcircumflex" unicode="&#x124;" horiz-adv-x="690" 
d="M600 327h-364v61h300v300h64v-361zM600 0h-64v246h64v-246zM155 0h-65v688h65v-688zM350 863l136 -105l-36 -42l-100 83l-100 -83l-36 42z" />
    <glyph glyph-name="hcircumflex" unicode="&#x125;" 
d="M427 0h-60v325q0 82 -80 82q-41 0 -65 -19v59q6 5 33 12t43 7q55 0 92 -32.5t37 -80.5v-353zM139 0h-59v721h59v-721zM246 758l-36 -43l-100 84l-100 -84l-36 43l136 105z" />
    <glyph glyph-name="Hbar" unicode="&#x126;" horiz-adv-x="690" 
d="M155 0h-65v507h-48v54h48v127h65v-127h381v127h64v-127h51v-54h-51v-180h-364v61h300v119h-381v-507zM600 0h-64v246h64v-246z" />
    <glyph glyph-name="hbar" unicode="&#x127;" 
d="M139 0h-59v551h-61v54h61v116h59v-116h107v-54h-107v-551zM427 0h-60v325q0 82 -80 82q-41 0 -65 -19v59q6 5 33 12t43 7q55 0 92 -32.5t37 -80.5v-353z" />
    <glyph glyph-name="Itilde" unicode="&#x128;" horiz-adv-x="244" 
d="M154 0h-64v688h64v-688zM267 805q-11 -28 -36 -54t-57 -26q-22 0 -57.5 26t-49.5 26q-36 0 -56 -45l-38 21q7 31 35.5 57t58.5 26q17 0 56 -27t51 -27q19 0 30 10.5t24 32.5z" />
    <glyph glyph-name="itilde" unicode="&#x129;" horiz-adv-x="250" 
d="M155 0h-60v460h60v-460zM270 634q-11 -28 -36 -54t-57 -26q-22 0 -57.5 26t-49.5 26q-36 0 -56 -45l-38 21q7 31 35.5 57t58.5 26q17 0 56 -27t51 -27q19 0 30 10.5t24 32.5z" />
    <glyph glyph-name="Imacron" unicode="&#x12a;" horiz-adv-x="244" 
d="M154 0h-64v688h64v-688zM229 752h-215v54h215v-54z" />
    <glyph glyph-name="imacron" unicode="&#x12b;" horiz-adv-x="250" 
d="M155 0h-60v460h60v-460zM232 551h-215v54h215v-54z" />
    <glyph glyph-name="Ibreve" unicode="&#x12c;" horiz-adv-x="244" 
d="M154 0h-64v688h64v-688zM121 776q28 0 51.5 14t33.5 28l9 14l40 -22q-5 -22 -42 -53.5t-92 -31.5t-91.5 31.5t-41.5 53.5l40 22q3 -6 10 -15.5t31 -25t52 -15.5z" />
    <glyph glyph-name="ibreve" unicode="&#x12d;" horiz-adv-x="250" 
d="M155 0h-60v460h60v-460zM126 606q28 0 51.5 14t32.5 28l10 14l40 -22q-5 -22 -42 -53.5t-92 -31.5t-91.5 31.5t-41.5 53.5l40 22q3 -6 10 -15.5t31 -25t52 -15.5z" />
    <glyph glyph-name="Iogonek" unicode="&#x12e;" horiz-adv-x="244" 
d="M170 -134l6 -45q-25 -7 -49 -7q-49 0 -72.5 23t-23.5 60q0 53 59 103v688h64v-688q-66 -51 -66 -102q0 -16 11.5 -26.5t31.5 -10.5q24 0 39 5z" />
    <glyph glyph-name="iogonek" unicode="&#x12f;" horiz-adv-x="250" 
d="M169 -134l6 -45q-25 -7 -49 -7q-49 0 -72.5 23t-23.5 60q0 56 64 107v456h61v-460q-68 -48 -68 -102q0 -16 11.5 -26.5t31.5 -10.5q24 0 39 5zM170 609q0 -19 -13 -32.5t-32 -13.5t-32 13.5t-13 32.5t13 32t32 13t32 -13t13 -32z" />
    <glyph glyph-name="Idotaccent" unicode="&#x130;" horiz-adv-x="244" 
d="M154 0h-64v688h64v-688zM167 780q0 -19 -13 -32t-32 -13t-32.5 13t-13.5 32t13.5 32t32.5 13t32 -13t13 -32z" />
    <glyph glyph-name="dotlessi" unicode="&#x131;" horiz-adv-x="250" 
d="M155 0h-60v460h60v-460z" />
    <glyph glyph-name="IJ" unicode="&#x132;" horiz-adv-x="480" 
d="M154 0h-64v688h64v-688zM390 28q0 -115 -63 -177.5t-173 -62.5v58q73 0 122 46t49 150v646h65v-660z" />
    <glyph glyph-name="ij" unicode="&#x133;" horiz-adv-x="477" 
d="M170 609q0 -19 -13 -32.5t-32 -13.5t-32 13.5t-13 32.5t13 32t32 13t32 -13t13 -32zM155 0h-61v460h61v-460zM397 609q0 -19 -13 -32.5t-32 -13.5t-32 13.5t-13 32.5t13 32t32 13t32 -13t13 -32zM381 4q0 -148 -132 -234l-34 42q106 72 106 207v441h60v-456z" />
    <glyph glyph-name="Jcircumflex" unicode="&#x134;" horiz-adv-x="244" 
d="M154 28q0 -115 -63 -177.5t-173 -62.5v58q73 0 122 46t49 150v646h65v-660zM121 863l136 -105l-36 -42l-100 83l-100 -83l-36 42z" />
    <glyph glyph-name="jcircumflex" unicode="&#x135;" horiz-adv-x="250" 
d="M154 4q0 -148 -132 -234l-34 42q106 72 106 207v441h60v-456zM260 579l-36 -43l-100 84l-100 -84l-36 43l136 105z" />
    <glyph glyph-name="Kcommaaccent" unicode="&#x136;" horiz-adv-x="574" 
d="M155 688v-688h-65v688h65zM166 367l320 328l53 -36l-333 -337zM554 33l-54 -39l-240 268l48 47zM354 -31l-50 -160h-47l29 160h68z" />
    <glyph glyph-name="kcommaaccent" unicode="&#x137;" horiz-adv-x="445" 
d="M414 428l-236 -206l-34 38l226 206zM140 0h-60v721h60v-721zM427 26l-51 -33l-147 171l41 36zM293 -31l-50 -160h-47l29 160h68z" />
    <glyph glyph-name="Lacute" unicode="&#x139;" horiz-adv-x="468" 
d="M154 142h-64v546h64v-546zM458 0h-368v60l368 1v-61zM249 825l-156 -110l-28 35l142 125z" />
    <glyph glyph-name="lacute" unicode="&#x13a;" horiz-adv-x="220" 
d="M238 848l-156 -110l-28 35l142 125zM140 0h-60v721h60v-721z" />
    <glyph glyph-name="Lcommaaccent" unicode="&#x13b;" horiz-adv-x="468" 
d="M154 142h-64v546h64v-546zM458 0h-368v60l368 1v-61zM329 -31l-50 -160h-47l29 160h68z" />
    <glyph glyph-name="lcommaaccent" unicode="&#x13c;" horiz-adv-x="220" 
d="M140 0h-60v721h60v-721zM154 -31l-50 -160h-47l29 160h68z" />
    <glyph glyph-name="Lcaron" unicode="&#x13d;" horiz-adv-x="468" 
d="M154 142h-64v546h64v-546zM458 0h-368v60l368 1v-61zM344 721l-50 -160h-47l29 160h68z" />
    <glyph glyph-name="lcaron" unicode="&#x13e;" horiz-adv-x="245" 
d="M140 0h-60v721h60v-721zM285 722l-50 -160h-47l29 160h68z" />
    <glyph glyph-name="Ldot" unicode="&#x13f;" horiz-adv-x="468" 
d="M154 142h-64v546h64v-546zM458 0h-368v60l368 1v-61zM408 333q0 -20 -14 -34t-34 -14t-34 14.5t-14 33.5q0 20 14 34t34 14t34 -14t14 -34z" />
    <glyph glyph-name="ldot" unicode="&#x140;" horiz-adv-x="330" 
d="M140 0h-60v721h60v-721zM319 333q0 -20 -14 -34t-34 -14q-19 0 -33.5 14.5t-14.5 33.5q0 20 14 34t34 14t34 -14t14 -34z" />
    <glyph glyph-name="Lslash" unicode="&#x141;" horiz-adv-x="473" 
d="M159 510l-64 -34v212h64v-178zM250 407l-227 -122v58l227 123v-59zM463 0h-368v232l64 34v-205h304v-61z" />
    <glyph glyph-name="lslash" unicode="&#x142;" horiz-adv-x="231" 
d="M140 509l-60 -34v246h60v-212zM231 407l-227 -122v58l227 123v-59zM140 0h-60v232l60 32v-264z" />
    <glyph glyph-name="Nacute" unicode="&#x143;" horiz-adv-x="741" 
d="M651 139l-65 93v456h65v-549zM168 688l481 -688h-79l-478 688h76zM155 0h-65v549l65 -94v-455zM499 825l-156 -110l-28 35l142 125z" />
    <glyph glyph-name="nacute" unicode="&#x144;" 
d="M427 0h-60v325q0 43 -22 63.5t-58 20.5q-32 0 -65 -18v58q28 17 68 17q69 0 103 -34t34 -85v-347zM140 0h-60v460h60v-460zM364 647l-145 -123l-32 32l131 138z" />
    <glyph glyph-name="Ncommaaccent" unicode="&#x145;" horiz-adv-x="741" 
d="M651 139l-65 93v456h65v-549zM168 688l481 -688h-79l-478 688h76zM155 0h-65v549l65 -94v-455zM403 -31l-50 -160h-47l29 160h68z" />
    <glyph glyph-name="ncommaaccent" unicode="&#x146;" 
d="M427 0h-60v325q0 43 -22 63.5t-58 20.5q-32 0 -65 -18v58q28 17 68 17q69 0 103 -34t34 -85v-347zM140 0h-60v460h60v-460zM298 -31l-50 -160h-47l29 160h68z" />
    <glyph glyph-name="Ncaron" unicode="&#x147;" horiz-adv-x="741" 
d="M651 139l-65 93v456h65v-549zM168 688l481 -688h-79l-478 688h76zM155 0h-65v549l65 -94v-455zM510 820l-136 -105l-136 105l36 42l100 -83l100 83z" />
    <glyph glyph-name="ncaron" unicode="&#x148;" 
d="M427 0h-60v325q0 43 -22 63.5t-58 20.5q-32 0 -65 -18v58q28 17 68 17q69 0 103 -34t34 -85v-347zM140 0h-60v460h60v-460zM345 684l36 -42l-136 -105l-136 105l36 42l100 -83z" />
    <glyph glyph-name="napostrophe" unicode="&#x149;" horiz-adv-x="505" 
d="M434 0h-60v325q0 43 -22 63.5t-58 20.5q-32 0 -65 -18v58q28 17 68 17q69 0 103 -34t34 -85v-347zM147 0h-60v460h60v-460zM-46 524l72 197h64l-83 -197h-53z" />
    <glyph glyph-name="Eng" unicode="&#x14a;" horiz-adv-x="741" 
d="M168 688l482 -660q0 -115 -63 -177.5t-173 -62.5v58q65 0 111.5 36.5t56.5 117.5l-490 688h76zM155 0h-65v549l65 -94v-455zM651 139l-65 93v456h65v-549z" />
    <glyph glyph-name="eng" unicode="&#x14b;" 
d="M427 4q0 -148 -132 -234l-34 42q102 70 106 193v320q0 43 -22 63.5t-58 20.5q-32 0 -65 -18v58q28 17 68 17q69 0 103 -34t34 -85v-343zM140 0h-60v460h60v-460z" />
    <glyph glyph-name="Omacron" unicode="&#x14c;" horiz-adv-x="770" 
d="M718 382h-65q0 31 -15 70.5t-45 81.5t-84.5 70.5t-122.5 28.5q-67 0 -121 -26.5t-84.5 -66.5t-46.5 -81.5t-16 -76.5h-66q0 35 12 74.5t38.5 82t64 77t95.5 56.5t126 22q69 0 126.5 -24t94 -60.5t62.5 -80t36.5 -81t10.5 -66.5zM718 300q0 -22 -8 -55t-31.5 -78
t-58.5 -82.5t-96 -64t-137 -26.5q-73 0 -133 24t-96 59.5t-61 79t-35 79.5t-10 64h66q0 -14 7 -39.5t26 -62t47.5 -68t77 -53.5t107.5 -22q58 0 106 19.5t77.5 49t50 64t28.5 63.5t8 49h65zM493 752h-215v54h215v-54z" />
    <glyph glyph-name="omacron" unicode="&#x14d;" horiz-adv-x="505" 
d="M470 230q0 -100 -58.5 -165t-115.5 -67v59q9 1 25 10.5t36.5 28t35 54t14.5 80.5q0 40 -12 73t-24.5 49.5t-34 30t-26 15.5t-14.5 5v59q13 0 32.5 -7.5t44.5 -25.5t46.5 -43t36 -66.5t14.5 -89.5zM214 -2q-65 4 -122 67.5t-57 163.5q0 49 15 90t37 67t47.5 44t46 25.5
t33.5 7.5v-60q-116 -39 -116 -174q0 -39 11 -70.5t26.5 -50t33 -31t29 -17t16.5 -4.5v-58zM363 551h-215v54h215v-54z" />
    <glyph glyph-name="Obreve" unicode="&#x14e;" horiz-adv-x="770" 
d="M718 382h-65q0 31 -15 70.5t-45 81.5t-84.5 70.5t-122.5 28.5q-67 0 -121 -26.5t-84.5 -66.5t-46.5 -81.5t-16 -76.5h-66q0 35 12 74.5t38.5 82t64 77t95.5 56.5t126 22q69 0 126.5 -24t94 -60.5t62.5 -80t36.5 -81t10.5 -66.5zM718 300q0 -22 -8 -55t-31.5 -78
t-58.5 -82.5t-96 -64t-137 -26.5q-73 0 -133 24t-96 59.5t-61 79t-35 79.5t-10 64h66q0 -14 7 -39.5t26 -62t47.5 -68t77 -53.5t107.5 -22q58 0 106 19.5t77.5 49t50 64t28.5 63.5t8 49h65zM385 776q28 0 51.5 14t33.5 28l9 14l40 -22q-5 -22 -42 -53.5t-92 -31.5
t-91.5 31.5t-41.5 53.5l40 22q3 -6 10 -15.5t31 -25t52 -15.5z" />
    <glyph glyph-name="obreve" unicode="&#x14f;" horiz-adv-x="505" 
d="M470 230q0 -100 -58.5 -165t-115.5 -67v59q9 1 25 10.5t36.5 28t35 54t14.5 80.5q0 40 -12 73t-24.5 49.5t-34 30t-26 15.5t-14.5 5v59q13 0 32.5 -7.5t44.5 -25.5t46.5 -43t36 -66.5t14.5 -89.5zM214 -2q-65 4 -122 67.5t-57 163.5q0 49 15 90t37 67t47.5 44t46 25.5
t33.5 7.5v-60q-116 -39 -116 -174q0 -39 11 -70.5t26.5 -50t33 -31t29 -17t16.5 -4.5v-58zM254 606q28 0 51.5 14t32.5 28l10 14l40 -22q-5 -22 -42 -53.5t-92 -31.5t-91.5 31.5t-41.5 53.5l40 22q3 -6 10 -15.5t31 -25t52 -15.5z" />
    <glyph glyph-name="Ohungarumlaut" unicode="&#x150;" horiz-adv-x="770" 
d="M718 382h-65q0 31 -15 70.5t-45 81.5t-84.5 70.5t-122.5 28.5q-67 0 -121 -26.5t-84.5 -66.5t-46.5 -81.5t-16 -76.5h-66q0 35 12 74.5t38.5 82t64 77t95.5 56.5t126 22q69 0 126.5 -24t94 -60.5t62.5 -80t36.5 -81t10.5 -66.5zM718 300q0 -22 -8 -55t-31.5 -78
t-58.5 -82.5t-96 -64t-137 -26.5q-73 0 -133 24t-96 59.5t-61 79t-35 79.5t-10 64h66q0 -14 7 -39.5t26 -62t47.5 -68t77 -53.5t107.5 -22q58 0 106 19.5t77.5 49t50 64t28.5 63.5t8 49h65zM443 825l-156 -110l-28 35l142 125zM622 825l-156 -110l-28 35l142 125z" />
    <glyph glyph-name="ohungarumlaut" unicode="&#x151;" horiz-adv-x="505" 
d="M470 230q0 -100 -58.5 -165t-115.5 -67v59q9 1 25 10.5t36.5 28t35 54t14.5 80.5q0 40 -12 73t-24.5 49.5t-34 30t-26 15.5t-14.5 5v59q13 0 32.5 -7.5t44.5 -25.5t46.5 -43t36 -66.5t14.5 -89.5zM214 -2q-65 4 -122 67.5t-57 163.5q0 49 15 90t37 67t47.5 44t46 25.5
t33.5 7.5v-60q-116 -39 -116 -174q0 -39 11 -70.5t26.5 -50t33 -31t29 -17t16.5 -4.5v-58zM304 674l-145 -123l-32 32l131 137zM478 674l-145 -123l-32 32l132 137z" />
    <glyph glyph-name="OE" unicode="&#x152;" horiz-adv-x="847" 
d="M800 627h-214v61h214v-61zM778 323h-192v61h192v-61zM800 0h-214v60h214v-60zM504 0h-51q-33 -6 -68 -6q-72 0 -131.5 23.5t-95.5 59t-61 78.5t-35 79.5t-10 65.5h66q0 -16 7.5 -42.5t27 -62.5t48 -66.5t76 -52t105.5 -21.5q27 0 57 5v568q-28 5 -54 5
q-61 0 -110.5 -21.5t-77.5 -52t-47 -67.5t-25.5 -64.5t-6.5 -45.5h-66q0 24 8.5 59t33 80.5t60 83t96.5 63.5t136 26q34 0 65 -6h53v-688z" />
    <glyph glyph-name="oe" unicode="&#x153;" horiz-adv-x="805" 
d="M775 229l-227 -1v55h165q0 52 -28 89t-79 37q-70 0 -105.5 -53.5t-35.5 -125.5q0 -77 38 -127t115 -50q67 0 114 33l8 -13l14 -26l8 -13q-69 -40 -148 -40q-127 0 -182 107q-27 -47 -67 -74.5t-74 -28.5v59q9 1 25 10.5t36.5 28t35 54t14.5 80.5q0 40 -12 73t-24.5 49.5
t-34 30t-26 15.5t-14.5 5v59q26 0 69.5 -27t72.5 -76q53 107 174 107q86 0 127 -55.5t41 -145.5v-36zM209 -2q-65 4 -122 67.5t-57 163.5q0 49 15 90t37 67t47.5 44t46 25.5t33.5 7.5v-60q-116 -39 -116 -174q0 -39 11 -70.5t26.5 -50t33 -31t29 -17t16.5 -4.5v-58z" />
    <glyph glyph-name="Racute" unicode="&#x154;" horiz-adv-x="512" 
d="M457 518q0 -96 -66 -149.5t-149 -56.5h-6v61l5 1q8 0 18.5 1t36 9t44 21.5t34 43.5t15.5 70q0 35 -13.5 58.5t-38 33.5t-46 13.5t-50.5 3.5h-5v60h20q201 0 201 -170zM492 21l-61 -30l-157 242l66 12zM155 0h-65v688h65v-688zM355 825l-156 -110l-28 35l142 125z" />
    <glyph glyph-name="racute" unicode="&#x155;" horiz-adv-x="332" 
d="M337 450l-25 -59q-28 14 -58 14q-20 0 -27 -7v60q17 8 36 8q35 0 74 -16zM145 0h-60v460h60v-460zM307 647l-145 -123l-32 32l131 138z" />
    <glyph glyph-name="Rcommaaccent" unicode="&#x156;" horiz-adv-x="512" 
d="M457 518q0 -96 -66 -149.5t-149 -56.5h-6v61l5 1q8 0 18.5 1t36 9t44 21.5t34 43.5t15.5 70q0 35 -13.5 58.5t-38 33.5t-46 13.5t-50.5 3.5h-5v60h20q201 0 201 -170zM492 21l-61 -30l-157 242l66 12zM155 0h-65v688h65v-688zM328 -31l-50 -160h-47l29 160h68z" />
    <glyph glyph-name="rcommaaccent" unicode="&#x157;" horiz-adv-x="332" 
d="M337 450l-25 -59q-28 14 -58 14q-20 0 -27 -7v60q17 8 36 8q35 0 74 -16zM145 0h-60v460h60v-460zM157 -31l-50 -160h-47l29 160h68z" />
    <glyph glyph-name="Rcaron" unicode="&#x158;" horiz-adv-x="512" 
d="M457 518q0 -96 -66 -149.5t-149 -56.5h-6v61l5 1q8 0 18.5 1t36 9t44 21.5t34 43.5t15.5 70q0 35 -13.5 58.5t-38 33.5t-46 13.5t-50.5 3.5h-5v60h20q201 0 201 -170zM492 21l-61 -30l-157 242l66 12zM155 0h-65v688h65v-688zM375 820l-136 -105l-136 105l36 42l100 -83
l100 83z" />
    <glyph glyph-name="rcaron" unicode="&#x159;" horiz-adv-x="332" 
d="M337 450l-25 -59q-28 14 -58 14q-20 0 -27 -7v60q17 8 36 8q35 0 74 -16zM145 0h-60v460h60v-460zM284 684l36 -42l-136 -105l-136 105l36 42l100 -83z" />
    <glyph glyph-name="Sacute" unicode="&#x15a;" horiz-adv-x="473" 
d="M412 642l-36 -51q-42 28 -67 35t-66 7q-39 0 -78 -28t-39 -81q0 -28 8 -49t26 -36t27 -21t29 -16l-31 -53q-27 13 -45.5 25t-38.5 33t-30 51.5t-10 70.5q0 69 55.5 117t128.5 48q46 0 80.5 -10t86.5 -42zM423 180q0 -78 -57.5 -132t-139.5 -54q-108 0 -176 69l40 46
q23 -26 61 -40.5t70 -14.5q57 0 97 34t40 88q0 50 -23.5 80.5t-75.5 55.5l32 54q64 -30 98 -70t34 -116zM366 825l-156 -110l-28 35l142 125z" />
    <glyph glyph-name="sacute" unicode="&#x15b;" horiz-adv-x="350" 
d="M294 433l-28 -49q-33 25 -85 25q-30 0 -51 -15.5t-21 -41.5q0 -42 44 -66l-32 -49q-73 40 -73 114q0 53 41.5 84t90.5 31q68 0 114 -33zM308 121q0 -59 -43.5 -93t-96.5 -34q-74 0 -123 34l29 51q40 -29 92 -29q34 0 57 19.5t23 51.5q0 41 -53 76l33 49l6 -4
q6 -3 12.5 -8t15.5 -12t17 -17.5t15.5 -22.5t11.5 -28t4 -33zM296 647l-145 -123l-32 32l131 138z" />
    <glyph glyph-name="Scircumflex" unicode="&#x15c;" horiz-adv-x="473" 
d="M412 642l-36 -51q-42 28 -67 35t-66 7q-39 0 -78 -28t-39 -81q0 -28 8 -49t26 -36t27 -21t29 -16l-31 -53q-27 13 -45.5 25t-38.5 33t-30 51.5t-10 70.5q0 69 55.5 117t128.5 48q46 0 80.5 -10t86.5 -42zM423 180q0 -78 -57.5 -132t-139.5 -54q-108 0 -176 69l40 46
q23 -26 61 -40.5t70 -14.5q57 0 97 34t40 88q0 50 -23.5 80.5t-75.5 55.5l32 54q64 -30 98 -70t34 -116zM238 863l136 -105l-36 -42l-100 83l-100 -83l-36 42z" />
    <glyph glyph-name="scircumflex" unicode="&#x15d;" horiz-adv-x="350" 
d="M294 433l-28 -49q-33 25 -85 25q-30 0 -51 -15.5t-21 -41.5q0 -42 44 -66l-32 -49q-73 40 -73 114q0 53 41.5 84t90.5 31q68 0 114 -33zM308 121q0 -59 -43.5 -93t-96.5 -34q-74 0 -123 34l29 51q40 -29 92 -29q34 0 57 19.5t23 51.5q0 41 -53 76l33 49l6 -4
q6 -3 12.5 -8t15.5 -12t17 -17.5t15.5 -22.5t11.5 -28t4 -33zM317 579l-36 -43l-100 84l-100 -84l-36 43l136 105z" />
    <glyph glyph-name="Scedilla" unicode="&#x15e;" horiz-adv-x="473" 
d="M285 -127q0 -34 -26 -60t-66 -39l-23 42q32 15 43.5 27.5t11.5 31.5q0 29 -37 66l22 53q-96 4 -160 69l40 46q23 -26 61 -40.5t70 -14.5q57 0 97 34t40 88q0 50 -23.5 80.5t-75.5 55.5l32 54q64 -30 98 -70t34 -116q0 -68 -45 -119t-113 -63l-18 -43q38 -35 38 -82z
M412 642l-36 -51q-42 28 -67 35t-66 7q-39 0 -78 -28t-39 -81q0 -28 8 -49t26 -36t27 -21t29 -16l-31 -53q-27 13 -45.5 25t-38.5 33t-30 51.5t-10 70.5q0 69 55.5 117t128.5 48q46 0 80.5 -10t86.5 -42z" />
    <glyph glyph-name="scedilla" unicode="&#x15f;" horiz-adv-x="350" 
d="M214 -127q0 -34 -26 -60t-66 -39l-23 42q32 15 43.5 27.5t11.5 31.5q0 29 -37 66l23 54q-56 6 -95 33l29 51q40 -29 92 -29q34 0 57 19.5t23 51.5q0 41 -53 76l33 49l6 -4q6 -3 12.5 -8t15.5 -12t17 -17.5t15.5 -22.5t11.5 -28t4 -33q0 -51 -34 -84.5t-81 -40.5l-17 -41
q38 -35 38 -82zM294 433l-28 -49q-33 25 -85 25q-30 0 -51 -15.5t-21 -41.5q0 -42 44 -66l-32 -49q-73 40 -73 114q0 53 41.5 84t90.5 31q68 0 114 -33z" />
    <glyph glyph-name="Scaron" unicode="&#x160;" horiz-adv-x="473" 
d="M412 642l-36 -51q-42 28 -67 35t-66 7q-39 0 -78 -28t-39 -81q0 -28 8 -49t26 -36t27 -21t29 -16l-31 -53q-27 13 -45.5 25t-38.5 33t-30 51.5t-10 70.5q0 69 55.5 117t128.5 48q46 0 80.5 -10t86.5 -42zM423 180q0 -78 -57.5 -132t-139.5 -54q-108 0 -176 69l40 46
q23 -26 61 -40.5t70 -14.5q57 0 97 34t40 88q0 50 -23.5 80.5t-75.5 55.5l32 54q64 -30 98 -70t34 -116zM385 820l-136 -105l-136 105l36 42l100 -83l100 83z" />
    <glyph glyph-name="scaron" unicode="&#x161;" horiz-adv-x="350" 
d="M294 433l-28 -49q-33 25 -85 25q-30 0 -51 -15.5t-21 -41.5q0 -42 44 -66l-32 -49q-73 40 -73 114q0 53 41.5 84t90.5 31q68 0 114 -33zM308 121q0 -59 -43.5 -93t-96.5 -34q-74 0 -123 34l29 51q40 -29 92 -29q34 0 57 19.5t23 51.5q0 41 -53 76l33 49l6 -4
q6 -3 12.5 -8t15.5 -12t17 -17.5t15.5 -22.5t11.5 -28t4 -33zM278 684l36 -42l-136 -105l-136 105l36 42l100 -83z" />
    <glyph glyph-name="Tcommaaccent" unicode="&#x162;" 
d="M502 627h-507v61h507v-61zM283 0h-65v546h65v-546zM292 -31l-50 -160h-47l29 160h68z" />
    <glyph glyph-name="tcommaaccent" unicode="&#x163;" horiz-adv-x="311" 
d="M280 404h-260v56h79v86h60v-86h121v-56zM296 18q-34 -24 -91 -24q-54 0 -79.5 29.5t-25.5 90.5v208h60v-198q0 -74 48 -74q17 0 33.5 4.5t24.5 9.5l7 4zM240 -31l-50 -160h-47l29 160h68z" />
    <glyph glyph-name="Tcaron" unicode="&#x164;" 
d="M502 627h-507v61h507v-61zM283 0h-65v546h65v-546zM386 820l-136 -105l-136 105l36 42l100 -83l100 83z" />
    <glyph glyph-name="tcaron" unicode="&#x165;" horiz-adv-x="311" 
d="M285 404h-260v56h79v86h60v-86h121v-56zM301 18q-34 -24 -91 -24q-54 0 -79.5 29.5t-25.5 90.5v208h60v-198q0 -74 48 -74q17 0 33.5 4.5t23.5 9.5l8 4zM315 722l-50 -160h-47l29 160h68z" />
    <glyph glyph-name="Tbar" unicode="&#x166;" 
d="M283 0h-65v398h-153v54h153v94h65v-94h153v-54h-153v-398zM502 627h-507v61h507v-61z" />
    <glyph glyph-name="tbar" unicode="&#x167;" horiz-adv-x="312" 
d="M247 282h-81v-158q0 -74 48 -74q17 0 33.5 4.5t24.5 9.5l7 4l22 -51q-35 -23 -90 -23q-54 0 -79.5 29.5t-25.5 90.5v168h-81v54h222v-54zM286 404h-260v56h79v86h60v-86h121v-56z" />
    <glyph glyph-name="Utilde" unicode="&#x168;" horiz-adv-x="660" 
d="M585 221q0 -53 -20.5 -97t-53 -70t-68.5 -41t-71 -17v61q26 1 50 10.5t47 29.5t37 56t14 84v451h65v-467zM290 -4q-93 10 -154 67.5t-61 155.5v469h65v-459q0 -75 42.5 -117t107.5 -54v-62zM478 805q-11 -28 -36 -54t-57 -26q-22 0 -57.5 26t-49.5 26q-36 0 -56 -45
l-38 21q7 31 35.5 57t58.5 26q17 0 56 -27t51 -27q19 0 30 10.5t24 32.5z" />
    <glyph glyph-name="utilde" unicode="&#x169;" horiz-adv-x="492" 
d="M412 0h-60v460h60v-460zM209 51q39 0 61 16v-58q-38 -15 -64 -15q-68 0 -102 34t-34 85v347h60v-325q0 -44 22 -64t57 -20zM392 634q-11 -28 -36 -54t-57 -26q-22 0 -57.5 26t-49.5 26q-36 0 -56 -45l-38 21q7 31 35.5 57t58.5 26q17 0 56 -27t51 -27q19 0 30 10.5
t24 32.5z" />
    <glyph glyph-name="Umacron" unicode="&#x16a;" horiz-adv-x="660" 
d="M585 221q0 -53 -20.5 -97t-53 -70t-68.5 -41t-71 -17v61q26 1 50 10.5t47 29.5t37 56t14 84v451h65v-467zM290 -4q-93 10 -154 67.5t-61 155.5v469h65v-459q0 -75 42.5 -117t107.5 -54v-62zM438 752h-215v54h215v-54z" />
    <glyph glyph-name="umacron" unicode="&#x16b;" horiz-adv-x="492" 
d="M412 0h-60v460h60v-460zM209 51q39 0 61 16v-58q-38 -15 -64 -15q-68 0 -102 34t-34 85v347h60v-325q0 -44 22 -64t57 -20zM353 551h-215v54h215v-54z" />
    <glyph glyph-name="Ubreve" unicode="&#x16c;" horiz-adv-x="660" 
d="M585 221q0 -53 -20.5 -97t-53 -70t-68.5 -41t-71 -17v61q26 1 50 10.5t47 29.5t37 56t14 84v451h65v-467zM290 -4q-93 10 -154 67.5t-61 155.5v469h65v-459q0 -75 42.5 -117t107.5 -54v-62zM331 776q28 0 51.5 14t33.5 28l9 14l40 -22q-5 -22 -42 -53.5t-92 -31.5
t-91.5 31.5t-41.5 53.5l40 22q3 -6 10 -15.5t31 -25t52 -15.5z" />
    <glyph glyph-name="ubreve" unicode="&#x16d;" horiz-adv-x="492" 
d="M412 0h-60v460h60v-460zM209 51q39 0 61 16v-58q-38 -15 -64 -15q-68 0 -102 34t-34 85v347h60v-325q0 -44 22 -64t57 -20zM247 606q28 0 51.5 14t33.5 28l9 14l40 -22q-5 -22 -42 -53.5t-92 -31.5t-91.5 31.5t-41.5 53.5l40 22q3 -6 10 -15.5t31 -25t52 -15.5z" />
    <glyph glyph-name="Uring" unicode="&#x16e;" horiz-adv-x="660" 
d="M290 -4q-93 10 -154 67.5t-61 155.5v469h65v-459q0 -75 42.5 -117t107.5 -54v-62zM585 221q0 -53 -20.5 -97t-53 -70t-68.5 -41t-71 -17v61q26 1 50 10.5t47 29.5t37 56t14 84v451h65v-467zM425 771q0 -33 -19 -56t-50 -31v42q23 16 23 45q0 21 -14 36.5t-35 15.5
t-35 -15.5t-14 -36.5q0 -28 22 -43v-44q-31 8 -49.5 31.5t-18.5 55.5q0 40 27 64.5t68 24.5t68 -24.5t27 -64.5z" />
    <glyph glyph-name="uring" unicode="&#x16f;" horiz-adv-x="492" 
d="M209 51q39 0 61 16v-58q-38 -15 -64 -15q-68 0 -102 34t-34 85v347h60v-325q0 -44 22 -64t57 -20zM412 0h-60v460h60v-460zM342 611q0 -33 -19 -56t-50 -31v42q23 16 23 45q0 21 -14 36.5t-35 15.5t-35 -15.5t-14 -36.5q0 -28 22 -43v-44q-31 8 -49.5 31.5t-18.5 55.5
q0 40 27 64.5t68 24.5t68 -24.5t27 -64.5z" />
    <glyph glyph-name="Uhungarumlaut" unicode="&#x170;" horiz-adv-x="660" 
d="M585 221q0 -53 -20.5 -97t-53 -70t-68.5 -41t-71 -17v61q26 1 50 10.5t47 29.5t37 56t14 84v451h65v-467zM290 -4q-93 10 -154 67.5t-61 155.5v469h65v-459q0 -75 42.5 -117t107.5 -54v-62zM382 825l-156 -110l-28 35l142 125zM561 825l-156 -110l-28 35l142 125z" />
    <glyph glyph-name="uhungarumlaut" unicode="&#x171;" horiz-adv-x="492" 
d="M412 0h-60v460h60v-460zM209 51q39 0 61 16v-58q-38 -15 -64 -15q-68 0 -102 34t-34 85v347h60v-325q0 -44 22 -64t57 -20zM293 674l-145 -123l-32 32l131 137zM467 674l-145 -123l-32 32l132 137z" />
    <glyph glyph-name="Uogonek" unicode="&#x172;" horiz-adv-x="660" 
d="M409 -134l6 -45q-25 -7 -49 -7q-49 0 -72.5 23t-23.5 60q0 43 35 81h63q-41 -41 -41 -80q0 -16 11.5 -26.5t31.5 -10.5q24 0 39 5zM585 221q0 -53 -20.5 -97t-53 -70t-68.5 -41t-71 -17v61q26 1 50 10.5t47 29.5t37 56t14 84v451h65v-467zM290 -4q-93 10 -154 67.5
t-61 155.5v469h65v-459q0 -75 42.5 -117t107.5 -54v-62z" />
    <glyph glyph-name="uogonek" unicode="&#x173;" horiz-adv-x="492" 
d="M429 -134l6 -45q-25 -7 -49 -7q-49 0 -72.5 23t-23.5 60q0 56 62 103v460h60v-460q-65 -49 -65 -102q0 -16 11.5 -26.5t31.5 -10.5q24 0 39 5zM209 51q39 0 61 16v-58q-38 -15 -64 -15q-68 0 -102 34t-34 85v347h60v-325q0 -44 22 -64t57 -20z" />
    <glyph glyph-name="Wcircumflex" unicode="&#x174;" horiz-adv-x="889" 
d="M869 678l-157 -509l-30 98l128 427zM669 30l-9 -30h-46l-170 562l-113 -386l-31 98l123 414h45zM289 35l-10 -35h-46l-213 676l64 17zM445 863l136 -105l-36 -42l-100 83l-100 -83l-36 42z" />
    <glyph glyph-name="wcircumflex" unicode="&#x175;" horiz-adv-x="711" 
d="M696 448l-110 -324l-30 86l86 255zM541 0h-60l-125 370l-84 -246l-30 86l83 250h62zM227 0h-59l-153 446l55 19zM491 579l-36 -43l-100 84l-100 -84l-36 43l136 105z" />
    <glyph glyph-name="Ycircumflex" unicode="&#x176;" horiz-adv-x="520" 
d="M520 660l-228 -332v-328h-64v328l33 65l207 300zM208 470l-33 -65l-175 257l53 31zM260 863l136 -105l-36 -42l-100 83l-100 -83l-36 42z" />
    <glyph glyph-name="ycircumflex" unicode="&#x177;" horiz-adv-x="451" 
d="M186 206l-31 -78l-138 315l56 23zM436 446l-230 -563q-12 -28 -30.5 -52t-31.5 -34l-13 -10q-6 -4 -16.5 -9t-41 -12t-58.5 -3v53q20 -2 40 2t30 9l10 5q33 19 52 60l235 574zM361 579l-36 -43l-100 84l-100 -84l-36 43l136 105z" />
    <glyph glyph-name="Ydieresis" unicode="&#x178;" horiz-adv-x="540" 
d="M540 660l-228 -332v-328h-64v328l33 65l207 300zM228 470l-33 -65l-175 257l53 31zM402 780q0 -19 -13 -32t-32 -13t-32.5 13t-13.5 32t13.5 32t32.5 13t32 -13t13 -32zM245 780q0 -19 -13 -32t-32 -13t-32 13t-13 32t13 32t32 13t32 -13t13 -32z" />
    <glyph glyph-name="Zacute" unicode="&#x179;" horiz-adv-x="566" 
d="M520 622h-473v60h460zM461 539l-281 -394h-79l282 394h78zM524 0h-463l-19 60h482v-60zM395 825l-156 -110l-28 35l142 125z" />
    <glyph glyph-name="zacute" unicode="&#x17a;" horiz-adv-x="396" 
d="M352 405h-312v55h302zM345 0h-296l-24 42l198 281h71l-189 -267h240v-56zM321 647l-145 -123l-32 32l131 138z" />
    <glyph glyph-name="Zdotaccent" unicode="&#x17b;" horiz-adv-x="566" 
d="M520 622h-473v60h460zM461 539l-281 -394h-79l282 394h78zM524 0h-463l-19 60h482v-60zM327 780q0 -19 -13 -32t-32 -13t-32.5 13t-13.5 32t13.5 32t32.5 13t32 -13t13 -32z" />
    <glyph glyph-name="zdotaccent" unicode="&#x17c;" horiz-adv-x="396" 
d="M352 405h-312v55h302zM345 0h-296l-24 42l198 281h71l-189 -267h240v-56zM254 609q0 -19 -13 -32.5t-32 -13.5t-32 13.5t-13 32.5t13 32t32 13t32 -13t13 -32z" />
    <glyph glyph-name="Zcaron" unicode="&#x17d;" horiz-adv-x="566" 
d="M520 622h-473v60h460zM461 539l-281 -394h-79l282 394h78zM524 0h-463l-19 60h482v-60zM424 820l-136 -105l-136 105l36 42l100 -83l100 83z" />
    <glyph glyph-name="zcaron" unicode="&#x17e;" horiz-adv-x="396" 
d="M352 405h-312v55h302zM345 0h-296l-24 42l198 281h71l-189 -267h240v-56zM295 684l36 -42l-136 -105l-136 105l36 42l100 -83z" />
    <glyph glyph-name="florin" unicode="&#x192;" horiz-adv-x="340" 
d="M19 -6q-47 0 -79 16l20 56q21 -15 43 -15q42 0 63 17.5t26 55.5l9 99h-77v55h249v-55h-112l-8 -93q-6 -61 -40 -98.5t-94 -37.5zM242 417q-20 0 -40 -13t-27 -45h-61q8 51 43.5 82.5t87.5 31.5q47 0 81 -16l-21 -56q-24 16 -63 16z" />
    <glyph glyph-name="uni01D3" unicode="&#x1d3;" horiz-adv-x="660" 
d="M585 221q0 -53 -20.5 -97t-53 -70t-68.5 -41t-71 -17v61q26 1 50 10.5t47 29.5t37 56t14 84v451h65v-467zM290 -4q-93 10 -154 67.5t-61 155.5v469h65v-459q0 -75 42.5 -117t107.5 -54v-62zM473 820l-136 -105l-136 105l36 42l100 -83l100 83z" />
    <glyph glyph-name="uni01D4" unicode="&#x1d4;" horiz-adv-x="492" 
d="M412 0h-60v460h60v-460zM209 51q39 0 61 16v-58q-38 -15 -64 -15q-68 0 -102 34t-34 85v347h60v-325q0 -44 22 -64t57 -20zM340 684l36 -42l-136 -105l-136 105l36 42l100 -83z" />
    <glyph glyph-name="AEmacron" unicode="&#x1e2;" horiz-adv-x="828" 
d="M802 627h-215v61h215v-61zM780 323h-193v61h193v-61zM801 0h-214v60h214v-60zM505 0h-64v225h-121l37 61h84v289l-364 -584l-57 22l421 675h64v-688zM715 752h-215v54h215v-54z" />
    <glyph glyph-name="aemacron" unicode="&#x1e3;" horiz-adv-x="685" 
d="M656 229l-227 -1v55h164q0 53 -27.5 89.5t-78.5 36.5q-67 0 -104 -53t-37 -127q0 -79 40 -129.5t112 -50.5q60 0 115 37l7 -13q8 -13 15 -26l7 -13q-67 -40 -147 -40q-57 0 -95 20t-74 61q-88 -81 -172 -81q-57 0 -88 32.5t-31 81.5q0 27 10 49t21 35t37.5 27t39.5 19
t47 17q3 1 5.5 2t5.5 2h3v-51l-3 -1q-105 -36 -105 -95q0 -63 67 -63q50 0 123 53v224q0 83 -85 83q-51 0 -111 -50l-35 43q1 1 11 9.5t17 13.5t21.5 14t27.5 14t31.5 9t37.5 4q103 0 134 -72q56 72 153 72q86 0 127 -55.5t41 -145.5v-36zM439 551h-215v54h215v-54z" />
    <glyph glyph-name="AEacute" unicode="&#x1fc;" horiz-adv-x="828" 
d="M802 627h-215v61h215v-61zM780 323h-193v61h193v-61zM801 0h-214v60h214v-60zM505 0h-64v225h-121l37 61h84v289l-364 -584l-57 22l421 675h64v-688zM738 825l-156 -110l-28 35l142 125z" />
    <glyph glyph-name="aeacute" unicode="&#x1fd;" horiz-adv-x="685" 
d="M656 229l-227 -1v55h164q0 53 -27.5 89.5t-78.5 36.5q-67 0 -104 -53t-37 -127q0 -79 40 -129.5t112 -50.5q60 0 115 37l7 -13q8 -13 15 -26l7 -13q-67 -40 -147 -40q-57 0 -95 20t-74 61q-88 -81 -172 -81q-57 0 -88 32.5t-31 81.5q0 27 10 49t21 35t37.5 27t39.5 19
t47 17q3 1 5.5 2t5.5 2h3v-51l-3 -1q-105 -36 -105 -95q0 -63 67 -63q50 0 123 53v224q0 83 -85 83q-51 0 -111 -50l-35 43q1 1 11 9.5t17 13.5t21.5 14t27.5 14t31.5 9t37.5 4q103 0 134 -72q56 72 153 72q86 0 127 -55.5t41 -145.5v-36zM458 647l-145 -123l-32 32l131 138
z" />
    <glyph glyph-name="Oslashacute" unicode="&#x1fe;" horiz-adv-x="770" 
d="M717 653l-625 -658l-44 39l624 659zM720 345q0 -156 -94 -253.5t-240 -97.5q-81 0 -152 33l45 48q46 -20 104 -20q123 0 197.5 84t74.5 205q0 57 -17 108l48 50q34 -73 34 -157zM387 694q76 0 144 -33l-43 -46q-45 18 -102 18q-123 0 -196.5 -83.5t-73.5 -205.5
q0 -52 17 -103q-51 -55 -52 -55q-31 73 -31 158q0 150 93 250t244 100zM499 825l-156 -110l-28 35l142 125z" />
    <glyph glyph-name="oslashacute" unicode="&#x1ff;" horiz-adv-x="505" 
d="M470 230q0 -100 -58.5 -165t-115.5 -67v59q9 1 25 10.5t36.5 28t35 54t14.5 80.5q0 69 -32 115l-217 -259q16 -14 33 -22t23 -8v-58q-49 3 -96 41l-38 -45l-38 32l42 50q-49 64 -49 153q0 49 15 90t37 67t47.5 44t46 25.5t33.5 7.5v-60q-116 -39 -116 -174q0 -62 27 -104
l215 256q-8 6 -16 10.5t-13.5 6.5t-10.5 4l-4 1v59q37 0 82 -36l47 57l39 -32l-50 -59q56 -67 56 -162zM367 647l-145 -123l-32 32l131 138z" />
    <glyph glyph-name="Scommaaccent" unicode="&#x218;" horiz-adv-x="473" 
d="M412 642l-36 -51q-42 28 -67 35t-66 7q-39 0 -78 -28t-39 -81q0 -28 8 -49t26 -36t27 -21t29 -16l-31 -53q-27 13 -45.5 25t-38.5 33t-30 51.5t-10 70.5q0 69 55.5 117t128.5 48q46 0 80.5 -10t86.5 -42zM423 180q0 -78 -57.5 -132t-139.5 -54q-108 0 -176 69l40 46
q23 -26 61 -40.5t70 -14.5q57 0 97 34t40 88q0 50 -23.5 80.5t-75.5 55.5l32 54q64 -30 98 -70t34 -116zM274 -31l-50 -160h-47l29 160h68z" />
    <glyph glyph-name="scommaaccent" unicode="&#x219;" horiz-adv-x="350" 
d="M294 433l-28 -49q-33 25 -85 25q-30 0 -51 -15.5t-21 -41.5q0 -42 44 -66l-32 -49q-73 40 -73 114q0 53 41.5 84t90.5 31q68 0 114 -33zM308 121q0 -59 -43.5 -93t-96.5 -34q-74 0 -123 34l29 51q40 -29 92 -29q34 0 57 19.5t23 51.5q0 41 -53 76l33 49l6 -4
q6 -3 12.5 -8t15.5 -12t17 -17.5t15.5 -22.5t11.5 -28t4 -33zM203 -31l-50 -160h-47l29 160h68z" />
    <glyph glyph-name="uni021A" unicode="&#x21a;" 
d="M502 627h-507v61h507v-61zM283 0h-65v546h65v-546zM292 -31l-50 -160h-47l29 160h68z" />
    <glyph glyph-name="uni021B" unicode="&#x21b;" horiz-adv-x="311" 
d="M241 -31l-50 -160h-47l29 160h68zM280 404h-260v56h79v86h60v-86h121v-56zM296 18q-34 -24 -91 -24q-54 0 -79.5 29.5t-25.5 90.5v208h60v-198q0 -74 48 -74q17 0 33.5 4.5t24.5 9.5l7 4z" />
    <glyph glyph-name="Ymacron" unicode="&#x232;" horiz-adv-x="520" 
d="M520 660l-228 -332v-328h-64v328l33 65l207 300zM208 470l-33 -65l-175 257l53 31zM366 752h-215v54h215v-54z" />
    <glyph glyph-name="ymacron" unicode="&#x233;" horiz-adv-x="451" 
d="M186 206l-31 -78l-138 315l56 23zM436 446l-230 -563q-12 -28 -30.5 -52t-31.5 -34l-13 -10q-6 -4 -16.5 -9t-41 -12t-58.5 -3v53q20 -2 40 2t30 9l10 5q33 19 52 60l235 574zM333 551h-215v54h215v-54z" />
    <glyph glyph-name="dotlessj" unicode="&#x237;" horiz-adv-x="250" 
d="M154 4q0 -148 -132 -234l-34 42q106 72 106 207v441h60v-456z" />
    <glyph glyph-name="circumflex" unicode="&#x2c6;" horiz-adv-x="316" 
d="M294 579l-36 -43l-100 84l-100 -84l-36 43l136 105z" />
    <glyph glyph-name="caron" unicode="&#x2c7;" horiz-adv-x="322" 
d="M258 684l36 -42l-136 -105l-136 105l36 42l100 -83z" />
    <glyph glyph-name="breve" unicode="&#x2d8;" horiz-adv-x="297" 
d="M150 606q28 0 51.5 14t32.5 28l10 14l40 -22q-5 -22 -42 -53.5t-92 -31.5t-91.5 31.5t-41.5 53.5l40 22q3 -6 10 -15.5t31 -25t52 -15.5z" />
    <glyph glyph-name="dotaccent" unicode="&#x2d9;" horiz-adv-x="250" 
d="M170 609q0 -19 -13 -32.5t-32 -13.5t-32 13.5t-13 32.5t13 32t32 13t32 -13t13 -32z" />
    <glyph glyph-name="ring" unicode="&#x2da;" horiz-adv-x="244" 
d="M217 611q0 -33 -19 -56t-50 -31v42q23 16 23 45q0 21 -14 36.5t-35 15.5t-35 -15.5t-14 -36.5q0 -28 22 -43v-44q-31 8 -49.5 31.5t-18.5 55.5q0 40 27 64.5t68 24.5t68 -24.5t27 -64.5z" />
    <glyph glyph-name="ogonek" unicode="&#x2db;" horiz-adv-x="229" 
d="M183 -134l6 -45q-25 -7 -49 -7q-49 0 -72.5 23t-23.5 60q0 81 126 147l24 -26q-93 -57 -93 -120q0 -16 11.5 -26.5t31.5 -10.5q24 0 39 5z" />
    <glyph glyph-name="tilde" unicode="&#x2dc;" horiz-adv-x="339" 
d="M314 634q-11 -28 -36 -54t-57 -26q-22 0 -57.5 26t-49.5 26q-36 0 -56 -45l-38 21q7 31 35.5 57t58.5 26q17 0 56 -27t51 -27q19 0 30 10.5t24 32.5z" />
    <glyph glyph-name="hungarumlaut" unicode="&#x2dd;" horiz-adv-x="431" 
d="M217 674l-145 -123l-32 32l131 137zM391 674l-145 -123l-32 32l132 137z" />
    <glyph glyph-name="Omega" unicode="&#x3a9;" horiz-adv-x="749" 
d="M718 343q0 -95 -37.5 -167.5t-92.5 -114.5h120v-62h-236v70q6 0 24 8.5t45 29.5t52 50.5t42.5 78.5t17.5 107q0 73 -25.5 132t-63 90.5t-74 48t-65.5 16.5v61q30 0 66 -11t77 -37.5t73.5 -64.5t54.5 -99.5t22 -135.5zM343 691v-60q-23 0 -57.5 -15t-74 -45.5t-67.5 -90.5
t-28 -136q0 -58 17.5 -107t42 -78.5t51.5 -51t45.5 -30t24.5 -8.5v-69h-236v60h125q-58 42 -97 114.5t-39 169.5q0 84 29.5 152.5t75 109t94.5 62.5t94 23z" />
    <glyph glyph-name="Omega" unicode="&#x2126;" horiz-adv-x="749" 
d="M718 343q0 -95 -37.5 -167.5t-92.5 -114.5h120v-62h-236v70q6 0 24 8.5t45 29.5t52 50.5t42.5 78.5t17.5 107q0 73 -25.5 132t-63 90.5t-74 48t-65.5 16.5v61q30 0 66 -11t77 -37.5t73.5 -64.5t54.5 -99.5t22 -135.5zM343 691v-60q-23 0 -57.5 -15t-74 -45.5t-67.5 -90.5
t-28 -136q0 -58 17.5 -107t42 -78.5t51.5 -51t45.5 -30t24.5 -8.5v-69h-236v60h125q-58 42 -97 114.5t-39 169.5q0 84 29.5 152.5t75 109t94.5 62.5t94 23z" />
    <glyph glyph-name="pi" unicode="&#x3c0;" horiz-adv-x="651" 
d="M553 405h-483v55h483v-55zM591 7q-20 -13 -66 -13q-43 0 -77 30t-34 96v203h59v-203q0 -28 15 -47.5t42 -19.5q26 0 47 9zM209 0h-60v323h60v-323z" />
    <glyph glyph-name="uni1E46" unicode="&#x1e46;" horiz-adv-x="741" 
d="M651 139l-65 93v456h65v-549zM168 688l481 -688h-79l-478 688h76zM155 0h-65v549l65 -94v-455zM423 -142q0 -19 -13 -32.5t-32 -13.5t-32 13.5t-13 32.5t13 32t32 13t32 -13t13 -32z" />
    <glyph glyph-name="uni1E47" unicode="&#x1e47;" 
d="M427 0h-60v325q0 43 -22 63.5t-58 20.5q-32 0 -65 -18v58q28 17 68 17q69 0 103 -34t34 -85v-347zM140 0h-60v460h60v-460zM305 -142q0 -19 -13 -32.5t-32 -13.5t-32 13.5t-13 32.5t13 32t32 13t32 -13t13 -32z" />
    <glyph glyph-name="uni1E62" unicode="&#x1e62;" horiz-adv-x="473" 
d="M412 642l-36 -51q-42 28 -67 35t-66 7q-39 0 -78 -28t-39 -81q0 -28 8 -49t26 -36t27 -21t29 -16l-31 -53q-27 13 -45.5 25t-38.5 33t-30 51.5t-10 70.5q0 69 55.5 117t128.5 48q46 0 80.5 -10t86.5 -42zM423 180q0 -78 -57.5 -132t-139.5 -54q-108 0 -176 69l40 46
q23 -26 61 -40.5t70 -14.5q57 0 97 34t40 88q0 50 -23.5 80.5t-75.5 55.5l32 54q64 -30 98 -70t34 -116zM277 -142q0 -19 -13 -32.5t-32 -13.5t-32 13.5t-13 32.5t13 32t32 13t32 -13t13 -32z" />
    <glyph glyph-name="uni1E63" unicode="&#x1e63;" horiz-adv-x="350" 
d="M294 433l-28 -49q-33 25 -85 25q-30 0 -51 -15.5t-21 -41.5q0 -42 44 -66l-32 -49q-73 40 -73 114q0 53 41.5 84t90.5 31q68 0 114 -33zM308 121q0 -59 -43.5 -93t-96.5 -34q-74 0 -123 34l29 51q40 -29 92 -29q34 0 57 19.5t23 51.5q0 41 -53 76l33 49l6 -4
q6 -3 12.5 -8t15.5 -12t17 -17.5t15.5 -22.5t11.5 -28t4 -33zM207 -142q0 -19 -13 -32.5t-32 -13.5t-32 13.5t-13 32.5t13 32t32 13t32 -13t13 -32z" />
    <glyph glyph-name="Wgrave" unicode="&#x1e80;" horiz-adv-x="889" 
d="M869 678l-157 -509l-30 98l128 427zM669 30l-9 -30h-46l-170 562l-113 -386l-31 98l123 414h45zM289 35l-10 -35h-46l-213 676l64 17zM465 713l-156 110l42 50l142 -125z" />
    <glyph glyph-name="wgrave" unicode="&#x1e81;" horiz-adv-x="711" 
d="M696 448l-110 -324l-30 86l86 255zM541 0h-60l-125 370l-84 -246l-30 86l83 250h62zM227 0h-59l-153 446l55 19zM389 524l-145 123l45 47l132 -138z" />
    <glyph glyph-name="Wacute" unicode="&#x1e82;" horiz-adv-x="889" 
d="M869 678l-157 -509l-30 98l128 427zM669 30l-9 -30h-46l-170 562l-113 -386l-31 98l123 414h45zM289 35l-10 -35h-46l-213 676l64 17zM579 825l-156 -110l-28 35l142 125z" />
    <glyph glyph-name="wacute" unicode="&#x1e83;" horiz-adv-x="711" 
d="M696 448l-110 -324l-30 86l86 255zM541 0h-60l-125 370l-84 -246l-30 86l83 250h62zM227 0h-59l-153 446l55 19zM473 647l-145 -123l-32 32l131 138z" />
    <glyph glyph-name="Wdieresis" unicode="&#x1e84;" horiz-adv-x="889" 
d="M869 678l-157 -509l-30 98l128 427zM669 30l-9 -30h-46l-170 562l-113 -386l-31 98l123 414h45zM289 35l-10 -35h-46l-213 676l64 17zM568 780q0 -19 -13 -32t-32 -13t-32.5 13t-13.5 32t13.5 32t32.5 13t32 -13t13 -32zM411 780q0 -19 -13 -32t-32 -13t-32 13t-13 32
t13 32t32 13t32 -13t13 -32z" />
    <glyph glyph-name="wdieresis" unicode="&#x1e85;" horiz-adv-x="711" 
d="M696 448l-110 -324l-30 86l86 255zM541 0h-60l-125 370l-84 -246l-30 86l83 250h62zM227 0h-59l-153 446l55 19zM479 610q0 -19 -13 -32t-32 -13t-32.5 13t-13.5 32t13.5 32t32.5 13t32 -13t13 -32zM322 610q0 -19 -13 -32t-32 -13t-32 13t-13 32t13 32t32 13t32 -13
t13 -32z" />
    <glyph glyph-name="uni1EBC" unicode="&#x1ebc;" 
d="M450 627h-360v61h360v-61zM428 323h-191v61h191v-61zM154 0h-64v546h64v-546zM450 0h-214v60h214v-60zM429 826q-11 -28 -36 -54t-57 -26q-22 0 -57.5 26t-49.5 26q-36 0 -56 -45l-38 21q7 31 35.5 57t58.5 26q17 0 56 -27t51 -27q19 0 30 10.5t24 32.5z" />
    <glyph glyph-name="uni1EBD" unicode="&#x1ebd;" horiz-adv-x="442" 
d="M414 229l-227 -1v55h164q0 53 -27.5 89.5t-78.5 36.5q-68 0 -104.5 -54t-36.5 -126q0 -76 39 -127t114 -51q64 0 114 35l7 -13q8 -13 15 -26l7 -13q-67 -40 -147 -40q-99 0 -155 66t-56 165q0 103 53.5 172t150.5 69q86 0 127 -55.5t41 -145.5v-36zM383 634
q-11 -28 -36 -54t-57 -26q-22 0 -57.5 26t-49.5 26q-36 0 -56 -45l-38 21q7 31 35.5 57t58.5 26q17 0 56 -27t51 -27q19 0 30 10.5t24 32.5z" />
    <glyph glyph-name="Ygrave" unicode="&#x1ef2;" horiz-adv-x="520" 
d="M520 660l-228 -332v-328h-64v328l33 65l207 300zM208 470l-33 -65l-175 257l53 31zM305 715l-156 110l42 50l142 -125z" />
    <glyph glyph-name="ygrave" unicode="&#x1ef3;" horiz-adv-x="451" 
d="M186 206l-31 -78l-138 315l56 23zM436 446l-230 -563q-12 -28 -30.5 -52t-31.5 -34l-13 -10q-6 -4 -16.5 -9t-41 -12t-58.5 -3v53q20 -2 40 2t30 9l10 5q33 19 52 60l235 574zM269 524l-145 123l45 47l132 -138z" />
    <glyph glyph-name="uni2012" unicode="&#x2012;" horiz-adv-x="520" 
d="M-10 317v53h540v-53h-540z" />
    <glyph glyph-name="endash" unicode="&#x2013;" horiz-adv-x="500" 
d="M470 203h-440v53h440v-53z" />
    <glyph glyph-name="emdash" unicode="&#x2014;" horiz-adv-x="1000" 
d="M970 203h-940v53h940v-53z" />
    <glyph glyph-name="quoteleft" unicode="&#x2018;" horiz-adv-x="206" 
d="M181 722l-72 -197h-64l83 197h53z" />
    <glyph glyph-name="quoteright" unicode="&#x2019;" horiz-adv-x="206" 
d="M40 524l72 197h64l-83 -197h-53z" />
    <glyph glyph-name="quotesinglbase" unicode="&#x201a;" horiz-adv-x="187" 
d="M15 -119l72 197h64l-83 -197h-53z" />
    <glyph glyph-name="quotedblleft" unicode="&#x201c;" horiz-adv-x="332" 
d="M302 722l-72 -197h-64l83 197h53zM181 722l-72 -197h-64l83 197h53z" />
    <glyph glyph-name="quotedblright" unicode="&#x201d;" horiz-adv-x="332" 
d="M46 526l72 197h64l-83 -197h-53zM167 526l72 197h64l-83 -197h-53z" />
    <glyph glyph-name="quotedblbase" unicode="&#x201e;" horiz-adv-x="351" 
d="M30 -119l72 197h64l-83 -197h-53zM151 -119l72 197h64l-83 -197h-53z" />
    <glyph glyph-name="dagger" unicode="&#x2020;" horiz-adv-x="510" 
d="M284 542h-66v152h66v-152zM476 404h-443v56h443v-56zM284 -114h-66v433h66v-433z" />
    <glyph glyph-name="daggerdbl" unicode="&#x2021;" horiz-adv-x="510" 
d="M476 405l-443 -1v55h185v235h66v-234h192v-55zM284 -114h-65v293h-186v55h185v89h66v-89h192v-55h-192v-293z" />
    <glyph glyph-name="bullet" unicode="&#x2022;" horiz-adv-x="486" 
d="M390 295q0 -60 -43 -103t-104 -43t-104 43t-43 103q0 61 43 104t104 43t104 -43t43 -104z" />
    <glyph glyph-name="ellipsis" unicode="&#x2026;" horiz-adv-x="672" 
d="M602 42q0 -20 -14 -34t-34 -14q-19 0 -33 14t-14 34t14 34t33 14q20 0 34 -14t14 -34zM383 42q0 -20 -14 -34t-33 -14q-20 0 -34 14t-14 34q0 19 14 33t34 14t33.5 -13.5t13.5 -33.5zM165 42q0 -20 -14 -34t-33 -14q-20 0 -34 14t-14 34t14 34t34 14q19 0 33 -14t14 -34z
" />
    <glyph glyph-name="perthousand" unicode="&#x2030;" horiz-adv-x="1066" 
d="M557 698l-340 -728l-50 24l339 727zM848 279q-45 -32 -45 -111q0 -77 45 -110v-59q-49 14 -79 58.5t-30 110.5q0 65 29.5 110.5t79.5 59.5v-59zM515 279q-45 -32 -45 -111q0 -77 45 -110v-59q-49 14 -79 58.5t-30 110.5q0 65 29.5 110.5t79.5 59.5v-59zM139 630
q-45 -30 -45 -110q0 -78 45 -111v-10t0.5 -19t0.5 -22l-1 -8q-49 14 -79 59t-30 110q0 66 29.5 110.5t79.5 59.5v-59zM704 168q0 -66 -29.5 -110.5t-78.5 -58.5v60q44 34 44 109q0 80 -44 110v60q49 -14 78.5 -59t29.5 -111zM1036 168q0 -66 -29.5 -110.5t-77.5 -58.5v60
q43 33 43 109q0 80 -43 110v60q49 -14 78 -59t29 -111zM327 519q0 -66 -29.5 -110.5t-77.5 -58.5v61q44 32 44 109q0 78 -44 110v59q49 -14 78 -59t29 -111z" />
    <glyph glyph-name="guilsinglleft" unicode="&#x2039;" horiz-adv-x="330" 
d="M202 43l-122 171l122 171l48 -31l-102 -140l102 -139z" />
    <glyph glyph-name="guilsinglright" unicode="&#x203a;" horiz-adv-x="330" 
d="M128 43l-48 32l102 139l-102 140l48 31l122 -171z" />
    <glyph glyph-name="fraction" unicode="&#x2044;" horiz-adv-x="347" 
d="M365 698l-340 -728l-50 24l339 727z" />
    <glyph glyph-name="zerosuperior" unicode="&#x2070;" horiz-adv-x="308" 
d="M271 511q0 -72 -22.5 -116.5t-61.5 -57.5v56q30 30 30 118q0 90 -30 120v55q40 -13 62 -58t22 -117zM35 511q0 149 88 175v-53q-33 -27 -33 -122q0 -92 33 -121v-54q-41 13 -64.5 58t-23.5 117z" />
    <glyph glyph-name="foursuperior" unicode="&#x2074;" horiz-adv-x="270" 
d="M65 485h87v196h52v-196h41v-47h-41v-103h-53v103h-128l-22 33l87 135v-83z" />
    <glyph glyph-name="fivesuperior" unicode="&#x2075;" horiz-adv-x="282" 
d="M124 332q-43 0 -95 28l25 45q43 -26 69 -26q32 0 53 17.5t21 48.5q0 65 -75 65q-23 0 -47 -3l-24 24l18 157h162v-49h-116l-9 -82l21 1q54 0 88.5 -26t34.5 -84q0 -44 -34 -80t-92 -36z" />
    <glyph glyph-name="sixsuperior" unicode="&#x2076;" horiz-adv-x="273" 
d="M127 508l13 42q44 0 72 -26.5t28 -78.5q0 -51 -29.5 -82.5t-78.5 -31.5q-58 0 -85 36.5t-27 96.5q0 77 50 139t130 94l20 -44q-29 -12 -50.5 -24.5t-45.5 -35t-37 -57t-13 -78.5q0 -33 15 -58t43 -25q26 0 40 19.5t14 47.5q0 32 -16.5 49t-42.5 17z" />
    <glyph glyph-name="sevensuperior" unicode="&#x2077;" horiz-adv-x="247" 
d="M104 329l-50 16l122 289h-146v51h193l18 -30z" />
    <glyph glyph-name="eightsuperior" unicode="&#x2078;" horiz-adv-x="289" 
d="M149 539q42 15 42 56q0 23 -15 38v52q33 -8 50.5 -31.5t17.5 -55.5q0 -45 -44 -78q52 -28 52 -86q0 -36 -21 -62.5t-55 -35.5v51q24 15 24 45q0 45 -60 69q-22 -8 -37.5 -25.5t-15.5 -40.5q0 -28 25 -47v-52q-34 9 -55.5 34t-21.5 62q0 56 53 88q-44 28 -44 75
q0 29 17 54.5t51 34.5v-50q-16 -13 -16 -36q0 -40 53 -59z" />
    <glyph glyph-name="ninesuperior" unicode="&#x2079;" horiz-adv-x="273" 
d="M145 514l-13 -42q-44 0 -72 26.5t-28 78.5q0 51 29.5 82.5t78.5 31.5q58 0 85 -36.5t27 -96.5q0 -77 -50 -139t-130 -94l-20 44q29 12 50.5 24.5t45.5 35t37 57t13 78.5q0 33 -15 58t-43 25q-26 0 -40 -19.5t-14 -47.5q0 -32 16.5 -49t42.5 -17z" />
    <glyph glyph-name="plussuperior" unicode="&#x207a;" horiz-adv-x="245" 
d="M99 402v83h-80v46h80v79h47v-79h80v-46h-80v-83h-47z" />
    <glyph glyph-name="minussuperior" unicode="&#x207b;" horiz-adv-x="230" 
d="M13 484v46h205v-46h-205z" />
    <glyph glyph-name="equalsuperior" unicode="&#x207c;" horiz-adv-x="279" 
d="M37 443v45h205v-45h-205zM37 523v44h205v-44h-205z" />
    <glyph glyph-name="parenleftsuperior" unicode="&#x207d;" horiz-adv-x="185" 
d="M137 284q-44 34 -71.5 98.5t-27.5 127.5q0 66 30 131t70 93l30 -30q-82 -82 -82 -194q0 -46 23.5 -106t57.5 -85z" />
    <glyph glyph-name="parenrightsuperior" unicode="&#x207e;" horiz-adv-x="185" 
d="M48 284l-30 35q34 25 57.5 85t23.5 106q0 112 -82 194l30 30q40 -28 70 -93t30 -131q0 -63 -27.5 -127.5t-71.5 -98.5z" />
    <glyph glyph-name="zeroinferior" unicode="&#x2080;" horiz-adv-x="308" 
d="M271 176q0 -72 -22.5 -116.5t-61.5 -57.5v56q30 30 30 118q0 90 -30 120v55q40 -13 62 -58t22 -117zM35 176q0 149 88 175v-53q-33 -28 -33 -122q0 -92 33 -121v-54q-41 13 -64.5 58t-23.5 117z" />
    <glyph glyph-name="oneinferior" unicode="&#x2081;" horiz-adv-x="189" 
d="M83 0v292q-11 -5 -30.5 -16t-28.5 -15l-24 41l97 51h38v-353h-52z" />
    <glyph glyph-name="twoinferior" unicode="&#x2082;" horiz-adv-x="306" 
d="M50 0l-13 36q1 1 16 14.5t24 22.5l27 27t30.5 31.5t27.5 32t24 33t15.5 30.5t6.5 28q0 19 -16 36.5t-42 17.5q-46 0 -71 -36l-34 30q34 53 108 53q49 0 79 -26t30 -73q0 -78 -146 -208h144v-49h-210z" />
    <glyph glyph-name="threeinferior" unicode="&#x2083;" horiz-adv-x="278" 
d="M126 -4q-56 0 -91 27l21 44q36 -22 74 -22q25 0 39.5 15t14.5 44q0 30 -22.5 44.5t-53.5 14.5h-25v47h25q26 0 47 14t21 41q0 18 -12.5 31.5t-30.5 13.5q-38 0 -68 -17l-21 38q40 25 89 25q47 0 74 -24t27 -64q0 -49 -46 -78q54 -26 54 -89q0 -43 -32 -74t-84 -31z" />
    <glyph glyph-name="fourinferior" unicode="&#x2084;" horiz-adv-x="270" 
d="M65 150h87v196h52v-196h41v-47h-41v-103h-53v103h-128l-22 33l87 135v-83z" />
    <glyph glyph-name="fiveinferior" unicode="&#x2085;" horiz-adv-x="282" 
d="M124 -3q-43 0 -95 28l25 45q43 -26 69 -26q32 0 53 17.5t21 48.5q0 65 -75 65q-23 0 -47 -3l-24 24l18 157h162v-49h-116l-9 -82l21 1q54 0 88.5 -26t34.5 -84q0 -44 -34 -80t-92 -36z" />
    <glyph glyph-name="sixinferior" unicode="&#x2086;" horiz-adv-x="273" 
d="M127 173l13 42q44 0 72 -26.5t28 -78.5q0 -51 -29.5 -82.5t-78.5 -31.5q-58 0 -85 36.5t-27 96.5q0 77 50 139t130 94l20 -44q-29 -12 -50.5 -24.5t-45.5 -35t-37 -57t-13 -78.5q0 -33 15 -58t43 -25q26 0 40 19.5t14 47.5q0 32 -16.5 49t-42.5 17z" />
    <glyph glyph-name="seveninferior" unicode="&#x2087;" horiz-adv-x="247" 
d="M104 -6l-50 16l122 289h-146v51h193l18 -30z" />
    <glyph glyph-name="eightinferior" unicode="&#x2088;" horiz-adv-x="289" 
d="M149 204q42 15 42 56q0 23 -15 38v52q33 -8 50.5 -31.5t17.5 -55.5q0 -45 -44 -78q52 -28 52 -86q0 -36 -21 -62.5t-55 -35.5v51q24 15 24 45q0 45 -60 69q-22 -8 -37.5 -25.5t-15.5 -40.5q0 -28 25 -47v-52q-34 9 -55.5 34t-21.5 62q0 56 53 88q-44 28 -44 75
q0 29 17 54.5t51 34.5v-50q-16 -13 -16 -36q0 -40 53 -59z" />
    <glyph glyph-name="nineinferior" unicode="&#x2089;" horiz-adv-x="273" 
d="M145 179l-13 -42q-44 0 -72 26.5t-28 78.5q0 51 29.5 82.5t78.5 31.5q58 0 85 -36.5t27 -96.5q0 -77 -50 -139t-130 -94l-20 44q29 12 50.5 24.5t45.5 35t37 57t13 78.5q0 33 -15 58t-43 25q-26 0 -40 -19.5t-14 -47.5q0 -32 16.5 -49t42.5 -17z" />
    <glyph glyph-name="parenleft.inferior" unicode="&#x208d;" horiz-adv-x="185" 
d="M137 -51q-44 34 -71.5 98.5t-27.5 127.5q0 66 30 131t70 93l30 -30q-82 -82 -82 -194q0 -46 23.5 -106t57.5 -85z" />
    <glyph glyph-name="parenright.inferior" unicode="&#x208e;" horiz-adv-x="185" 
d="M48 -51l-30 35q34 25 57.5 85t23.5 106q0 112 -82 194l30 30q40 -28 70 -93t30 -131q0 -63 -27.5 -127.5t-71.5 -98.5z" />
    <glyph glyph-name="colonsign" unicode="&#x20a1;" horiz-adv-x="548" 
d="M595 686l-141 -302h-62l104 222q-26 13 -62 21l-114 -243h-61l116 249q-83 0 -163 -66.5t-93 -182.5h-67q14 140 111 225t221 85q13 0 19 -1l29 62l51 -23l-22 -46q35 -8 62 -22l21 45zM201 128q26 -26 52 -41l100 214h62l-110 -236q30 -10 68 -10q77 0 134 27l26 -54
q-62 -34 -160 -34q-47 0 -95 14l-23 -50l-50 24l22 47q-29 14 -55 36l-29 -61l-50 24l37 79q-68 78 -78 194h67q9 -72 43 -125l58 125h62z" />
    <glyph glyph-name="cruzeiro" unicode="&#x20a2;" horiz-adv-x="548" 
d="M373 -6q-76 0 -144 33.5t-118 105t-59 168.5h67q10 -83 57 -145t116 -87v351h60v-65q10 12 24 25t42 29.5t52 16.5q37 0 74 -16l-25 -59q-28 14 -58 14q-28 0 -60 -24.5t-49 -52.5v-232q7 -1 21 -1q77 0 134 27l26 -54q-62 -34 -160 -34zM373 633q-51 0 -104 -26t-97 -85
t-53 -138h-67q14 140 111 225t221 85q95 0 149 -36l-28 -56q-54 31 -132 31z" />
    <glyph glyph-name="franc" unicode="&#x20a3;" horiz-adv-x="552" 
d="M242 368v-60h-88v-308h-64v688h360v-61h-296v-259h88zM301 0v444h60v-65q10 12 24 25t42 29.5t52 16.5q37 0 74 -16l-25 -59q-28 14 -58 14q-28 0 -60 -24.5t-49 -52.5v-312h-60z" />
    <glyph glyph-name="lira" unicode="&#x20a4;" horiz-adv-x="470" 
d="M60 313h307v-53h-136q2 -42 -4 -70q-18 -85 -66 -129h289v-61h-388v50q46 23 74.5 73t28.5 108q0 4 -0.5 13.5t-0.5 15.5h-104v53zM367 380h-307v53h83q-6 54 -6 61q0 90 52.5 144.5t133.5 54.5q67 0 107 -24l-24 -60q-40 22 -81 22q-54 0 -86.5 -39.5t-32.5 -92.5
q0 -34 4 -66h157v-53z" />
    <glyph glyph-name="mill" unicode="&#x20a5;" horiz-adv-x="754" 
d="M412 0h-60v161l-137 -293l-50 24l187 401v51q0 35 -20 49.5t-44 14.5q-44 0 -65 -18v60q5 4 28.5 10t41.5 6q86 0 109 -65l102 218l51 -23l-143 -306v-290zM683 0h-60v344q0 35 -20 49.5t-45 14.5q-14 0 -29.5 -4t-24.5 -8l-9 -5v61q26 13 68 13q60 0 90 -32t30 -76v-357
zM139 0h-60v460h60v-460z" />
    <glyph glyph-name="naira" unicode="&#x20a6;" horiz-adv-x="741" 
d="M168 688l169 -242h249v242h65v-242h69v-53h-69v-98h69v-53h-69v-103l-65 93v161h-212l275 -393h-79l-169 243h-246v-243h-65v243h-73v53h73v97h-72v53h72v103l65 -94v-159h209l-272 392h76z" />
    <glyph glyph-name="pesetas" unicode="&#x20a7;" horiz-adv-x="1066" 
d="M459 511q0 -100 -67.5 -156.5t-151.5 -56.5h-4v61h4q8 0 22 2t38 11t43.5 24.5t34 45.5t14.5 70q0 115 -148 115h-154v61h172q36 0 68 -7.5t62.5 -26t48.5 -55t18 -88.5zM154 0h-64v546h64v-546zM727 404h-260v56h79v86h60v-86h121v-56zM743 18q-34 -24 -91 -24
q-54 0 -79.5 29.5t-25.5 90.5v208h60v-198q0 -74 48 -74q17 0 33.5 4.5t23.5 9.5l8 4zM1010 433l-28 -49q-33 25 -85 25q-30 0 -51 -15.5t-21 -41.5q0 -42 44 -66l-32 -49q-73 40 -73 114q0 53 41.5 84t90.5 31q68 0 114 -33zM1024 121q0 -59 -43.5 -93t-96.5 -34
q-74 0 -123 34l29 51q40 -29 92 -29q34 0 57 19.5t23 51.5q0 41 -53 76l33 49l6 -4q6 -3 12.5 -8t15.5 -12t17 -17.5t15.5 -22.5t11.5 -28t4 -33z" />
    <glyph glyph-name="rupee" unicode="&#x20a8;" horiz-adv-x="768" 
d="M457 518q0 -96 -66 -149.5t-149 -56.5h-6v61l5 1q8 0 18.5 1t36 9t44 21.5t34 43.5t15.5 70q0 35 -13.5 58.5t-38 33.5t-46 13.5t-50.5 3.5h-5v60h20q201 0 201 -170zM155 0h-65v688h65v-688zM711 433l-28 -49q-33 25 -85 25q-30 0 -51 -15.5t-21 -41.5q0 -42 44 -66
l-32 -49q-73 40 -73 114q0 53 41.5 84t90.5 31q68 0 114 -33zM274 233l66 12q73 -86 124.5 -132t73 -54.5t45.5 -8.5q34 0 57 19.5t23 51.5q0 41 -53 76l33 49l6 -4q6 -3 12.5 -8t15.5 -12t17 -17.5t15.5 -22.5t11.5 -28t4 -33q0 -59 -43.5 -93t-96.5 -34q-43 0 -77.5 13
t-94.5 67.5t-139 158.5z" />
    <glyph glyph-name="won" unicode="&#x20a9;" horiz-adv-x="889" 
d="M669 30l-9 -30h-46l-170 562l-113 -386l-31 98l123 414h45zM18 413v53h68l-66 210l64 17l205 -658l-10 -35h-46l-84 265h-131v53h114l-30 95h-84zM869 678l-65 -212h70v-53h-87l-29 -95h116v-53h-133l-29 -96l-30 98l128 427z" />
    <glyph glyph-name="sheqel" unicode="&#x20aa;" horiz-adv-x="824" 
d="M90 0v688h187q159 0 214 -63.5t55 -225.5v-158h-65v152q0 43 -2 71t-8.5 56.5t-20 45.5t-35 31t-53.5 19.5t-77 5.5h-130v-622h-65zM278 0v460h65v-394h130q45 0 77 5.5t53.5 19.5t35 31t20 45.5t8.5 56.5t2 71v393h65v-399q0 -162 -55 -225.5t-214 -63.5h-187z" />
    <glyph glyph-name="dong" unicode="&#x20ab;" horiz-adv-x="516" 
d="M436 94h-59v497h-123v54h123v76h59v-76h65v-54h-65v-497zM241 144q27 0 52 11v-57q-28 -10 -54 -10q-95 0 -147 68t-52 157q0 86 51 145.5t139 59.5q30 0 63 -12v-57q-31 12 -60 12q-132 0 -132 -149q0 -80 39.5 -124t100.5 -44zM38 0v53h463v-53h-463z" />
    <glyph glyph-name="Euro" unicode="&#x20ac;" horiz-adv-x="473" 
d="M281 -6q-104 0 -161.5 52t-63.5 152h307v-50h-229q33 -94 147 -94q74 0 136 39l26 -54q-82 -45 -162 -45zM363 257h-305q10 99 75 154.5t165 55.5q83 0 142 -41l-28 -56q-62 36 -125 36q-51 0 -91 -25t-59 -74h226v-50z" />
    <glyph glyph-name="uni20AD" unicode="&#x20ad;" horiz-adv-x="574" 
d="M155 0h-65v342h-87v53h87v293h65v-293h38l293 300l53 -36l-261 -264h224v-53h-347v-342zM554 33l-54 -39l-240 268l48 47z" />
    <glyph glyph-name="uni20AE" unicode="&#x20ae;" 
d="M427 474l-144 -89v-77l183 112l29 -47l-212 -130v-243h-65v204l-110 -67l-29 47l139 85v76l-178 -109l-29 48l207 127v135h65v-96l115 71zM502 627h-507v61h507v-61z" />
    <glyph glyph-name="uni20B1" unicode="&#x20b1;" horiz-adv-x="519" 
d="M17 465h502v-53h-84q-26 -51 -77 -82t-122 -32v60q81 5 123 54h-205v-412h-64v412h-73v53zM519 523h-502v53h73v112h64v-112h222q-31 51 -131 51h-9v61h27q64 0 116 -26t71 -86h69v-53z" />
    <glyph glyph-name="afii61289" unicode="&#x2113;" horiz-adv-x="420" 
d="M179 458l-59 -45v74q0 130 31.5 186.5t101.5 56.5q46 0 73 -35.5t27 -102.5q0 -69 -44 -151.5t-130 -161.5v-108q0 -74 13 -101.5t47 -27.5q42 0 71 37l35 -27q-37 -64 -113 -64q-59 0 -85.5 39t-26.5 121v93q-8 -7 -56 -41l-27 35q45 34 69 52.5t65 57t62.5 70t39 76
t17.5 89.5q0 99 -49 99q-62 0 -62 -159v-62z" />
    <glyph glyph-name="afii61352" unicode="&#x2116;" horiz-adv-x="930" 
d="M501 93l-65 81v286h65v-367zM501 17v-17h-71l-339 434v26h67zM155 0h-65v367l65 -81v-286zM865 334q0 -45 -27 -87t-79 -53v51q51 23 51 89q0 67 -51 88v51q53 -10 79.5 -51.5t26.5 -87.5zM697 195q-53 11 -79 51.5t-26 86.5q0 45 27 87t78 53v-51q-51 -24 -51 -89
t51 -88v-50zM593 113v53h277v-53h-277z" />
    <glyph glyph-name="uni2117" unicode="&#x2117;" horiz-adv-x="796" 
d="M769 371h-62q0 24 -10.5 56.5t-35 70t-57.5 69t-84 52.5t-110 21q-75 0 -136 -32.5t-94 -78.5t-50.5 -88t-17.5 -70h-61q0 44 23.5 97.5t66.5 105t114 86t155 34.5q87 0 159 -35.5t113.5 -87.5t64 -105t22.5 -95zM769 289q-1 -32 -15 -71.5t-43.5 -83.5t-70 -80
t-101 -59.5t-129.5 -23.5q-65 0 -123.5 22t-100 56.5t-72.5 77t-46.5 84.5t-16.5 78h62q1 -23 11.5 -55t35 -69t57.5 -68t83.5 -51.5t109.5 -20.5q56 0 105.5 19.5t83 49.5t58.5 66.5t37 69.5t14 59h61zM553 413q0 -61 -46 -92t-99 -31h-2v50h2q9 0 18.5 1.5t28 7t30 22.5
t11.5 43q0 39 -19.5 55t-65.5 16h-88v50h119q49 0 80 -29t31 -93zM379 136h-56v317h56v-317z" />
    <glyph glyph-name="servicemark" unicode="&#x2120;" horiz-adv-x="841" 
d="M139 278q-69 0 -114 48l34 39q39 -36 77 -36q31 0 52 18t21 46q0 17 -5.5 30t-20 24t-24 16.5t-30.5 15.5q-23 12 -35.5 19.5t-29 22t-24 34.5t-7.5 46q0 44 35.5 74.5t81.5 30.5q65 0 111 -36l-30 -44q-28 19 -43.5 23.5t-38.5 4.5q-20 0 -40.5 -14.5t-20.5 -41.5
q0 -26 18 -41.5t55 -33.5q24 -12 37 -20t31 -23.5t26 -36t8 -47.5q0 -50 -36.5 -84t-87.5 -34zM348 288l25 400h61l130 -302l143 302h55l18 -400l-55 -3l-13 296l-123 -265h-52l-116 265l-17 -296z" />
    <glyph glyph-name="trademark" unicode="&#x2122;" horiz-adv-x="841" 
d="M780 288l-55 -3l-13 296l-123 -265h-52l-116 265l-17 -296l-56 3l25 400h61l130 -302l143 302h55zM324 635h-127v-346h-57v346h-130v53h314v-53z" />
    <glyph glyph-name="estimated" unicode="&#x212e;" horiz-adv-x="519" 
d="M111 289v-119q0 -47 48 -91t114 -44q53 0 90.5 20.5t69.5 62.5l30 -23q-68 -101 -196 -101q-101 0 -166.5 61t-65.5 167q0 107 65.5 177.5t172.5 70.5q94 0 152.5 -54t58.5 -149v-41h-289v38h213v25q0 67 -34.5 106.5t-100.5 39.5q-71 0 -116.5 -39.5t-45.5 -106.5z" />
    <glyph glyph-name="onethird" unicode="&#x2153;" horiz-adv-x="707" 
d="M124 335v292q-11 -5 -30.5 -16t-28.5 -15l-24 41l97 51h38v-353h-52zM537 698l-340 -728l-50 24l339 727zM550 -3q-56 0 -91 27l21 44q36 -22 74 -22q25 0 39.5 15t14.5 44q0 30 -22.5 44.5t-53.5 14.5h-25v47h25q26 0 47 14t21 41q0 18 -12.5 31.5t-30.5 13.5
q-38 0 -68 -17l-21 38q40 25 89 25q47 0 74 -24t27 -64q0 -49 -46 -78q54 -26 54 -89q0 -43 -32 -74t-84 -31z" />
    <glyph glyph-name="twothirds" unicode="&#x2154;" horiz-adv-x="744" 
d="M54 335l-13 36q1 1 16 14.5t24 22.5l27 27t30.5 31.5t27.5 32t24 33t15.5 30.5t6.5 28q0 19 -16 36.5t-42 17.5q-46 0 -71 -36l-34 30q34 53 108 53q49 0 79 -26t30 -73q0 -78 -146 -208h144v-49h-210zM574 698l-340 -728l-50 24l339 727zM587 -3q-56 0 -91 27l21 44
q36 -22 74 -22q25 0 39.5 15t14.5 44q0 30 -22.5 44.5t-53.5 14.5h-25v47h25q26 0 47 14t21 41q0 18 -12.5 31.5t-30.5 13.5q-38 0 -68 -17l-21 38q40 25 89 25q47 0 74 -24t27 -64q0 -49 -46 -78q54 -26 54 -89q0 -43 -32 -74t-84 -31z" />
    <glyph glyph-name="uni215B" unicode="&#x215b;" horiz-adv-x="724" 
d="M124 335v292q-11 -5 -30.5 -16t-28.5 -15l-24 41l97 51h38v-353h-52zM537 698l-340 -728l-50 24l339 727zM580 206q42 15 42 56q0 23 -15 38v52q33 -8 50.5 -31.5t17.5 -55.5q0 -45 -44 -78q52 -28 52 -86q0 -36 -21 -62.5t-55 -35.5v51q24 15 24 45q0 45 -60 69
q-22 -8 -37.5 -25.5t-15.5 -40.5q0 -28 25 -47v-52q-34 9 -55.5 34t-21.5 62q0 56 53 88q-44 28 -44 75q0 29 17 54.5t51 34.5v-50q-16 -13 -16 -36q0 -40 53 -59z" />
    <glyph glyph-name="arrowleft" unicode="&#x2190;" horiz-adv-x="663" 
d="M231 123l-221 221l221 221l38 -38l-157 -157h541v-53h-540l156 -156z" />
    <glyph glyph-name="arrowup" unicode="&#x2191;" horiz-adv-x="663" 
d="M305 23v540l-156 -156l-38 38l221 221l221 -221l-38 -38l-157 157v-541h-53z" />
    <glyph glyph-name="arrowright" unicode="&#x2192;" horiz-adv-x="663" 
d="M432 122l-38 38l157 157h-541v53h540l-156 156l38 38l221 -221z" />
    <glyph glyph-name="arrowdown" unicode="&#x2193;" horiz-adv-x="663" 
d="M332 24l-221 221l38 38l157 -157v541h53v-540l156 156l38 -38z" />
    <glyph glyph-name="uni2196" unicode="&#x2196;" horiz-adv-x="663" 
d="M528 106l-382 380l-1 -220l-54 -1l1 313h313v-52h-222l381 -383z" />
    <glyph glyph-name="uni2197" unicode="&#x2197;" horiz-adv-x="663" 
d="M123 97l-38 37l382 382h-221v54h313v-313h-54v222z" />
    <glyph glyph-name="uni2198" unicode="&#x2198;" horiz-adv-x="663" 
d="M246 116v54h222l-382 382l37 38l382 -382v221h54v-313h-313z" />
    <glyph glyph-name="uni2199" unicode="&#x2199;" horiz-adv-x="663" 
d="M408 113l-313 1v313h53v-222l382 381l38 -36l-381 -382h220z" />
    <glyph glyph-name="partialdiff" unicode="&#x2202;" horiz-adv-x="603" 
d="M484 325q0 -88 -21 -159.5t-73.5 -121.5t-130.5 -50q-87 0 -142.5 55t-55.5 150q0 100 59 155t137 55q25 0 41.5 -2t24 -4t10.5 -2v-68q-35 15 -69 15q-70 0 -104.5 -44t-34.5 -103q0 -47 15 -79t39.5 -44.5t42 -17t34.5 -4.5q49 0 84.5 31.5t51.5 80.5t22 97.5t3 94.5
q-24 112 -71.5 182.5t-127.5 123.5l36 51q120 -79 175 -187t55 -205z" />
    <glyph glyph-name="Delta" unicode="&#x2206;" horiz-adv-x="664" 
d="M631 0h-599l272 688h65l-243 -627h409l-161 431l37 85z" />
    <glyph glyph-name="product" unicode="&#x220f;" horiz-adv-x="690" 
d="M600 627h-511v61h511v-61zM600 0h-63v543h63v-543zM155 0h-66v543h66v-543z" />
    <glyph glyph-name="minus" unicode="&#x2212;" horiz-adv-x="491" 
d="M439 313h-419v60h419v-60z" />
    <glyph glyph-name="radical" unicode="&#x221a;" horiz-adv-x="555" 
d="M535 744l-183 -592l-33 83l156 525zM313 28l-8 -28h-50l-134 349h-106v56h154z" />
    <glyph glyph-name="infinity" unicode="&#x221e;" horiz-adv-x="809" 
d="M779 339q0 -71 -50 -117.5t-122 -46.5q-86 0 -147 62q1 1 3 3.5t6.5 8t8.5 11t8.5 10.5t7.5 8l3 3q50 -45 112 -45q48 0 76 27t28 76t-28.5 77t-74.5 28q-14 0 -26.5 -2t-25.5 -7.5t-22 -9.5t-22 -14.5t-19 -15t-19.5 -19t-17 -18t-18 -20.5t-16.5 -19q-34 -40 -48 -54.5
t-45 -41.5t-61.5 -37.5t-67.5 -10.5q-72 0 -122 46.5t-50 117.5t50 118.5t122 47.5q81 0 146 -62l-38 -43q-49 44 -111 44q-45 0 -74 -29t-29 -76q0 -48 28 -75.5t76 -27.5q18 0 34.5 3t32.5 12.5t26 15t26.5 22.5t21.5 22.5t24 27.5t22 26q32 37 47.5 53.5t45.5 41.5
t60.5 35t67.5 10q71 0 121 -47.5t50 -118.5z" />
    <glyph glyph-name="approxequal" unicode="&#x2248;" horiz-adv-x="545" 
d="M525 441q-67 -91 -160 -91q-39 0 -99.5 34t-96.5 34q-25 0 -57.5 -19.5t-50.5 -41.5l-41 35q64 89 152 89q39 0 99 -33.5t95 -33.5q32 0 62 17t48 43zM525 293q-67 -91 -160 -91q-39 0 -99.5 34t-96.5 34q-25 0 -57.5 -19.5t-50.5 -41.5l-41 35q64 89 152 89q39 0 99 -34
t95 -34q32 0 62 17t48 43z" />
    <glyph glyph-name="notequal" unicode="&#x2260;" horiz-adv-x="558" 
d="M488 232h-247l-92 -158l-50 28l76 130h-105v57h138l59 102h-197v57h230l92 156l49 -29l-74 -127h121v-57h-154l-60 -102h214v-57z" />
    <glyph glyph-name="lessequal" unicode="&#x2264;" horiz-adv-x="462" 
d="M388 211l-41 -48l-277 239l276 238l41 -47l-230 -191zM397 0h-321v54h321v-54z" />
    <glyph glyph-name="greaterequal" unicode="&#x2265;" horiz-adv-x="462" 
d="M392 402l-277 -239l-41 48l231 191l-229 191l40 47zM386 0h-321v54h321v-54z" />
    <glyph glyph-name="uni25A0" unicode="&#x25a0;" horiz-adv-x="617" 
d="M80 0v458h457v-458h-457z" />
    <glyph glyph-name="uni25A1" unicode="&#x25a1;" horiz-adv-x="617" 
d="M539 0h-459v328h53v-274h353v274h53v-328zM539 404h-459v55h459v-55z" />
    <glyph glyph-name="lozenge" unicode="&#x25ca;" horiz-adv-x="645" 
d="M595 343l-236 -343h-73l227 345l-141 211l38 58zM360 688l-227 -347l142 -210l-38 -58l-187 270l236 345h74z" />
    <glyph glyph-name="apple" unicode="&#xf8ff;" horiz-adv-x="1241" 
d="M390 318v11h10v18h-10v41h11v-40h19v40h11v-41h-10v-9h-10v-10h-10v-10h-11zM350 338v9h-10v30h-10v11h10v10h11v-10h20v-11h-20v-29h20v-10h-21zM590 338v9h-10v30h-10v11h10v10h11v-10h20v-11h-20v-29h20v-10h-21zM700 338v9h-10v31h10v10h21v-10h10v-21h-30v-9h30v-10
h-31zM880 338v9h-10v31h10v10h21v-10h10v-21h-30v-9h30v-10h-31zM110 347v10h-10v11h10v10h11v-10h10v-11h-10v-10h-11zM180 347v10h-10v11h10v10h11v-10h10v-11h-10v-10h-11zM270 347v10h-10v11h10v10h11v-10h10v-11h-10v-10h-11zM520 338v9h-10v31h10v10h21v-10h10v-31
h-10v-9h-21zM630 338v70h11v-20h20v-10h10v-40h-11v39h-19v-39h-11zM960 347v10h-10v11h10v10h11v-10h10v-11h-10v-10h-11zM1050 347v10h-10v11h10v10h11v-10h10v-11h-10v-10h-11zM1120 347v10h-10v11h10v10h11v-10h10v-11h-10v-10h-11zM450 318v70h31v-10h10v-31h-10v-9
h-20v-20h-11zM780 318v20h-20v9h-10v31h10v10h31v-70h-11zM820 338v9h-10v41h11v-40h19v40h11v-50h-31zM240 328v10h10v10h11v-10h-10v-10h-11zM250 377v10h-10v11h11v-10h10v-11h-11zM300 328v10h-10v10h11v-10h10v-10h-11zM290 377v11h10v10h11v-11h-10v-10h-11zM930 328
v10h10v10h11v-10h-10v-10h-11zM940 377v10h-10v11h11v-10h10v-11h-11zM990 328v10h-10v10h11v-10h10v-10h-11zM980 377v11h10v10h11v-11h-10v-10h-11zM160 338v10h11v-10h-11zM160 377v11h11v-11h-11zM200 338v10h11v-10h-11zM200 377v11h11v-11h-11zM461 348h19v29h-19v-29
zM521 348h19v29h-19v-29zM701 368h19v9h-19v-9zM761 348h19v29h-19v-29zM881 368h19v9h-19v-9zM1030 338v10h11v-10h-11zM1030 377v11h11v-11h-11zM1070 338v10h11v-10h-11zM1070 377v11h11v-11h-11z" />
    <glyph glyph-name="fl" unicode="&#xfb02;" horiz-adv-x="501" 
d="M321 707l-24 -51q-26 16 -65 16q-21 0 -41 -17t-20 -57l-1 -138h111v-56h-250v56h80v144q0 55 32 89.5t86 34.5q25 0 48 -5t33 -11zM170 0h-59v323h59v-323zM421 0h-60v721h60v-721z" />
    <glyph glyph-name="CR" horiz-adv-x="180" 
 />
    <glyph glyph-name="uni0045030A" 
d="M154 0h-64v546h64v-546zM450 627h-360v61h360v-61zM375 801q0 -33 -19 -56t-50 -31v42q23 16 23 45q0 21 -14 36.5t-35 15.5t-35 -15.5t-14 -36.5q0 -28 22 -43v-44q-31 8 -49.5 31.5t-18.5 55.5q0 40 27 64.5t68 24.5t68 -24.5t27 -64.5zM450 0h-214v60h214v-60z
M428 323h-191v61h191v-61z" />
    <glyph glyph-name="uni00460304" horiz-adv-x="480" 
d="M450 627h-360v61h360v-61zM428 323h-192v61h192v-61zM154 0h-64v546h64v-546zM378 752h-215v54h215v-54z" />
    <glyph glyph-name="uni004A0301" horiz-adv-x="244" 
d="M154 28q0 -115 -63 -177.5t-173 -62.5v58q73 0 122 46t49 150v646h65v-660zM253 825l-156 -110l-28 35l142 125z" />
    <glyph glyph-name="uni004E0304" horiz-adv-x="741" 
d="M651 139l-65 93v456h65v-549zM168 688l481 -688h-79l-478 688h76zM155 0h-65v549l65 -94v-455zM484 752h-215v54h215v-54z" />
    <glyph glyph-name="uni00500304" horiz-adv-x="499" 
d="M459 511q0 -100 -67.5 -156.5t-151.5 -56.5h-4v61h4q8 0 22 2t38 11t43.5 24.5t34 45.5t14.5 70q0 115 -148 115h-154v61h172q36 0 68 -7.5t62.5 -26t48.5 -55t18 -88.5zM154 0h-64v546h64v-546zM359 752h-215v54h215v-54z" />
    <glyph glyph-name="uni00520300" horiz-adv-x="512" 
d="M457 518q0 -96 -66 -149.5t-149 -56.5h-6v61l5 1q8 0 18.5 1t36 9t44 21.5t34 43.5t15.5 70q0 35 -13.5 58.5t-38 33.5t-46 13.5t-50.5 3.5h-5v60h20q201 0 201 -170zM492 21l-61 -30l-157 242l66 12zM155 0h-65v688h65v-688zM270 715l-156 110l42 50l142 -125z" />
    <glyph glyph-name="uni00530306" horiz-adv-x="473" 
d="M412 642l-36 -51q-42 28 -67 35t-66 7q-39 0 -78 -28t-39 -81q0 -28 8 -49t26 -36t27 -21t29 -16l-31 -53q-27 13 -45.5 25t-38.5 33t-30 51.5t-10 70.5q0 69 55.5 117t128.5 48q46 0 80.5 -10t86.5 -42zM423 180q0 -78 -57.5 -132t-139.5 -54q-108 0 -176 69l40 46
q23 -26 61 -40.5t70 -14.5q57 0 97 34t40 88q0 50 -23.5 80.5t-75.5 55.5l32 54q64 -30 98 -70t34 -116zM235 773q28 0 51.5 14t33.5 28l9 14l40 -22q-5 -22 -42 -53.5t-92 -31.5t-91.5 31.5t-41.5 53.5l40 22q3 -6 10 -15.5t31 -25t52 -15.5z" />
    <glyph glyph-name="uni00560304" horiz-adv-x="618" 
d="M598 676l-211 -536l-34 85l187 471zM342 28l-10 -28h-50l-262 674l63 20zM417 752h-215v54h215v-54z" />
    <glyph glyph-name="uni00580304" horiz-adv-x="557" 
d="M532 663l-167 -244l-36 53l152 222zM537 24l-57 -30l-459 669l56 31q4 -6 460 -670zM227 218l-154 -224l-53 29l171 248zM392 752h-215v54h215v-54z" />
    <glyph glyph-name="Iacute_Jacute" horiz-adv-x="480" 
d="M247 825l-156 -110l-28 35l142 125zM481 825l-156 -110l-28 35l142 125zM154 0h-64v688h64v-688zM391 28q0 -115 -63 -177.5t-173 -62.5v58q73 0 122 46t49 150v646h65v-660z" />
    <glyph glyph-name="uni0065030A" horiz-adv-x="442" 
d="M414 229l-227 -1v55h164q0 53 -27.5 89.5t-78.5 36.5q-68 0 -104.5 -54t-36.5 -126q0 -76 39 -127t114 -51q64 0 114 35l7 -13q8 -13 15 -26l7 -13q-67 -40 -147 -40q-99 0 -155 66t-56 165q0 103 53.5 172t150.5 69q86 0 127 -55.5t41 -145.5v-36zM334 611
q0 -33 -19 -56t-50 -31v42q23 16 23 45q0 21 -14 36.5t-35 15.5t-35 -15.5t-14 -36.5q0 -28 22 -43v-44q-31 8 -49.5 31.5t-18.5 55.5q0 40 27 64.5t68 24.5t68 -24.5t27 -64.5z" />
    <glyph glyph-name="uni00660304" horiz-adv-x="281" 
d="M114 774v54h215v-54h-215zM321 707l-24 -51q-26 16 -65 16q-21 0 -41 -17t-20 -57l-1 -138h111v-56h-250v56h80v144q0 55 32 89.5t86 34.5q25 0 48 -5t33 -11zM170 0h-59v323h59v-323z" />
    <glyph glyph-name="uni006A0301" horiz-adv-x="250" 
d="M154 4q0 -148 -132 -234l-34 42q106 72 106 207v441h60v-456zM243 647l-145 -123l-32 32l131 138z" />
    <glyph glyph-name="uni006E0304" 
d="M427 0h-60v325q0 43 -22 63.5t-58 20.5q-32 0 -65 -18v58q28 17 68 17q69 0 103 -34t34 -85v-347zM140 0h-60v460h60v-460zM356 551h-215v54h215v-54z" />
    <glyph glyph-name="uni007000AF" horiz-adv-x="516" 
d="M476 231q0 -91 -52 -164t-147 -73q-37 0 -55 9v58q3 -3 24 -7t29 -4q60 0 100.5 49.5t40.5 130.5q0 82 -35.5 130.5t-97.5 48.5q-46 0 -62 -13v56q22 14 65 14q66 0 110.5 -37t62 -88t17.5 -110zM140 -239h-60v699h60v-699zM353 551h-215v54h215v-54z" />
    <glyph glyph-name="uni00720300" horiz-adv-x="332" 
d="M337 450l-25 -59q-28 14 -58 14q-20 0 -27 -7v60q17 8 36 8q35 0 74 -16zM145 0h-60v460h60v-460zM224 524l-145 123l45 47l132 -138z" />
    <glyph glyph-name="uni00730306" horiz-adv-x="350" 
d="M294 433l-28 -49q-33 25 -85 25q-30 0 -51 -15.5t-21 -41.5q0 -42 44 -66l-32 -49q-73 40 -73 114q0 53 41.5 84t90.5 31q68 0 114 -33zM308 121q0 -59 -43.5 -93t-96.5 -34q-74 0 -123 34l29 51q40 -29 92 -29q34 0 57 19.5t23 51.5q0 41 -53 76l33 49l6 -4
q6 -3 12.5 -8t15.5 -12t17 -17.5t15.5 -22.5t11.5 -28t4 -33zM172 606q28 0 51.5 14t32.5 28l10 14l40 -22q-5 -22 -42 -53.5t-92 -31.5t-91.5 31.5t-41.5 53.5l40 22q3 -6 10 -15.5t31 -25t52 -15.5z" />
    <glyph glyph-name="uni00760304" horiz-adv-x="430" 
d="M415 445l-124 -329l-30 78l102 272zM247 0h-64l-168 445l55 21zM325 551h-215v54h215v-54z" />
    <glyph glyph-name="uni00780304" horiz-adv-x="440" 
d="M425 22l-51 -28l-349 446l53 25q147 -186 347 -443zM328 551h-215v54h215v-54zM165 129l-101 -135l-49 29l117 149zM418 440l-107 -137l-35 45l89 118z" />
    <glyph glyph-name="iacute_jacute" horiz-adv-x="477" 
d="M155 0h-60v460h60v-460zM378 4q0 -148 -132 -234l-34 42q106 72 106 207v441h60v-456zM247 647l-145 -123l-32 32l131 138zM468 647l-145 -123l-32 32l131 138z" />
    <glyph glyph-name="questiondown.cap" horiz-adv-x="399" 
d="M299 649q0 -19 -13 -32t-32 -13t-32.5 13t-13.5 32t13.5 32t32.5 13t32 -13t13 -32zM284 341q-36 0 -64.5 -9.5t-44 -22t-25.5 -27.5t-13 -24.5t-3 -14.5h-71q0 42 44.5 92t115.5 55v138h61v-187zM284 -5q-61 0 -107.5 19t-69 47.5t-33 54t-10.5 45.5h69q0 -11 7 -26.5
t22 -34t47.5 -31.5t74.5 -13v-61z" />
    <glyph glyph-name="exclamdown.cap" horiz-adv-x="290" 
d="M145 604q-19 0 -32 13t-13 32t13 32t32 13t32 -13t13 -32t-13 -32t-32 -13zM114 0v528h64v-528h-64z" />
    <glyph glyph-name="hyphen.cap" horiz-adv-x="300" 
d="M20 313v60h260v-60h-260z" />
    <glyph glyph-name="endash.cap" horiz-adv-x="500" 
d="M30 317v53h440v-53h-440z" />
    <glyph glyph-name="emdash.cap" horiz-adv-x="750" 
d="M30 318v53h690v-53h-690z" />
    <glyph glyph-name="parenleft.cap" horiz-adv-x="369" 
d="M271 -80q-80 61 -130 184.5t-50 244.5q0 128 55 251t127 176l39 -38q-157 -157 -157 -389q0 -94 45 -214.5t112 -168.5z" />
    <glyph glyph-name="parenright.cap" horiz-adv-x="369" 
d="M98 -80l-41 46q67 48 112 168.5t45 214.5q0 232 -157 389l39 38q72 -53 127 -176t55 -251q0 -121 -50 -244.5t-130 -184.5z" />
    <glyph glyph-name="bracketleft.cap" horiz-adv-x="272" 
d="M70 -64v825h182v-54h-121v-717h121v-54h-182z" />
    <glyph glyph-name="bracketright.cap" horiz-adv-x="272" 
d="M20 -64v54h120v717h-120v54h182v-825h-182z" />
    <glyph glyph-name="braceleft.cap" horiz-adv-x="310" 
d="M278 700h-26q-25 0 -40 -6t-21.5 -19.5t-8 -25t-1.5 -32.5v-172q0 -66 -37.5 -98.5t-116.5 -32.5v60q58 0 75.5 18.5t17.5 63.5v188q0 54 33 85.5t97 31.5h28v-61zM278 -67h-28q-130 0 -130 124v160q0 25 -4 42q4 1 10 3t19.5 6t22.5 6l8 2q5 -25 5 -48v-145
q0 -41 14 -65t57 -24h26v-61z" />
    <glyph glyph-name="braceright.cap" horiz-adv-x="310" 
d="M58 700h-26v61h28q64 0 97 -31.5t33 -85.5v-188q0 -45 17.5 -63.5t75.5 -18.5v-60q-79 0 -116.5 32.5t-37.5 98.5v172q0 21 -1.5 32.5t-8 25t-21.5 19.5t-40 6zM60 -67h-28v61h26q43 0 57 24t14 65v145q0 23 5 48l15 -4l30 -8l15 -5q-4 -17 -4 -42v-160q0 -124 -130 -124
z" />
    <glyph glyph-name="guilsinglright.cap" horiz-adv-x="330" 
d="M202 171l-122 171l122 171l48 -31l-102 -140l102 -139z" />
    <glyph glyph-name="guilsinglleft.cap" horiz-adv-x="330" 
d="M128 172l-48 32l102 139l-102 140l48 31l122 -171z" />
    <glyph glyph-name="guillemotleft.cap" horiz-adv-x="494" 
d="M202 171l-122 171l122 171l48 -31l-102 -140l102 -139zM366 171l-122 171l122 171l48 -31l-102 -140l102 -139z" />
    <glyph glyph-name="guillemotright.cap" horiz-adv-x="494" 
d="M128 172l-48 32l102 139l-102 140l48 31l122 -171zM293 172l-49 32l102 139l-102 140l49 31l121 -171z" />
    <glyph glyph-name="Acute" horiz-adv-x="593" 
d="M379 825l-156 -110l-28 35l142 125z" />
    <glyph glyph-name="Caron" horiz-adv-x="506" 
d="M389 820l-136 -105l-136 105l36 42l100 -83l100 83z" />
    <glyph glyph-name="Circumflex" horiz-adv-x="506" 
d="M253 863l136 -105l-36 -42l-100 83l-100 -83l-36 42z" />
    <glyph glyph-name="Dotaccent" horiz-adv-x="250" 
d="M175 780q0 -19 -13 -32t-32 -13t-32.5 13t-13.5 32t13.5 32t32.5 13t32 -13t13 -32z" />
    <glyph glyph-name="Hungarumlaut" horiz-adv-x="541" 
d="M273 825l-156 -110l-28 35l142 125zM452 825l-156 -110l-28 35l142 125z" />
    <glyph glyph-name="Grave" horiz-adv-x="595" 
d="M351 715l-156 110l42 50l142 -125z" />
    <glyph glyph-name="Macron" horiz-adv-x="275" 
d="M245 752h-215v54h215v-54z" />
    <glyph glyph-name="Tilde" horiz-adv-x="514" 
d="M404 805q-11 -28 -36 -54t-57 -26q-22 0 -57.5 26t-49.5 26q-36 0 -56 -45l-38 21q7 31 35.5 57t58.5 26q17 0 56 -27t51 -27q19 0 30 10.5t24 32.5z" />
    <glyph glyph-name="commaaccent" horiz-adv-x="179" 
d="M143 -31l-50 -160h-47l29 160h68z" />
    <glyph glyph-name="zero.tnum_lnum_zero" horiz-adv-x="540" 
d="M489 343q0 -66 -10 -120.5t-25.5 -89t-34.5 -61t-38 -40t-34.5 -21.5t-25.5 -10l-10 -2v62q5 1 12.5 4.5t26.5 22t34 46t27 83t12 127.5q0 178 -68 253l-140 -596q-7 2 -18 6t-39.5 27t-50.5 56.5t-40 100.5t-18 153q0 66 10 120.5t26 89t35 61.5t38 40.5t35 22t26 10.5
l10 2v-63q-5 -1 -12.5 -4t-27 -21.5t-34.5 -46t-27 -83.5t-12 -129q0 -184 71 -255l135 599q7 -1 18 -5t40 -26.5t51 -56t40 -101.5t18 -155z" />
    <glyph glyph-name="zero.pnum_lnum" horiz-adv-x="540" 
d="M489 343q0 -66 -10 -120.5t-25.5 -89t-34.5 -61t-38 -40t-34.5 -21.5t-25.5 -10l-10 -2v62q5 1 12.5 4.5t26.5 22t34 46t27 83t12 127.5q0 73 -11.5 128.5t-28 83.5t-33 45.5t-28.5 21.5l-11 4v62q4 0 10.5 -1.5t25 -10t35 -21.5t37 -39.5t35.5 -61.5t25 -90t10 -122z
M229 -2q-7 1 -19.5 4.5t-43.5 24.5t-54.5 54.5t-43 102.5t-19.5 160q0 66 10 120.5t26 89t35 61.5t38 40.5t35 22t26 10.5l10 2v-63q-5 -1 -12.5 -4t-27 -21.5t-34.5 -46t-27 -83.5t-12 -129t11.5 -128.5t28 -83t33.5 -45t29 -21.5l11 -4v-63z" />
    <glyph glyph-name="one.pnum_lnum" horiz-adv-x="328" 
d="M238 646l-199 -103l-29 52l179 93h49v-42zM238 0h-64v521l64 34v-555z" />
    <glyph glyph-name="two.pnum_lnum" horiz-adv-x="446" 
d="M404 505q0 -59 -38 -133q-46 -91 -168 -227h-78q143 163 186 248q31 64 31 113q0 48 -26 88t-82 40q-44 0 -81.5 -21.5t-53.5 -42.5l-45 45q82 79 186 79q83 0 126 -53t43 -136zM403 0h-352l-18 63h370v-63z" />
    <glyph glyph-name="three.pnum_lnum" horiz-adv-x="445" 
d="M379 532q0 -47 -20 -84t-47.5 -57.5t-60.5 -34t-56 -18t-37 -4.5h-38v60h19q25 0 51 6t54 19t46 41t18 66q0 45 -31 77t-79 32q-24 0 -46.5 -4.5t-34.5 -9.5t-27 -12.5l-17 -8.5l-23 46q76 48 148 48q84 0 132.5 -44.5t48.5 -117.5zM396 190q0 -84 -59 -140.5t-149 -56.5
q-95 0 -162 50l28 56q72 -44 133 -44q34 0 60.5 10t40.5 25t22.5 34.5t11 34t2.5 29.5q0 70 -35 97l60 34q19 -17 33 -52t14 -77z" />
    <glyph glyph-name="four.pnum_lnum" horiz-adv-x="481" 
d="M455 211h-84v-211h-65v688h65v-416h84v-61zM224 211h-189l-34 49l223 312v-101l-140 -199h140v-61z" />
    <glyph glyph-name="five.pnum_lnum" horiz-adv-x="444" 
d="M394 624h-237l-18 -126l-64 -5l29 195h290v-64zM400 251h-68q-1 12 -4 22.5t-13.5 29t-27 30.5t-48 20.5t-72.5 5.5l-115 -13l10 62q64 11 125 12q56 1 97.5 -14t63 -36t34 -47.5t15.5 -43t3 -28.5zM398 169q0 -8 -4 -25t-18 -44t-34.5 -49.5t-59 -39.5t-86.5 -17
q-100 0 -176 45l31 60q19 -14 61.5 -30t78.5 -16q43 0 74 15.5t44.5 38t18.5 38t5 24.5h65z" />
    <glyph glyph-name="six.pnum_lnum" horiz-adv-x="487" 
d="M447 207q0 -56 -18.5 -99.5t-45 -65.5t-50 -33t-39.5 -11v60q3 1 9 3.5t20.5 13.5t26 25.5t20.5 41.5t9 60q0 59 -37 102.5t-96 43.5l-39 -2l15 62q17 1 23 1q85 0 143.5 -54.5t58.5 -147.5zM399 641q-135 -46 -212.5 -155.5t-77.5 -247.5q0 -148 103 -181v-60
q-23 0 -49 10.5t-55.5 35.5t-48.5 79t-19 129q0 152 93.5 271t242.5 177z" />
    <glyph glyph-name="seven.pnum_lnum" horiz-adv-x="397" 
d="M392 613h-380v68h357zM354 531l-234 -537l-62 20l220 517h76z" />
    <glyph glyph-name="eight.pnum_lnum" horiz-adv-x="482" 
d="M441 185q0 -48 -20 -86.5t-48.5 -58.5t-52.5 -31t-38 -11v59q11 1 31.5 11.5t42 40.5t21.5 71q0 33 -11.5 58t-34.5 42.5t-44 28t-53 22.5q-56 -19 -93.5 -55.5t-37.5 -88.5q0 -47 35.5 -86t61.5 -43v-60q-11 0 -35 10t-53.5 30t-51 58t-21.5 84q0 126 128 182
q-111 55 -111 154q0 40 14 72t34 50.5t42 30.5t35.5 16.5t18.5 4.5v-59q-5 0 -22 -9t-37 -36t-20 -64q0 -89 130 -136q108 40 108 130q0 24 -7 44.5t-17.5 33t-21.5 21t-19.5 12t-11.5 3.5v60q11 0 32 -9t47 -26.5t45 -53t19 -79.5q0 -58 -32.5 -100t-81.5 -64
q54 -19 92 -61.5t38 -111.5z" />
    <glyph glyph-name="nine.pnum_lnum" horiz-adv-x="488" 
d="M448 435q0 -152 -93.5 -271t-242.5 -177l-23 58q135 46 212.5 155.5t77.5 247.5q0 51 -12 88t-31 56t-32.5 26.5t-27.5 11.5v60q18 0 38 -6t45 -23t44 -43.5t32 -74t13 -108.5zM281 340l-15 -62q-17 -1 -23 -1q-85 0 -143.5 55t-58.5 147q0 56 18.5 99.5t45 65.5
t49.5 32.5t40 11.5v-60q-3 -1 -9 -3.5t-20.5 -13.5t-26 -25.5t-20.5 -41.5t-9 -60q0 -59 37 -102t96 -43z" />
    <glyph glyph-name="zero.tnum_lnum" horiz-adv-x="500" 
d="M470 343q0 -66 -10 -120.5t-25.5 -89t-34.5 -61t-38 -40t-34.5 -21.5t-25.5 -10l-10 -2v62q5 1 12.5 4.5t26.5 22t34 46t27 83t12 127.5q0 73 -11.5 128.5t-28 83.5t-33 45.5t-27.5 21.5l-12 4v62q4 0 10.5 -1.5t25 -10t35 -21.5t37 -39.5t35.5 -61.5t25 -90t10 -122z
M210 -2q-7 1 -19.5 4.5t-43.5 24.5t-54.5 54.5t-43 102.5t-19.5 160q0 66 10 120.5t26 89t35 61.5t38 40.5t35 22t26 10.5l10 2v-63q-5 -1 -12.5 -4t-27 -21.5t-34.5 -46t-27 -83.5t-12 -129q0 -53 6 -97t16 -72.5t22 -50t24.5 -33t22.5 -18.5t16 -9l6 -2v-63z" />
    <glyph glyph-name="one.tnum_lnum" horiz-adv-x="500" 
d="M331 646l-267 -139l-29 52l247 129h49v-42zM331 0h-64v521l64 34v-555z" />
    <glyph glyph-name="two.tnum_lnum" horiz-adv-x="500" 
d="M432 505q0 -72 -36 -135q-12 -21 -27 -42.5t-31.5 -41.5t-30.5 -37t-31.5 -35t-27.5 -28.5t-24.5 -24.5t-16.5 -16h-85q59 55 121.5 126.5t95.5 125.5q26 44 26 109q0 47 -34 87.5t-100 40.5q-44 0 -81.5 -21.5t-53.5 -42.5l-45 45q82 79 186 79q86 0 140.5 -55
t54.5 -134zM430 0h-377l-18 63h395v-63z" />
    <glyph glyph-name="three.tnum_lnum" horiz-adv-x="500" 
d="M419 532q0 -47 -20 -84t-47.5 -57.5t-60.5 -34t-56 -18t-37 -4.5h-38v60h19q25 0 51 6t54 19t46 41t18 66q0 45 -31 77t-79 32q-24 0 -46.5 -4.5t-34.5 -9.5t-27 -12.5l-17 -8.5l-23 46q76 48 148 48q84 0 132.5 -44.5t48.5 -117.5zM436 190q0 -84 -59 -140.5t-149 -56.5
q-95 0 -162 50l28 56q72 -44 133 -44q34 0 60.5 10t40.5 25t22.5 34.5t11 34t2.5 29.5q0 70 -35 97l60 34q19 -17 33 -52t14 -77z" />
    <glyph glyph-name="four.tnum_lnum" horiz-adv-x="500" 
d="M473 211h-84v-211h-65v688h65v-416h84v-61zM242 211h-189l-34 49l223 312v-101l-140 -199h140v-61z" />
    <glyph glyph-name="five.tnum_lnum" horiz-adv-x="500" 
d="M414 624h-237l-18 -126l-64 -5l29 195h290v-64zM440 251h-68q-1 11 -4.5 22.5t-15.5 30t-30.5 31t-53.5 20.5t-81 4l-115 -13l10 62q64 8 125 12q60 3 105.5 -11t69 -35.5t37.5 -49t17.5 -44.5t3.5 -29zM438 169q0 -8 -5 -25t-20.5 -43.5t-38.5 -50t-64.5 -40
t-93.5 -16.5q-100 0 -176 45l31 60q19 -14 61.5 -30t78.5 -16q40 0 71 11t47.5 26t27 33t13.5 29t3 17h65z" />
    <glyph glyph-name="six.tnum_lnum" horiz-adv-x="500" 
d="M452 207q0 -56 -18.5 -99.5t-45 -65.5t-50 -33t-39.5 -11v60q3 1 9 3.5t20.5 13.5t26 25.5t20.5 41.5t9 60q0 59 -37 102.5t-96 43.5l-39 -2l15 62q17 1 23 1q85 0 143.5 -54.5t58.5 -147.5zM404 641q-135 -46 -212.5 -155.5t-77.5 -247.5q0 -148 103 -181v-60
q-23 0 -49 10.5t-55.5 35.5t-48.5 79t-19 129q0 152 93.5 271t242.5 177z" />
    <glyph glyph-name="seven.tnum_lnum" horiz-adv-x="500" 
d="M458 613h-394v68h371zM420 531l-248 -537l-62 20l234 517h76z" />
    <glyph glyph-name="eight.tnum_lnum" horiz-adv-x="500" 
d="M451 185q0 -48 -20 -86.5t-48.5 -58.5t-52.5 -31t-38 -11v59q11 1 31.5 11.5t42 40.5t21.5 71q0 33 -11.5 58t-34.5 42.5t-44 28t-53 22.5q-56 -19 -93.5 -55.5t-37.5 -88.5q0 -47 35.5 -86t61.5 -43v-60q-11 0 -35 10t-53.5 30t-51 58t-21.5 84q0 126 128 182
q-111 55 -111 154q0 40 14 72t34 50.5t42 30.5t35.5 16.5t18.5 4.5v-59q-5 0 -22 -9t-37 -36t-20 -64q0 -89 130 -136q108 40 108 130q0 24 -7 44.5t-17.5 33t-21.5 21t-19.5 12t-11.5 3.5v60q11 0 32 -9t47 -26.5t45 -53t19 -79.5q0 -58 -32.5 -100t-81.5 -64
q54 -19 92 -61.5t38 -111.5z" />
    <glyph glyph-name="nine.tnum_lnum" horiz-adv-x="500" 
d="M455 435q0 -152 -93.5 -271t-242.5 -177l-23 58q135 46 212.5 155.5t77.5 247.5q0 51 -12 88t-31 56t-32.5 26.5t-27.5 11.5v60q18 0 38 -6t45 -23t44 -43.5t32 -74t13 -108.5zM288 340l-15 -62q-17 -1 -23 -1q-85 0 -143.5 55t-58.5 147q0 56 18.5 99.5t45 65.5
t49.5 32.5t40 11.5v-60q-3 -1 -9 -3.5t-20.5 -13.5t-26 -25.5t-20.5 -41.5t-9 -60q0 -59 37 -102t96 -43z" />
    <glyph glyph-name="zero.zero" horiz-adv-x="500" 
d="M208 -2q-58 10 -97 49t-54 85t-15 97q0 49 15.5 95.5t55 86.5t95.5 51v-61q-44 -14 -73.5 -57t-29.5 -115q0 -113 71 -157l116 390q57 -10 96 -50t54 -86.5t15 -95.5q0 -50 -15 -96.5t-54 -86t-96 -49.5v59q43 14 72.5 57t29.5 116q0 111 -70 158z" />
    <glyph glyph-name="zero.tnum_onum" horiz-adv-x="500" 
d="M42 229q0 49 15.5 95.5t55 86.5t95.5 51v-61q-44 -14 -73.5 -57t-29.5 -115q0 -71 29.5 -114.5t73.5 -57.5v-59q-58 10 -97 49t-54 85t-15 97zM457 230q0 -50 -15 -96.5t-54 -86t-96 -49.5v59q43 14 72.5 57t29.5 116q0 72 -29 115.5t-73 57.5v59q57 -10 96 -50t54 -86.5
t15 -95.5z" />
    <glyph glyph-name="one.tnum_onum" horiz-adv-x="500" 
d="M356 416l-221 -109l-29 52l201 99h49v-42zM356 0h-64v291l64 34v-325z" />
    <glyph glyph-name="two.tnum_onum" horiz-adv-x="500" 
d="M443 325q0 -42 -38 -84.5t-113 -95.5h-93q50 34 74.5 52t52 42t38.5 43t11 39q0 41 -35.5 66t-85.5 25q-34 0 -70 -13t-60 -37l-32 43q31 31 77.5 48t91.5 17q75 0 128.5 -39.5t53.5 -105.5zM95 0l-26 63h370v-63h-344z" />
    <glyph glyph-name="three.tnum_onum" horiz-adv-x="500" 
d="M418 305q0 -47 -20 -84t-47.5 -57.5t-60.5 -34t-56 -18t-37 -4.5h-38v60h19q25 0 51 6t54 19t46 41t18 66q0 45 -31 77t-79 32q-24 0 -46.5 -4.5t-34.5 -9.5t-27 -12.5l-17 -8.5l-23 46q76 48 148 48q84 0 132.5 -44.5t48.5 -117.5zM435 -37q0 -84 -59 -140.5t-149 -56.5
q-95 0 -162 50l28 56q72 -44 133 -44q34 0 60.5 10t40.5 25t22.5 34.5t11 34t2.5 29.5q0 69 -35 97l60 34q19 -17 33 -52t14 -77z" />
    <glyph glyph-name="four.tnum_onum" horiz-adv-x="500" 
d="M477 9h-84v-211h-65v688h65v-416h84v-61zM246 9h-189l-34 49l223 312v-101l-140 -199h140v-61z" />
    <glyph glyph-name="five.tnum_onum" horiz-adv-x="500" 
d="M430 394h-237l-18 -126l-64 -5l29 195h290v-64zM443 21h-68q-2 15 -3.5 23.5t-12 28.5t-27 31.5t-50 20t-79.5 4.5l-115 -13l10 62q64 8 125 12q60 3 104.5 -11.5t65.5 -35t33.5 -49t14.5 -44t2 -29.5zM441 -61q0 -10 -10 -35t-31 -58t-65.5 -57.5t-102.5 -24.5
q-100 0 -176 45l31 60q19 -14 61.5 -30t78.5 -16q43 0 75 16t46.5 38t21 38t6.5 24h65z" />
    <glyph glyph-name="six.tnum_onum" horiz-adv-x="500" 
d="M453 207q0 -56 -18.5 -99.5t-45 -65.5t-50 -33t-39.5 -11v60q3 1 9 3.5t20.5 13.5t26 25.5t20.5 41.5t9 60q0 59 -37 102.5t-96 43.5l-39 -2l15 62q17 1 23 1q85 0 143.5 -54.5t58.5 -147.5zM405 641q-135 -46 -212.5 -155.5t-77.5 -247.5q0 -148 103 -181v-60
q-23 0 -49 10.5t-55.5 35.5t-48.5 79t-19 129q0 152 93.5 271t242.5 177z" />
    <glyph glyph-name="seven.tnum_onum" horiz-adv-x="500" 
d="M447 393h-394v68h371zM409 311l-248 -537l-62 20l234 517h76z" />
    <glyph glyph-name="eight.tnum_onum" horiz-adv-x="500" 
d="M451 185q0 -48 -20 -86.5t-48.5 -58.5t-52.5 -31t-38 -11v59q11 1 31.5 11.5t42 40.5t21.5 71q0 33 -11.5 58t-34.5 42.5t-44 28t-53 22.5q-56 -19 -93.5 -55.5t-37.5 -88.5q0 -47 35.5 -86t61.5 -43v-60q-11 0 -35 10t-53.5 30t-51 58t-21.5 84q0 126 128 182
q-111 55 -111 154q0 40 14 72t34 50.5t42 30.5t35.5 16.5t18.5 4.5v-59q-5 0 -22 -9t-37 -36t-20 -64q0 -89 130 -136q108 40 108 130q0 24 -7 44.5t-17.5 33t-21.5 21t-19.5 12t-11.5 3.5v60q11 0 32 -9t47 -26.5t45 -53t19 -79.5q0 -58 -32.5 -100t-81.5 -64
q54 -19 92 -61.5t38 -111.5z" />
    <glyph glyph-name="nine.tnum_onum" horiz-adv-x="500" 
d="M453 208q0 -152 -93.5 -271t-242.5 -177l-23 58q135 46 212.5 155.5t77.5 247.5q0 51 -12 88t-31 56t-32.5 26.5t-27.5 11.5v60q18 0 38 -6t45 -23t44 -43.5t32 -74t13 -108.5zM286 113l-15 -62q-17 -1 -23 -1q-85 0 -143.5 55t-58.5 147q0 56 18.5 99.5t45 65.5
t49.5 32.5t40 11.5v-60q-3 -1 -9 -3.5t-20.5 -13.5t-26 -25.5t-20.5 -41.5t-9 -60q0 -59 37 -102t96 -43z" />
    <glyph glyph-name="registered.pnum_lnum" horiz-adv-x="796" 
d="M769 371h-62q0 24 -10.5 56.5t-35 70t-57.5 69t-84 52.5t-110 21q-75 0 -136 -32.5t-94 -78.5t-50.5 -88t-17.5 -70h-61q0 44 23.5 97.5t66.5 105t114 86t155 34.5q87 0 159 -35.5t113.5 -87.5t64 -105t22.5 -95zM560 147l-52 -23l-123 180h-25v-173h-55v399h55v-175h29
q30 0 49.5 7t27 19.5t10 22.5t2.5 24q0 42 -45 49v52q103 -9 103 -102q0 -44 -26.5 -74t-65.5 -42zM769 289q-1 -32 -15 -71.5t-43.5 -83.5t-70 -80t-101 -59.5t-129.5 -23.5q-65 0 -123.5 22t-100 56.5t-72.5 77t-46.5 84.5t-16.5 78h62q1 -23 11.5 -55t35 -69t57.5 -68
t83.5 -51.5t109.5 -20.5q56 0 105.5 19.5t83 49.5t58.5 66.5t37 69.5t14 59h61z" />
    <glyph glyph-name="Euro.pnum_lnum" horiz-adv-x="473" 
d="M433 653l-28 -56l-12 7q-12 8 -18.5 11t-20 8t-29 7.5t-33.5 2.5q-67 0 -112 -50.5t-59 -151.5h244v-50h-315q8 144 73 228.5t180 84.5q71 0 130 -41zM442 39q-1 0 -15 -8.5t-19 -11t-20.5 -9t-27.5 -9t-30.5 -5t-37.5 -2.5q-44 0 -80 12t-59.5 29t-42 44t-28.5 50
t-17 54.5t-9 49t-4 42t-2 25.5h315v-50h-243q27 -196 171 -196q14 0 28 2.5t24.5 5.5t23 8t19 8.5t16.5 8.5l12 6z" />
    <glyph glyph-name="dollar.pnum_lnum" horiz-adv-x="473" 
d="M412 642l-36 -51q-61 41 -115 42v-166l-49 21v140q-35 -10 -60.5 -36t-25.5 -68q0 -28 8 -49t26 -36t27 -21t29 -16l-31 -53q-27 13 -45.5 25t-38.5 33t-30 51.5t-10 70.5q0 60 44 105.5t107 56.5v61h49v-58q70 -1 151 -52zM423 180q0 -69 -46 -120.5t-116 -62.5v-63h-49
v60q-98 4 -162 69l40 46q46 -49 122 -55v186l49 -22v-159q43 11 70 42t27 75q0 50 -23.5 80.5t-75.5 55.5l32 54q64 -30 98 -70t34 -116z" />
    <glyph glyph-name="sterling.pnum_lnum" horiz-adv-x="470" 
d="M450 0h-388v50q46 23 74.5 73t28.5 108v7h67q0 -48 -19 -97.5t-52 -79.5h289v-61zM430 669l-24 -60q-40 22 -81 22q-54 0 -86.5 -39.5t-32.5 -92.5q0 -28 2 -36h-69q-2 18 -2 31q0 90 52.5 144.5t133.5 54.5q67 0 107 -24zM367 320h-307v61h307v-61z" />
    <glyph glyph-name="florin.pnum_lnum" horiz-adv-x="340" 
d="M351 677l-20 -55q-23 15 -63 15q-22 0 -44 -17t-26 -57l-13 -134h104v-55h-250v55h86l14 140q5 55 41 90t91 35q43 0 80 -17zM171 292l-18 -162q-6 -61 -40 -98.5t-94 -37.5q-47 0 -79 16l20 56q21 -15 43 -15q42 0 63 17.5t26 55.5l19 168h60z" />
    <glyph glyph-name="yen.pnum_lnum" horiz-adv-x="540" 
d="M56 266h441v-53h-185v-213h-64v213h-192v53zM497 340h-441v52h147l-183 270l53 31l208 -300l207 300l52 -33l-184 -268h141v-52z" />
    <glyph glyph-name="threesup_fraction_eightinf" horiz-adv-x="744" 
d="M132 331q-56 0 -91 27l21 44q36 -22 74 -22q25 0 39.5 15t14.5 44q0 30 -22.5 44.5t-53.5 14.5h-25v47h25q26 0 47 14t21 41q0 18 -12.5 31.5t-30.5 13.5q-38 0 -68 -17l-21 38q40 25 89 25q47 0 74 -24t27 -64q0 -49 -46 -78q54 -26 54 -89q0 -43 -32 -74t-84 -31z
M557 698l-340 -728l-50 24l339 727zM600 206q42 15 42 56q0 23 -15 38v52q33 -8 50.5 -31.5t17.5 -55.5q0 -45 -44 -78q52 -28 52 -86q0 -36 -21 -62.5t-55 -35.5v51q24 15 24 45q0 45 -60 69q-22 -8 -37.5 -25.5t-15.5 -40.5q0 -28 25 -47v-52q-34 9 -55.5 34t-21.5 62
q0 56 53 88q-44 28 -44 75q0 29 17 54.5t51 34.5v-50q-16 -13 -16 -36q0 -40 53 -59z" />
    <glyph glyph-name="fivesup_fraction_eightinf" horiz-adv-x="748" 
d="M136 332q-43 0 -95 28l25 45q43 -26 69 -26q32 0 53 17.5t21 48.5q0 65 -75 65q-23 0 -47 -3l-24 24l18 157h162v-49h-116l-9 -82l21 1q54 0 88.5 -26t34.5 -84q0 -44 -34 -80t-92 -36zM561 698l-340 -728l-50 24l339 727zM604 206q42 15 42 56q0 23 -15 38v52
q33 -8 50.5 -31.5t17.5 -55.5q0 -45 -44 -78q52 -28 52 -86q0 -36 -21 -62.5t-55 -35.5v51q24 15 24 45q0 45 -60 69q-22 -8 -37.5 -25.5t-15.5 -40.5q0 -28 25 -47v-52q-34 9 -55.5 34t-21.5 62q0 56 53 88q-44 28 -44 75q0 29 17 54.5t51 34.5v-50q-16 -13 -16 -36
q0 -40 53 -59z" />
    <glyph glyph-name="sevensup_fraction_eightinf" horiz-adv-x="707" 
d="M115 329l-50 16l122 289h-146v51h193l18 -30zM520 698l-340 -728l-50 24l339 727zM563 206q42 15 42 56q0 23 -15 38v52q33 -8 50.5 -31.5t17.5 -55.5q0 -45 -44 -78q52 -28 52 -86q0 -36 -21 -62.5t-55 -35.5v51q24 15 24 45q0 45 -60 69q-22 -8 -37.5 -25.5
t-15.5 -40.5q0 -28 25 -47v-52q-34 9 -55.5 34t-21.5 62q0 56 53 88q-44 28 -44 75q0 29 17 54.5t51 34.5v-50q-16 -13 -16 -36q0 -40 53 -59z" />
    <glyph glyph-name="afii61352.pnum_lnum" horiz-adv-x="1099" 
d="M722 239v53h317v-53h-317zM651 139l-65 93v456h65v-549zM168 688l481 -688h-79l-478 688h76zM155 0h-65v549l65 -94v-455zM1039 516q0 -35 -11.5 -69.5t-40.5 -64.5t-70 -39v63q59 27 59 110q0 82 -59 109v63q61 -13 91.5 -64t30.5 -108zM844 344q-61 13 -91.5 63
t-30.5 108q0 56 31.5 107.5t91.5 65.5v-64q-60 -27 -60 -109t59 -109v-62z" />
    <glyph glyph-name="period.superior" horiz-adv-x="100" 
d="M50 324q-13 0 -22.5 9.5t-9.5 22.5t9.5 22.5t22.5 9.5t22.5 -9.5t9.5 -22.5t-9.5 -22.5t-22.5 -9.5z" />
    <glyph glyph-name="comma.superior" horiz-adv-x="100" 
d="M6 282l30 103h57l-49 -103h-38z" />
    <glyph glyph-name="dollar.superior" horiz-adv-x="237" 
d="M123 644q-52 0 -52 -47q0 -24 23 -41.5t51 -27.5t51 -35t23 -62t-21.5 -66t-55.5 -38v-38h-45v35q-47 6 -84 42l23 36q41 -32 69 -32q66 0 66 55q0 42 -75 73q-73 30 -73 99q0 35 20.5 59.5t51.5 31.5v46h45v-44q42 -2 73 -32l-23 -38q-37 24 -67 24z" />
    <glyph glyph-name="cent.superior" horiz-adv-x="286" 
d="M146 389v98h44v-102q36 5 68 29l28 -46q-1 -1 -10.5 -6.5t-13 -7.5t-13.5 -6.5t-17.5 -6.5t-18.5 -4t-23 -3v-45h-44v49q-57 7 -90.5 45t-40.5 93v11h53q14 -80 78 -98zM189 642v-103h-44v98q-59 -11 -75 -98h-55q12 62 45 101.5t84 47.5v46h46v-43q60 -3 95 -31l-24 -45
q-41 23 -72 27z" />
    <glyph glyph-name="equal.inferior" horiz-adv-x="279" 
d="M37 108v45h205v-45h-205zM37 188v44h205v-44h-205z" />
    <glyph glyph-name="minus.inferior" horiz-adv-x="230" 
d="M13 149v46h205v-46h-205z" />
    <glyph glyph-name="plus.inferior" horiz-adv-x="245" 
d="M99 67v83h-80v46h80v79h47v-79h80v-46h-80v-83h-47z" />
    <glyph glyph-name="period.inferior" horiz-adv-x="100" 
d="M50 -11q-13 0 -22.5 9.5t-9.5 22.5t9.5 22.5t22.5 9.5t22.5 -9.5t9.5 -22.5t-9.5 -22.5t-22.5 -9.5z" />
    <glyph glyph-name="comma.inferior" horiz-adv-x="100" 
d="M6 -53l30 103h57l-49 -103h-38z" />
    <glyph glyph-name="dollar.inferior" horiz-adv-x="237" 
d="M123 309q-52 0 -52 -47q0 -24 23 -41.5t51 -27.5t51 -35t23 -62t-21.5 -66t-55.5 -38v-38h-45v35q-47 6 -84 42l23 36q41 -32 69 -32q66 0 66 55q0 42 -75 73q-73 30 -73 99q0 35 20.5 59.5t51.5 31.5v46h45v-44q42 -2 73 -32l-23 -38q-37 24 -67 24z" />
    <glyph glyph-name="cent.inferior" horiz-adv-x="286" 
d="M146 54v98h44v-102q36 5 68 29l28 -46q-1 -1 -10.5 -6.5t-13 -7.5t-13.5 -6.5t-17.5 -6.5t-18.5 -4t-23 -3v-45h-44v49q-57 7 -90.5 45t-40.5 93v11h53q14 -80 78 -98zM189 307v-103h-44v98q-59 -11 -75 -98h-55q12 62 45 101.5t84 47.5v46h46v-43q60 -3 95 -31l-24 -45
q-41 23 -72 27z" />
    </font>
</defs>
</svg>
